<?xml version="1.0" standalone="no"?>
<!DOCTYPE svg PUBLIC "-//W3C//DTD SVG 1.1//EN" "http://www.w3.org/Graphics/SVG/1.1/DTD/svg11.dtd" >
<svg xmlns="http://www.w3.org/2000/svg" xmlns:xlink="http://www.w3.org/1999/xlink" version="1.1">
<metadata>
Created by FontForge 20170731 at Mon Sep  5 11:57:37 2016
 By Aleksey,,,
Copyright (c) 2016 by Chris Simpson.
</metadata>
<defs>
<font id="Metropolis-ThinItalic" horiz-adv-x="611" >
  <font-face 
    font-family="Metropolis Thin"
    font-weight="400"
    font-style="italic"
    font-stretch="normal"
    units-per-em="1000"
    panose-1="0 0 5 0 0 0 0 0 0 0"
    ascent="795"
    descent="-205"
    x-height="517"
    cap-height="687"
    bbox="-268 -269 1087 965"
    underline-thickness="20"
    underline-position="-173"
    slope="-11.75"
    unicode-range="U+0020-2212"
  />
<missing-glyph horiz-adv-x="500" 
d="M410 795v-1000h-317v1000h317zM333 728h-165v-33h65v-37h-66v-33h166v33h-66v37h66v33zM267 599h-100v-104h166v34h-66v70zM233 565v-36h-33v36h33zM333 468h-166v-33h66v-37h-66v-33h100v70h66v33zM333 408h-33v-66h-133v-34h166v100zM333 286h-100v-56h34v23h33v-47
h-100v80h-33v-113h166v113zM333 113h-166v-113h166v113zM300 80v-47h-100v47h100zM333 -23h-166v-33h70l-70 -47v-33h166v33h-102l70 47h32v33z" />
    <glyph glyph-name=".notdef" horiz-adv-x="500" 
d="M410 795v-1000h-317v1000h317zM333 728h-165v-33h65v-37h-66v-33h166v33h-66v37h66v33zM267 599h-100v-104h166v34h-66v70zM233 565v-36h-33v36h33zM333 468h-166v-33h66v-37h-66v-33h100v70h66v33zM333 408h-33v-66h-133v-34h166v100zM333 286h-100v-56h34v23h33v-47
h-100v80h-33v-113h166v113zM333 113h-166v-113h166v113zM300 80v-47h-100v47h100zM333 -23h-166v-33h70l-70 -47v-33h166v33h-102l70 47h32v33z" />
    <glyph glyph-name=".null" horiz-adv-x="0" 
 />
    <glyph glyph-name="nonmarkingreturn" horiz-adv-x="333" 
 />
    <glyph glyph-name="space" unicode=" " horiz-adv-x="290" 
 />
    <glyph glyph-name="exclam" unicode="!" horiz-adv-x="257" 
d="M98 193l102 494h36l-102 -494h-36zM75 -12q-13 0 -20.5 7.5t-7.5 18.5q0 12 10 23t24 11q12 0 19 -7.5t7 -18.5q0 -13 -10 -23.5t-22 -10.5z" />
    <glyph glyph-name="quotedbl" unicode="&#x22;" horiz-adv-x="383" 
d="M128 456q5 51 8 88q1 6 2 18t1.5 17.5t2 15.5t3 14.5l4 12t5.5 11t7 7t9 5t12 1.5q10 0 17 -7t7 -17t-50 -166h-28zM309 456q5 51 8 88q1 6 2 18t1.5 17.5t2 15.5t3 14.5l4 12t5.5 11t7 7t9 5t12 1.5q11 0 17.5 -7t6.5 -17t-50 -166h-28z" />
    <glyph glyph-name="numbersign" unicode="#" horiz-adv-x="669" 
d="M661 459h-131l-106 -231h131l-16 -36h-132l-88 -192h-38l88 192h-178l-88 -192h-38l88 192h-128l17 36h128l106 231h-129l16 36h130l88 192h38l-88 -192h178l88 192h38l-88 -192h131zM386 228l106 231h-178l-106 -231h178z" />
    <glyph glyph-name="dollar" unicode="$" horiz-adv-x="603" 
d="M413 699q115 -9 194 -98l-26 -26q-67 82 -176 88l-62 -299q106 -29 149 -61.5t43 -94.5q0 -88 -80 -152.5t-190 -66.5l-13 -63h-36l13 64q-140 14 -216 109l25 26q34 -43 87.5 -68.5t111.5 -30.5l65 312q-95 28 -134.5 57.5t-39.5 85.5q0 86 73.5 150t175.5 69l12 59h36z
M164 490q0 -46 35 -70t110 -46l60 289q-85 -5 -145 -55.5t-60 -117.5zM498 200q0 53 -39.5 79.5t-122.5 49.5l-63 -304q93 3 159 54t66 121z" />
    <glyph glyph-name="percent" unicode="%" horiz-adv-x="770" 
d="M214 349q-54 0 -85.5 34.5t-31.5 92.5q0 84 53.5 150.5t130.5 66.5q56 0 87 -36.5t31 -91.5q0 -83 -54 -149.5t-131 -66.5zM72 0l613 687h49l-613 -687h-49zM217 385q61 0 103 55t42 120q0 43 -21.5 70t-62.5 27q-60 0 -102.5 -55.5t-42.5 -121.5q0 -43 22.5 -69
t61.5 -26zM521 -10q-54 0 -85 34.5t-31 92.5q0 86 53 151.5t130 65.5q54 0 86 -35t32 -93q0 -84 -54 -150t-131 -66zM524 26q61 0 103.5 55t42.5 121q0 44 -23 70t-62 26q-60 0 -102 -54.5t-42 -122.5q0 -43 22 -69t61 -26z" />
    <glyph glyph-name="ampersand" unicode="&#x26;" horiz-adv-x="645" 
d="M604 315q-77 -112 -145 -186q14 -20 92 -120l-38 -15q-49 62 -82 107q-114 -113 -225 -113q-79 0 -131 46t-52 117q0 46 18.5 84t52.5 65.5t68 46.5t78 36q-45 76 -45 126q0 70 59.5 128t129.5 58q55 0 92 -37t37 -92q0 -33 -13 -61t-31.5 -47t-50.5 -38t-58.5 -31
t-67.5 -27q53 -81 145 -204q59 65 136 174zM381 659q-56 0 -103 -46t-47 -104q0 -49 40 -114q42 15 65 24.5t54.5 26t47 31.5t27.5 37t12 48q0 40 -27 68.5t-69 28.5zM207 24q97 0 203 105q-69 95 -150 221q-90 -35 -146 -80.5t-56 -115.5q0 -55 42.5 -92.5t106.5 -37.5z
" />
    <glyph glyph-name="quotesingle" unicode="'" horiz-adv-x="202" 
d="M128 456q5 51 8 88q1 6 2 18t1.5 17.5t2 15.5t3 14.5l4 12t5.5 11t7 7t9 5t12 1.5q10 0 17 -7t7 -17t-50 -166h-28z" />
    <glyph glyph-name="parenleft" unicode="(" horiz-adv-x="330" 
d="M170 -169q-117 151 -117 337q0 142 82.5 281.5t213.5 251.5l21 -28q-125 -106 -203 -237.5t-78 -265.5q0 -172 110 -314z" />
    <glyph glyph-name="parenright" unicode=")" horiz-adv-x="331" 
d="M-16 -171l-21 29q125 105 203 236.5t78 265.5q0 173 -110 315l29 24q117 -154 117 -339q0 -142 -83 -281.5t-213 -249.5z" />
    <glyph glyph-name="asterisk" unicode="*" horiz-adv-x="360" 
d="M210 404q-7 0 -11.5 5t-2.5 12q3 18 16.5 57t17.5 51q-13 -8 -33.5 -23t-36.5 -25.5t-30 -16.5q-6 -3 -13 -1t-10 8q-5 15 11 24q17 9 57.5 24t51.5 20q-12 6 -44 21t-46 23q-13 9 -1 24q12 16 25 7t39.5 -33.5t34.5 -31.5q1 9 3.5 49.5t6.5 58.5q4 17 22 17q7 0 11.5 -5
t2.5 -12q-3 -18 -16.5 -57t-17.5 -51q11 7 47 32t53 33t23 -7q6 -14 -11 -24q-17 -9 -56.5 -24t-51.5 -20q13 -7 44.5 -21.5t44.5 -22.5q15 -8 1 -24q-4 -6 -12 -8.5t-13 1.5q-12 9 -36.5 32t-37.5 33q-1 -9 -3.5 -49.5t-6.5 -58.5q-4 -17 -22 -17z" />
    <glyph glyph-name="plus" unicode="+" horiz-adv-x="594" 
d="M546 352l-8 -36h-211l-44 -211h-36l44 211h-212l8 36h212l44 212h36l-44 -212h211z" />
    <glyph glyph-name="comma" unicode="," horiz-adv-x="243" 
d="M28 -124l-24 21q51 48 73 92q-26 0 -26 24q0 14 10 24.5t24 10.5q28 0 28 -30q0 -52 -85 -142z" />
    <glyph glyph-name="hyphen" unicode="-" horiz-adv-x="371" 
d="M55 254l8 36h259l-8 -36h-259z" />
    <glyph glyph-name="period" unicode="." horiz-adv-x="205" 
d="M51 -12q-13 0 -20.5 7.5t-7.5 18.5q0 12 10 23t24 11q12 0 19 -7.5t7 -18.5q0 -13 -10 -23.5t-22 -10.5z" />
    <glyph glyph-name="slash" unicode="/" horiz-adv-x="370" 
d="M-85 -74l521 817h40l-521 -817h-40z" />
    <glyph glyph-name="zero" unicode="0" horiz-adv-x="646" 
d="M270 -12q-95 0 -149.5 67.5t-54.5 181.5q0 110 43 215.5t124.5 176t178.5 70.5q95 0 149.5 -68t54.5 -181q0 -110 -43.5 -215.5t-124.5 -176t-178 -70.5zM272 24q87 0 159.5 66t111 162.5t38.5 193.5q0 99 -45.5 158t-125.5 59q-87 0 -159.5 -66t-111 -162t-38.5 -193
q0 -100 45.5 -159t125.5 -59z" />
    <glyph glyph-name="one" unicode="1" horiz-adv-x="331" 
d="M146 0l134 640l-176 -98l-13 30l205 115h29l-143 -687h-36z" />
    <glyph glyph-name="two" unicode="2" horiz-adv-x="579" 
d="M-5 0l8 39l314 230q196 144 196 266q0 55 -36 92.5t-99 37.5q-58 0 -119.5 -31.5t-114.5 -89.5l-25 24q58 65 126 98t132 33q79 0 125.5 -46t46.5 -115q0 -144 -212 -298l-284 -204h414l-8 -36h-464z" />
    <glyph glyph-name="three" unicode="3" horiz-adv-x="550" 
d="M221 -12q-137 0 -210 133l30 23q53 -120 182 -120q84 0 153 60t69 137q0 52 -44.5 80.5t-126.5 28.5h-64l8 36h61q94 0 156 47t62 124q0 53 -40.5 89.5t-102.5 36.5q-111 0 -219 -120l-24 26q124 130 249 130q75 0 124 -45t49 -111q0 -65 -41 -119t-107 -73
q46 -11 71.5 -43.5t25.5 -81.5q0 -94 -81 -166t-180 -72z" />
    <glyph glyph-name="four" unicode="4" horiz-adv-x="592" 
d="M339 0l39 185h-347l1 37l436 465h50l-97 -466h114l-7 -36h-114l-39 -185h-36zM78 221h307l89 423z" />
    <glyph glyph-name="five" unicode="5" horiz-adv-x="578" 
d="M247 -12q-71 0 -130 29t-94 81l28 25q31 -47 83.5 -73t114.5 -26q86 0 158 70t72 151q0 58 -41.5 97.5t-105.5 39.5q-81 0 -172 -60l-33 19l80 346h377l-7 -36h-342l-68 -286q73 53 174 53q76 0 125 -47.5t49 -119.5q0 -99 -84 -181t-184 -82z" />
    <glyph glyph-name="six" unicode="6" horiz-adv-x="580" 
d="M405 699q110 0 180 -83l-24 -27q-60 74 -160 74q-73 0 -137.5 -54t-104.5 -135.5t-55 -173.5q30 55 96.5 92t140.5 37q75 0 124.5 -50t49.5 -124q0 -101 -83.5 -184t-185.5 -83q-90 0 -137 57.5t-47 163.5q0 116 43 228t123.5 187t176.5 75zM332 393q-72 0 -139.5 -45.5
t-94.5 -111.5q-1 -8 -1 -23q0 -91 38.5 -140t112.5 -49q88 0 159.5 71t71.5 154q0 61 -41.5 102.5t-105.5 41.5z" />
    <glyph glyph-name="seven" unicode="7" horiz-adv-x="591" 
d="M111 0l442 651h-412l7 36h455l-5 -29l-446 -658h-41z" />
    <glyph glyph-name="eight" unicode="8" horiz-adv-x="562" 
d="M227 -12q-84 0 -139.5 46t-55.5 114q0 71 56 128t133 79q-45 17 -72.5 54.5t-27.5 83.5q0 80 76.5 143t171.5 63q78 0 129.5 -44t51.5 -108q0 -60 -48.5 -116t-121.5 -78q53 -16 84.5 -56.5t31.5 -91.5q0 -87 -84.5 -152t-184.5 -65zM301 373q86 5 149.5 53.5t63.5 116.5
q0 51 -42 85.5t-105 34.5q-80 0 -146 -53t-66 -121q0 -48 40 -80t106 -36zM229 24q89 0 160.5 56.5t71.5 128.5q0 53 -44 86.5t-119 35.5q-92 -2 -161 -53.5t-69 -125.5q0 -54 45.5 -91t115.5 -37z" />
    <glyph glyph-name="nine" unicode="9" horiz-adv-x="581" 
d="M370 699q90 0 137 -57.5t47 -163.5q0 -116 -43 -228t-123.5 -187t-176.5 -75q-110 0 -180 83l24 27q60 -74 160 -74q73 0 137.5 54t104.5 135.5t55 173.5q-30 -55 -96.5 -92t-140.5 -37q-75 0 -124.5 50t-49.5 124q0 101 83.5 184t185.5 83zM284 294q72 0 139.5 45.5
t94.5 111.5q1 8 1 23q0 91 -38.5 140t-112.5 49q-88 0 -159.5 -71t-71.5 -154q0 -61 41.5 -102.5t105.5 -41.5z" />
    <glyph glyph-name="colon" unicode=":" horiz-adv-x="205" 
d="M144 437q-12 0 -19.5 8t-7.5 20t10 22t24 10q11 0 18.5 -7t7.5 -18q0 -14 -10 -24.5t-23 -10.5zM51 -12q-13 0 -20.5 7.5t-7.5 18.5q0 12 10 23t24 11q12 0 19 -7.5t7 -18.5q0 -13 -10 -23.5t-22 -10.5z" />
    <glyph glyph-name="semicolon" unicode=";" horiz-adv-x="244" 
d="M170 403q-13 0 -20.5 7.5t-7.5 18.5q0 12 10 23t24 11q12 0 19 -7.5t7 -18.5q0 -13 -10 -23.5t-22 -10.5zM28 -124l-24 21q51 48 73 92q-26 0 -26 24q0 14 10 24.5t24 10.5q28 0 28 -30q0 -52 -85 -142z" />
    <glyph glyph-name="less" unicode="&#x3c;" horiz-adv-x="587" 
d="M478 102l-409 220l8 44l501 220l-9 -44l-449 -198l367 -198z" />
    <glyph glyph-name="equal" unicode="=" horiz-adv-x="594" 
d="M102 426l8 36h459l-8 -36h-459zM56 206l8 36h459l-8 -36h-459z" />
    <glyph glyph-name="greater" unicode="&#x3e;" horiz-adv-x="587" 
d="M44 102l9 44l449 198l-367 198l9 44l409 -220l-8 -44z" />
    <glyph glyph-name="question" unicode="?" horiz-adv-x="488" 
d="M193 193l33 163q99 8 168 61.5t69 125.5q0 52 -35 86t-90 34q-124 0 -220 -105l-23 27q115 114 247 114q68 0 113 -44t45 -108q0 -82 -71.5 -143t-169.5 -78l-27 -133h-39zM175 -12q-13 0 -20.5 7.5t-7.5 18.5q0 12 10 23t24 11q12 0 19 -7.5t7 -18.5q0 -13 -10 -23.5
t-22 -10.5z" />
    <glyph glyph-name="at" unicode="@" horiz-adv-x="882" 
d="M348 -116q-135 0 -223 87t-88 216q0 121 74.5 235t194 183.5t243.5 69.5q134 0 221 -83.5t87 -206.5q0 -72 -29 -142t-83.5 -117.5t-119.5 -47.5q-43 0 -67.5 23t-23.5 63q-37 -38 -86.5 -62t-99.5 -24q-57 0 -89.5 35t-32.5 93q0 106 86 200.5t189 94.5q50 0 82.5 -23
t43.5 -58l28 66l39 -5q-119 -272 -119 -308q0 -27 18.5 -43t48.5 -16q71 0 124.5 87.5t53.5 176.5q0 111 -79.5 186t-201.5 75q-113 0 -221 -64t-175 -168t-67 -214q0 -117 79.5 -195.5t202.5 -78.5q114 0 228 61l13 -27q-124 -69 -251 -69zM364 114q84 0 156.5 85t72.5 172
q0 43 -25 68.5t-71 25.5q-88 0 -160.5 -79.5t-72.5 -168.5q0 -47 27 -75t73 -28z" />
    <glyph glyph-name="A" unicode="A" horiz-adv-x="710" 
d="M585 0l-41 175h-411l-114 -175h-41l446 687h41l-1 -1l160 -686h-39zM156 211h380l-100 431z" />
    <glyph glyph-name="B" unicode="B" horiz-adv-x="655" 
d="M40 0l143 687h286q72 0 115 -37.5t43 -99.5q0 -60 -38.5 -117.5t-93.5 -75.5q42 -14 66.5 -51t24.5 -85q0 -91 -73.5 -156t-171.5 -65h-301zM155 376h261q72 0 123.5 52t51.5 120q0 46 -34.5 74.5t-92.5 28.5h-252zM84 36h261q84 0 144.5 55t60.5 132q0 53 -37 85
t-101 32h-265z" />
    <glyph glyph-name="C" unicode="C" horiz-adv-x="684" 
d="M350 -12q-115 0 -200 85t-85 213q0 104 59 200t156.5 154.5t204.5 58.5q74 0 135.5 -29t101.5 -77l-29 -23q-34 42 -88 67.5t-121 25.5q-149 0 -266 -115t-117 -259q0 -114 74.5 -189.5t176.5 -75.5q59 0 127 27t118 69l23 -28q-55 -45 -129.5 -74.5t-140.5 -29.5z" />
    <glyph glyph-name="D" unicode="D" horiz-adv-x="745" 
d="M40 0l143 687h234q128 0 209 -74.5t81 -191.5q0 -112 -58.5 -209.5t-157.5 -154.5t-214 -57h-237zM84 36h197q159 0 274.5 112.5t115.5 267.5q0 103 -72.5 169t-186.5 66h-200z" />
    <glyph glyph-name="E" unicode="E" horiz-adv-x="609" 
d="M612 651h-416l-58 -283h384l-7 -36h-385l-61 -296h415l-8 -36h-451l143 687h451z" />
    <glyph glyph-name="F" unicode="F" horiz-adv-x="587" 
d="M632 651h-436l-58 -283h394l-7 -36h-395l-69 -332h-36l143 687h471z" />
    <glyph glyph-name="G" unicode="G" horiz-adv-x="744" 
d="M493 699q153 0 246 -103l-29 -24q-81 91 -219 91q-72 0 -143.5 -32.5t-126 -85.5t-88.5 -123.5t-34 -142.5q0 -109 71.5 -182t182.5 -73q133 0 250 86l40 194h-238l7 36h275l-52 -250q-133 -102 -284 -102q-126 0 -207 82t-81 205q0 106 62 205t162 159t206 60z" />
    <glyph glyph-name="H" unicode="H" horiz-adv-x="677" 
d="M651 687h36l-143 -687h-36l70 332h-447l-70 -332h-36l143 687h36l-66 -319h447z" />
    <glyph glyph-name="I" unicode="I" horiz-adv-x="194" 
d="M25 0l143 687h36l-143 -687h-36z" />
    <glyph glyph-name="J" unicode="J" horiz-adv-x="519" 
d="M174 -12q-62 0 -110 31.5t-70 83.5l26 26q21 -48 62.5 -76.5t93.5 -28.5q76 0 135.5 54t76.5 137l98 472h36l-98 -474q-21 -99 -91 -162t-159 -63z" />
    <glyph glyph-name="K" unicode="K" horiz-adv-x="612" 
d="M38 0l143 687h36l-90 -430l484 430h49l-350 -311l228 -376h-45l-213 349l-162 -144l-44 -205h-36z" />
    <glyph glyph-name="L" unicode="L" horiz-adv-x="534" 
d="M58 36h396l-8 -36h-432l143 687h36z" />
    <glyph glyph-name="M" unicode="M" horiz-adv-x="812" 
d="M40 0l143 687h36l167 -519l385 519h36l-143 -687h-36l129 615l-383 -519l-169 519l-129 -615h-36z" />
    <glyph glyph-name="N" unicode="N" horiz-adv-x="728" 
d="M40 0l143 687h36l337 -631l131 631h36l-143 -687h-35l-337 631l-132 -631h-36z" />
    <glyph glyph-name="O" unicode="O" horiz-adv-x="806" 
d="M349 -12q-125 0 -206 81t-81 203q0 106 62 205.5t162.5 160.5t205.5 61q124 0 205 -83t81 -206q0 -106 -61.5 -204t-161 -158t-206.5 -60zM352 24q96 0 187.5 55.5t147.5 145t56 183.5q0 108 -72 181.5t-183 73.5q-95 0 -186 -55.5t-147.5 -145.5t-56.5 -186
q0 -109 71.5 -180.5t182.5 -71.5z" />
    <glyph glyph-name="P" unicode="P" horiz-adv-x="640" 
d="M25 0l143 687h288q91 0 145.5 -46.5t54.5 -121.5q0 -107 -84.5 -179.5t-200.5 -72.5h-254l-56 -267h-36zM124 303h245q102 0 176.5 61.5t74.5 149.5q0 62 -47.5 99.5t-128.5 37.5h-247z" />
    <glyph glyph-name="Q" unicode="Q" horiz-adv-x="809" 
d="M778 410q0 -84 -40 -165t-109 -143l74 -78l-25 -24l-76 80q-118 -92 -253 -92q-125 0 -206 81t-81 203q0 106 62 205.5t162.5 160.5t205.5 61q124 0 205 -83t81 -206zM352 24q118 0 226 82l-99 104l25 24l101 -106q63 56 100.5 130t37.5 150q0 108 -72 181.5t-183 73.5
q-95 0 -186 -55.5t-147.5 -145.5t-56.5 -186q0 -109 71.5 -180.5t182.5 -71.5z" />
    <glyph glyph-name="R" unicode="R" horiz-adv-x="630" 
d="M656 519q0 -107 -84.5 -179.5t-200.5 -72.5h-4l160 -267h-43l-159 267h-208l-56 -267h-36l143 687h288q91 0 145.5 -46.5t54.5 -121.5zM124 303h245q102 0 176.5 61.5t74.5 149.5q0 62 -47.5 99.5t-128.5 37.5h-247z" />
    <glyph glyph-name="S" unicode="S" horiz-adv-x="603" 
d="M261 -11q-72 0 -138.5 28.5t-109.5 81.5l25 26q38 -48 99 -74t126 -26q96 0 165.5 52t69.5 123q0 24 -9.5 43t-23 31t-39.5 23.5t-46 18t-57 16.5q-108 31 -151.5 60.5t-43.5 88.5q0 89 77.5 154t184.5 65q129 0 217 -99l-26 -26q-33 41 -84.5 65t-108.5 24
q-91 0 -157.5 -51.5t-66.5 -122.5q0 -22 9.5 -39.5t22 -28.5t40 -22.5t46.5 -17.5t59 -17q107 -30 150.5 -62.5t43.5 -94.5q0 -89 -81 -154t-193 -65z" />
    <glyph glyph-name="T" unicode="T" horiz-adv-x="630" 
d="M243 0l136 651h-252l7 36h540l-7 -36h-252l-136 -651h-36z" />
    <glyph glyph-name="U" unicode="U" horiz-adv-x="704" 
d="M299 -12q-118 0 -177.5 78t-33.5 200l87 421h36l-88 -423q-22 -106 28 -173t150 -67q102 0 181.5 68t101.5 174l87 421h36l-88 -423q-25 -121 -114.5 -198.5t-205.5 -77.5z" />
    <glyph glyph-name="V" unicode="V" horiz-adv-x="710" 
d="M726 687h41l-446 -687h-41l1 1l-160 686h39l149 -642z" />
    <glyph glyph-name="W" unicode="W" horiz-adv-x="1033" 
d="M213 0l-87 687h38l80 -629l341 629h39l80 -629l341 629h40l-373 -687h-39l-79 629l-342 -629h-39z" />
    <glyph glyph-name="X" unicode="X" horiz-adv-x="649" 
d="M700 687l-336 -345l190 -342h-43l-174 314l-306 -314h-47l335 344l-190 343h42l175 -315l307 315h47z" />
    <glyph glyph-name="Y" unicode="Y" horiz-adv-x="632" 
d="M243 0l59 279l-195 408h40l177 -370l332 370h47l-365 -408l-59 -279h-36z" />
    <glyph glyph-name="Z" unicode="Z" horiz-adv-x="619" 
d="M5 0l5 30l586 621h-449l7 36h494l-5 -30l-586 -621h460l-8 -36h-504z" />
    <glyph glyph-name="bracketleft" unicode="[" horiz-adv-x="352" 
d="M4 -115l176 849h221l-7 -36h-185l-162 -777h185l-7 -36h-221z" />
    <glyph glyph-name="backslash" unicode="\" horiz-adv-x="368" 
d="M277 -74l-181 817h38l181 -817h-38z" />
    <glyph glyph-name="bracketright" unicode="]" horiz-adv-x="352" 
d="M-28 -115l7 36h185l162 777h-185l7 36h221l-176 -849h-221z" />
    <glyph glyph-name="asciicircum" unicode="^" horiz-adv-x="470" 
d="M86 413l217 274h42l103 -274h-43l-88 234l-186 -234h-45z" />
    <glyph glyph-name="underscore" unicode="_" horiz-adv-x="593" 
d="M-82 -127l8 36h596l-8 -36h-596z" />
    <glyph glyph-name="grave" unicode="`" horiz-adv-x="292" 
d="M248 576l-91 133l42 9l96 -142h-47z" />
    <glyph glyph-name="a" unicode="a" 
d="M545 517h36l-107 -517h-36l22 109q-42 -56 -101 -88.5t-125 -32.5q-82 0 -134 59.5t-52 152.5q0 124 93 226.5t205 102.5q67 0 113 -31t64 -88zM241 24q104 0 180 88t76 209q0 81 -42 126.5t-116 45.5q-95 0 -175 -91t-80 -200q0 -78 44 -128t113 -50z" />
    <glyph glyph-name="b" unicode="b" 
d="M378 529q81 0 133 -59t52 -152q0 -81 -42 -158t-110.5 -124.5t-139.5 -47.5q-69 0 -116 31.5t-66 89.5l-23 -109h-36l52 252q1 4 2.5 12t2.5 12l88 423h36l-60 -289q43 55 102.5 87t124.5 32zM266 24q98 0 179 90.5t81 199.5q0 79 -44 129t-113 50q-87 0 -156.5 -64.5
t-91.5 -162.5l-2 -11q-6 -30 -6 -63q0 -79 40.5 -123.5t112.5 -44.5z" />
    <glyph glyph-name="c" unicode="c" horiz-adv-x="524" 
d="M253 -12q-93 0 -152 58t-59 149q0 136 94 235t224 99q45 0 90.5 -21.5t72.5 -55.5l-29 -23q-22 28 -60 46t-76 18q-114 0 -197 -87.5t-83 -207.5q0 -77 49.5 -125.5t127.5 -48.5q39 0 86 18.5t81 47.5l22 -27q-39 -33 -92.5 -54t-98.5 -21z" />
    <glyph glyph-name="d" unicode="d" 
d="M583 699h36l-145 -699h-36l23 109q-43 -57 -102 -89t-125 -32q-82 0 -134 59.5t-52 152.5q0 124 93 226.5t205 102.5q68 0 113.5 -31.5t63.5 -88.5zM241 24q104 0 180 88t76 209q0 81 -42 126.5t-116 45.5q-95 0 -175 -91t-80 -200q0 -78 44 -128t113 -50z" />
    <glyph glyph-name="e" unicode="e" horiz-adv-x="567" 
d="M301 242h-220q-2 -22 -2 -33q0 -79 49 -132t125 -53q125 0 205 72l21 -29q-39 -35 -104 -57t-127 -22q-90 0 -147.5 62t-57.5 155q0 125 96.5 224.5t219.5 99.5q81 0 133 -40t52 -102q0 -68 -64 -106.5t-179 -38.5zM353 493q-89 0 -163.5 -63t-100.5 -152h219
q94 0 147 28.5t53 78.5q0 47 -43.5 77.5t-111.5 30.5z" />
    <glyph glyph-name="f" unicode="f" horiz-adv-x="341" 
d="M333 684q-37 0 -64.5 -27t-36.5 -70l-15 -70h146l-7 -36h-146l-100 -481h-36l100 481h-90l7 36h91l15 72q12 58 48.5 94.5t81.5 36.5q55 0 92 -34l-24 -26q-24 24 -62 24z" />
    <glyph glyph-name="g" unicode="g" horiz-adv-x="598" 
d="M532 517h36l-96 -463q-21 -100 -99 -163t-180 -63q-57 0 -112 20t-85 50l22 30q28 -28 76.5 -46t98.5 -18q88 0 157 54t86 138l24 116q-40 -64 -105 -99t-130 -35q-84 0 -136.5 55t-52.5 139q0 115 87.5 206t200.5 91q68 0 118.5 -36.5t63.5 -100.5zM233 74
q84 0 155.5 58.5t92.5 141.5l5 24q3 16 3 34q0 71 -45.5 116t-117.5 45q-100 0 -177 -79.5t-77 -176.5q0 -70 44 -116.5t117 -46.5z" />
    <glyph glyph-name="h" unicode="h" horiz-adv-x="553" 
d="M337 529q74 0 117.5 -40.5t43.5 -107.5q0 -21 -33 -179q-25 -115 -43 -202h-36q14 64 34 160q40 189 40 212q0 55 -35 88t-95 33q-71 0 -127 -43.5t-73 -111.5l-70 -338h-36l145 699h36l-56 -270q29 46 79 73t109 27z" />
    <glyph glyph-name="i" unicode="i" horiz-adv-x="186" 
d="M173 631q-12 0 -19.5 7t-7.5 18q0 13 10 24t23 11q12 0 19.5 -7.5t7.5 -18.5q0 -13 -10.5 -23.5t-22.5 -10.5zM21 0l108 517h36l-108 -517h-36z" />
    <glyph glyph-name="j" unicode="j" horiz-adv-x="225" 
d="M193 631q-12 0 -19.5 7t-7.5 18q0 13 10 24t23 11q12 0 19.5 -7.5t7.5 -18.5q0 -13 -10.5 -23.5t-22.5 -10.5zM-64 -178q-43 0 -79 17l11 32q28 -13 68 -13q33 0 60 25t34 62l119 572h36l-119 -574q-11 -53 -47.5 -87t-82.5 -34z" />
    <glyph glyph-name="k" unicode="k" horiz-adv-x="502" 
d="M542 517l-282 -237l161 -280h-45l-145 255l-146 -123l-27 -132h-36l145 699h36l-107 -514l394 332h52z" />
    <glyph glyph-name="l" unicode="l" horiz-adv-x="188" 
d="M23 0l145 699h36l-145 -699h-36z" />
    <glyph glyph-name="m" unicode="m" horiz-adv-x="859" 
d="M659 529q69 0 107 -40t38 -108v-9.5t-1.5 -12.5t-2.5 -15.5t-4.5 -23.5t-7 -32.5t-10 -46.5t-13 -61t-16.5 -80t-21 -100h-36q75 358 75 372q0 57 -30.5 89t-85.5 32q-65 0 -118 -41.5t-68 -105.5q-3 -16 -10 -50t-25 -119t-37 -177h-36q75 358 75 372q0 57 -30.5 89
t-85.5 32q-66 0 -118.5 -42t-67.5 -107l-72 -344h-36l108 517h36l-16 -77q25 41 71.5 65t101.5 24q60 0 97 -30t46 -83q26 51 79 82t114 31z" />
    <glyph glyph-name="n" unicode="n" horiz-adv-x="553" 
d="M337 529q74 0 117.5 -40.5t43.5 -107.5q0 -21 -33 -179q-25 -115 -43 -202h-36q14 64 34 160q40 189 40 212q0 55 -35 88t-95 33q-74 0 -130.5 -46t-71.5 -118v1l-69 -330h-36l108 517h36l-19 -89q30 47 80 74t109 27z" />
    <glyph glyph-name="o" unicode="o" horiz-adv-x="632" 
d="M263 -12q-89 0 -154.5 65t-65.5 154q0 131 97 226.5t230 95.5q89 0 154 -64.5t65 -153.5q0 -131 -96.5 -227t-229.5 -96zM265 24q117 0 202.5 84.5t85.5 199.5q0 75 -55 130t-130 55q-118 0 -203.5 -84t-85.5 -200q0 -75 55 -130t131 -55z" />
    <glyph glyph-name="p" unicode="p" 
d="M378 529q81 0 133 -59t52 -152q0 -81 -42 -158t-110.5 -124.5t-139.5 -47.5q-70 0 -117 31.5t-66 90.5l-58 -282h-36l143 689h36l-22 -108q42 56 101.5 88t125.5 32zM266 24q98 0 179 90.5t81 199.5q0 79 -44 129t-113 50q-104 0 -180 -89.5t-76 -211.5
q0 -79 40.5 -123.5t112.5 -44.5z" />
    <glyph glyph-name="q" unicode="q" 
d="M545 517h36l-143 -689h-36l58 280q-42 -56 -101 -88t-125 -32q-82 0 -134 59.5t-52 152.5q0 124 93 226.5t205 102.5q67 0 113 -31t64 -88zM241 24q104 0 180 88t76 209q0 81 -42 126.5t-116 45.5q-95 0 -175 -91t-80 -200q0 -78 44 -128t113 -50z" />
    <glyph glyph-name="r" unicode="r" horiz-adv-x="348" 
d="M150 405q29 59 91 91.5t133 32.5l-5 -36q-86 0 -153.5 -55.5t-88.5 -142.5l-62 -295h-36l108 517h36z" />
    <glyph glyph-name="s" unicode="s" horiz-adv-x="485" 
d="M205 -12q-119 0 -200 78l25 26q81 -68 177 -68q63 0 115.5 33.5t52.5 85.5q0 33 -29 57.5t-94 47.5q-76 24 -111 54t-35 71q0 67 62 111.5t136 44.5q95 0 175 -59l-26 -26q-70 49 -151 49q-62 0 -111 -33.5t-49 -77.5q0 -31 30.5 -55.5t97.5 -48.5q75 -24 108.5 -54.5
t33.5 -74.5q0 -69 -65 -115t-142 -46z" />
    <glyph glyph-name="t" unicode="t" horiz-adv-x="362" 
d="M347 481h-136q-78 -379 -79 -392q0 -30 14 -47.5t39 -17.5q41 0 80 27l17 -31q-49 -32 -101 -32q-39 0 -62 26.5t-23 69.5q0 23 51 262q17 83 28 135h-91l7 36h91l30 142h36l-30 -142h136z" />
    <glyph glyph-name="u" unicode="u" horiz-adv-x="553" 
d="M494 517h36l-108 -517h-36l19 89q-30 -47 -80 -74t-109 -27q-74 0 -117.5 40.5t-43.5 107.5q0 21 33 179q25 115 43 202h36q-72 -342 -74 -361v-11q0 -55 35 -88t95 -33q74 0 130.5 46t71.5 118v-1z" />
    <glyph glyph-name="v" unicode="v" horiz-adv-x="550" 
d="M210 0l-129 517h37l114 -456l304 456h41l-345 -517h-22z" />
    <glyph glyph-name="w" unicode="w" horiz-adv-x="793" 
d="M151 0l-62 517h37l57 -469l253 469h31l57 -469l253 469h37l-277 -517h-45l-54 450l-242 -450h-45z" />
    <glyph glyph-name="x" unicode="x" horiz-adv-x="507" 
d="M522 517l-245 -254l144 -263h-43l-128 235l-227 -235h-45l255 265l-138 252h42l123 -224l216 224h46z" />
    <glyph glyph-name="y" unicode="y" horiz-adv-x="567" 
d="M40 -180q-47 0 -81 18l15 35q32 -17 68 -17q34 0 64.5 14t48.5 37l47 72l-118 538h39l107 -492l305 492h39l-366 -594q-63 -103 -168 -103z" />
    <glyph glyph-name="z" unicode="z" horiz-adv-x="514" 
d="M1 0l5 30l453 451h-352l7 36h400l-6 -30l-452 -451h360l-8 -36h-407z" />
    <glyph glyph-name="braceleft" unicode="{" horiz-adv-x="395" 
d="M256 -166q-82 10 -119.5 39t-37.5 84q0 35 19.5 117t19.5 107q0 36 -22 51.5t-72 15.5l4 36q61 0 93 24.5t43 80.5l30 140q17 80 67 118.5t152 49.5v-35q-85 -9 -128.5 -41.5t-57.5 -97.5l-29 -144q-11 -51 -32 -77t-61 -37q51 -16 51 -72q0 -23 -20.5 -113.5
t-20.5 -112.5q0 -44 31 -67t99 -31z" />
    <glyph glyph-name="bar" unicode="|" horiz-adv-x="254" 
d="M40 -74l170 817h36l-170 -817h-36z" />
    <glyph glyph-name="braceright" unicode="}" horiz-adv-x="395" 
d="M-35 -166v35q85 9 128 42t57 98l29 143q11 51 32 77t62 38q-51 15 -51 70q0 27 20 115.5t20 111.5q0 44 -30.5 67t-98.5 31l8 35q82 -10 119.5 -39t37.5 -84q0 -26 -19.5 -117t-19.5 -107q0 -35 22.5 -50.5t72.5 -15.5l-4 -36q-61 0 -93 -24.5t-44 -80.5l-29 -141
q-16 -79 -67 -118t-152 -50z" />
    <glyph glyph-name="asciitilde" unicode="~" horiz-adv-x="436" 
d="M296 311q-26 0 -46 16.5t-36.5 33t-32.5 16.5q-20 0 -40.5 -21.5t-33.5 -58.5l-35 9q17 51 46.5 79t64.5 28q33 0 65 -33t50 -33q20 0 40 21.5t34 58.5l35 -9q-17 -51 -46 -79t-65 -28z" />
    <glyph glyph-name="exclamdown" unicode="&#xa1;" horiz-adv-x="225" 
d="M164 529q13 0 20.5 -7.5t7.5 -18.5q0 -12 -10 -23t-24 -11q-12 0 -19 7.5t-7 18.5q0 13 10 23.5t22 10.5zM141 324l-102 -494h-36l102 494h36z" />
    <glyph glyph-name="cent" unicode="&#xa2;" horiz-adv-x="524" 
d="M366 529q44 -1 87 -22.5t70 -54.5l-29 -23q-22 28 -59.5 46t-75.5 18l-98 -469q38 2 83 20t78 46l22 -27q-39 -33 -92 -54t-98 -21l-13 -62h-36l13 64q-79 11 -127.5 67.5t-48.5 137.5q0 127 84 223.5t204 108.5l13 62h36zM78 198q0 -69 41 -116t107 -56l97 465
q-103 -14 -174 -98.5t-71 -194.5z" />
    <glyph glyph-name="sterling" unicode="&#xa3;" horiz-adv-x="569" 
d="M396 699q70 0 118 -32t63 -89l-28 -20q-13 50 -54 77.5t-101 27.5q-76 0 -136 -56.5t-79 -144.5l-31 -149h214l-8 -36h-213l-50 -241h386l-8 -36h-468l4 18l50 18l50 241h-46l8 36h46l31 151q22 104 92 169.5t160 65.5z" />
    <glyph glyph-name="yen" unicode="&#xa5;" horiz-adv-x="632" 
d="M703 687l-334 -373h187l-8 -36h-210l-24 -111h211l-7 -36h-211l-28 -131h-36l28 131h-209l7 36h209l24 111h-210l8 36h185l-178 373h40l177 -370l332 370h47z" />
    <glyph glyph-name="dieresis" unicode="&#xa8;" horiz-adv-x="410" 
d="M186 613q-12 0 -19.5 7.5t-7.5 18.5q0 12 10 23t23 11q12 0 19.5 -8t7.5 -20q0 -11 -10.5 -21.5t-22.5 -10.5zM378 613q-12 0 -19.5 7.5t-7.5 18.5q0 12 10 23t23 11q12 0 19.5 -8t7.5 -20q0 -11 -10.5 -21.5t-22.5 -10.5z" />
    <glyph glyph-name="macron" unicode="&#xaf;" horiz-adv-x="436" 
d="M135 603l7 36h310l-7 -36h-310z" />
    <glyph glyph-name="acute" unicode="&#xb4;" horiz-adv-x="290" 
d="M128 576l154 142l40 -9l-145 -133h-49z" />
    <glyph glyph-name="cedilla" unicode="&#xb8;" horiz-adv-x="298" 
d="M103 -45q26 0 41.5 -14.5t15.5 -37.5q0 -37 -33.5 -66t-74.5 -29q-43 0 -77 29l20 31q24 -24 59 -24q29 0 49.5 15.5t20.5 37.5q0 30 -33 30q-21 0 -38 -12l-13 18l48 78h40l-36 -57q4 1 11 1z" />
    <glyph glyph-name="questiondown" unicode="&#xbf;" horiz-adv-x="488" 
d="M313 529q13 0 20.5 -7.5t7.5 -18.5q0 -12 -10 -23t-24 -11q-12 0 -19 7.5t-7 18.5q0 13 10 23.5t22 10.5zM295 324l-33 -163q-99 -8 -168 -61.5t-69 -125.5q0 -52 35 -86t90 -34q124 0 220 105l23 -27q-115 -114 -247 -114q-68 0 -113 44t-45 108q0 82 71.5 143t169.5 78
l27 133h39z" />
    <glyph glyph-name="Agrave" unicode="&#xc0;" horiz-adv-x="710" 
d="M483 746h-47l-91 133l42 9zM585 0l-41 175h-411l-114 -175h-41l446 687h41l-1 -1l160 -686h-39zM156 211h380l-100 431z" />
    <glyph glyph-name="Aacute" unicode="&#xc1;" horiz-adv-x="710" 
d="M625 879l-145 -133h-49l154 142zM465 687l-1 -1l160 -686h-39l-41 175h-411l-114 -175h-41l446 687h41zM536 211l-100 431l-280 -431h380z" />
    <glyph glyph-name="Acircumflex" unicode="&#xc2;" horiz-adv-x="710" 
d="M479 852l-106 -106h-45l134 137h44l80 -137h-43zM585 0l-41 175h-411l-114 -175h-41l446 687h41l-1 -1l160 -686h-39zM156 211h380l-100 431z" />
    <glyph glyph-name="Atilde" unicode="&#xc3;" horiz-adv-x="710" 
d="M410 822q-20 0 -40.5 -21.5t-33.5 -58.5l-35 9q17 51 46.5 79t64.5 28q26 0 46 -16.5t36.5 -33t32.5 -16.5q20 0 40 21.5t34 58.5l35 -9q-17 -51 -46 -79t-65 -28q-33 0 -65 33t-50 33zM465 687l-1 -1l160 -686h-39l-41 175h-411l-114 -175h-41l446 687h41zM536 211
l-100 431l-280 -431h380z" />
    <glyph glyph-name="Adieresis" unicode="&#xc4;" horiz-adv-x="710" 
d="M371 783q-12 0 -19.5 7.5t-7.5 18.5q0 12 10 23t23 11q12 0 19.5 -8t7.5 -20q0 -11 -10.5 -21.5t-22.5 -10.5zM563 783q-12 0 -19.5 7.5t-7.5 18.5q0 12 10 23t23 11q12 0 19.5 -8t7.5 -20q0 -11 -10.5 -21.5t-22.5 -10.5zM585 0l-41 175h-411l-114 -175h-41l446 687h41
l-1 -1l160 -686h-39zM156 211h380l-100 431z" />
    <glyph glyph-name="Aring" unicode="&#xc5;" horiz-adv-x="710" 
d="M459 759q-37 0 -60.5 23.5t-23.5 59.5q0 48 40 85.5t87 37.5q36 0 59.5 -23.5t23.5 -58.5q0 -48 -39 -86t-87 -38zM495 931q-31 0 -58 -25t-27 -56q0 -24 16 -40.5t40 -16.5q32 0 58 25.5t26 57.5q0 23 -15.5 39t-39.5 16zM585 0l-41 175h-411l-114 -175h-41l446 687h41
l-1 -1l160 -686h-39zM156 211h380l-100 431z" />
    <glyph glyph-name="AE" unicode="&#xc6;" horiz-adv-x="955" 
d="M982 651h-416l-58 -283h384l-7 -36h-385l-61 -296h415l-8 -36h-451l36 175h-273l-137 -175h-43l540 687h471zM187 211h252l91 438z" />
    <glyph glyph-name="Ccedilla" unicode="&#xc7;" horiz-adv-x="684" 
d="M485 699q74 0 135.5 -29t101.5 -77l-29 -23q-34 42 -88 67.5t-121 25.5q-149 0 -266 -115t-117 -259q0 -114 74.5 -189.5t176.5 -75.5q59 0 127 27t118 69l23 -28q-54 -44 -125.5 -73t-136.5 -31l-22 -34q4 1 11 1q26 0 41.5 -14.5t15.5 -37.5q0 -37 -33.5 -66t-74.5 -29
q-43 0 -77 29l20 31q24 -24 59 -24q29 0 49.5 15.5t20.5 37.5q0 30 -33 30q-21 0 -38 -12l-13 18l35 57q-106 12 -180 94.5t-74 201.5q0 104 59 200t156.5 154.5t204.5 58.5z" />
    <glyph glyph-name="Egrave" unicode="&#xc8;" horiz-adv-x="609" 
d="M478 746h-47l-91 133l42 9zM612 651h-416l-58 -283h384l-7 -36h-385l-61 -296h415l-8 -36h-451l143 687h451z" />
    <glyph glyph-name="Eacute" unicode="&#xc9;" horiz-adv-x="609" 
d="M508 879l-145 -133h-49l154 142zM612 651h-416l-58 -283h384l-7 -36h-385l-61 -296h415l-8 -36h-451l143 687h451z" />
    <glyph glyph-name="Ecircumflex" unicode="&#xca;" horiz-adv-x="609" 
d="M429 852l-106 -106h-45l134 137h44l80 -137h-43zM612 651h-416l-58 -283h384l-7 -36h-385l-61 -296h415l-8 -36h-451l143 687h451z" />
    <glyph glyph-name="Edieresis" unicode="&#xcb;" horiz-adv-x="609" 
d="M321 783q-12 0 -19.5 7.5t-7.5 18.5q0 12 10 23t23 11q12 0 19.5 -8t7.5 -20q0 -11 -10.5 -21.5t-22.5 -10.5zM513 783q-12 0 -19.5 7.5t-7.5 18.5q0 12 10 23t23 11q12 0 19.5 -8t7.5 -20q0 -11 -10.5 -21.5t-22.5 -10.5zM612 651h-416l-58 -283h384l-7 -36h-385
l-61 -296h415l-8 -36h-451l143 687h451z" />
    <glyph glyph-name="Igrave" unicode="&#xcc;" horiz-adv-x="194" 
d="M177 746l-91 133l42 9l96 -142h-47zM25 0l143 687h36l-143 -687h-36z" />
    <glyph glyph-name="Iacute" unicode="&#xcd;" horiz-adv-x="194" 
d="M172 746l154 142l40 -9l-145 -133h-49zM25 0l143 687h36l-143 -687h-36z" />
    <glyph glyph-name="Icircumflex" unicode="&#xce;" horiz-adv-x="194" 
d="M70 746l134 137h44l80 -137h-43l-64 106l-106 -106h-45zM25 0l143 687h36l-143 -687h-36z" />
    <glyph glyph-name="Idieresis" unicode="&#xcf;" horiz-adv-x="194" 
d="M113 783q-12 0 -19.5 7.5t-7.5 18.5q0 12 10 23t23 11q12 0 19.5 -8t7.5 -20q0 -11 -10.5 -21.5t-22.5 -10.5zM305 783q-12 0 -19.5 7.5t-7.5 18.5q0 12 10 23t23 11q12 0 19.5 -8t7.5 -20q0 -11 -10.5 -21.5t-22.5 -10.5zM25 0l143 687h36l-143 -687h-36z" />
    <glyph glyph-name="Eth" unicode="&#xd0;" horiz-adv-x="777" 
d="M448 687q128 0 209 -74.5t81 -191.5q0 -112 -58.5 -209.5t-157.5 -154.5t-214 -57h-237l69 332h-82l7 36h83l66 319h234zM312 36q159 0 274.5 112.5t115.5 267.5q0 103 -72.5 169t-186.5 66h-200l-59 -283h230l-8 -36h-229l-62 -296h197z" />
    <glyph glyph-name="Ntilde" unicode="&#xd1;" horiz-adv-x="728" 
d="M534 756q-26 0 -46 16.5t-36.5 33t-32.5 16.5q-20 0 -40.5 -21.5t-33.5 -58.5l-35 9q17 51 46.5 79t64.5 28q33 0 65 -33t50 -33q20 0 40 21.5t34 58.5l35 -9q-17 -51 -46 -79t-65 -28zM40 0l143 687h36l337 -631l131 631h36l-143 -687h-35l-337 631l-132 -631h-36z" />
    <glyph glyph-name="Ograve" unicode="&#xd2;" horiz-adv-x="806" 
d="M482 746l-91 133l42 9l96 -142h-47zM349 -12q-125 0 -206 81t-81 203q0 106 62 205.5t162.5 160.5t205.5 61q124 0 205 -83t81 -206q0 -106 -61.5 -204t-161 -158t-206.5 -60zM352 24q96 0 187.5 55.5t147.5 145t56 183.5q0 108 -72 181.5t-183 73.5q-95 0 -186 -55.5
t-147.5 -145.5t-56.5 -186q0 -109 71.5 -180.5t182.5 -71.5z" />
    <glyph glyph-name="Oacute" unicode="&#xd3;" horiz-adv-x="806" 
d="M473 746l154 142l40 -9l-145 -133h-49zM349 -12q-125 0 -206 81t-81 203q0 106 62 205.5t162.5 160.5t205.5 61q124 0 205 -83t81 -206q0 -106 -61.5 -204t-161 -158t-206.5 -60zM352 24q96 0 187.5 55.5t147.5 145t56 183.5q0 108 -72 181.5t-183 73.5q-95 0 -186 -55.5
t-147.5 -145.5t-56.5 -186q0 -109 71.5 -180.5t182.5 -71.5z" />
    <glyph glyph-name="Ocircumflex" unicode="&#xd4;" horiz-adv-x="806" 
d="M374 746l134 137h44l80 -137h-43l-64 106l-106 -106h-45zM349 -12q-125 0 -206 81t-81 203q0 106 62 205.5t162.5 160.5t205.5 61q124 0 205 -83t81 -206q0 -106 -61.5 -204t-161 -158t-206.5 -60zM352 24q96 0 187.5 55.5t147.5 145t56 183.5q0 108 -72 181.5t-183 73.5
q-95 0 -186 -55.5t-147.5 -145.5t-56.5 -186q0 -109 71.5 -180.5t182.5 -71.5z" />
    <glyph glyph-name="Otilde" unicode="&#xd5;" horiz-adv-x="806" 
d="M571 756q-33 0 -65 33t-50 33q-20 0 -40.5 -21.5t-33.5 -58.5l-35 9q17 51 46.5 79t64.5 28q26 0 46 -16.5t36.5 -33t32.5 -16.5q20 0 40 21.5t34 58.5l35 -9q-17 -51 -46 -79t-65 -28zM349 -12q-125 0 -206 81t-81 203q0 106 62 205.5t162.5 160.5t205.5 61
q124 0 205 -83t81 -206q0 -106 -61.5 -204t-161 -158t-206.5 -60zM352 24q96 0 187.5 55.5t147.5 145t56 183.5q0 108 -72 181.5t-183 73.5q-95 0 -186 -55.5t-147.5 -145.5t-56.5 -186q0 -109 71.5 -180.5t182.5 -71.5z" />
    <glyph glyph-name="Odieresis" unicode="&#xd6;" horiz-adv-x="806" 
d="M417 783q-12 0 -19.5 7.5t-7.5 18.5q0 12 10 23t23 11q12 0 19.5 -8t7.5 -20q0 -11 -10.5 -21.5t-22.5 -10.5zM609 783q-12 0 -19.5 7.5t-7.5 18.5q0 12 10 23t23 11q12 0 19.5 -8t7.5 -20q0 -11 -10.5 -21.5t-22.5 -10.5zM349 -12q-125 0 -206 81t-81 203
q0 106 62 205.5t162.5 160.5t205.5 61q124 0 205 -83t81 -206q0 -106 -61.5 -204t-161 -158t-206.5 -60zM352 24q96 0 187.5 55.5t147.5 145t56 183.5q0 108 -72 181.5t-183 73.5q-95 0 -186 -55.5t-147.5 -145.5t-56.5 -186q0 -109 71.5 -180.5t182.5 -71.5z" />
    <glyph glyph-name="multiply" unicode="&#xd7;" horiz-adv-x="515" 
d="M480 484l-181 -151l118 -148l-29 -26l-119 150l-180 -150l-21 26l180 150l-119 149l30 25l119 -149l180 149z" />
    <glyph glyph-name="Oslash" unicode="&#xd8;" horiz-adv-x="806" 
d="M815 687l-100 -92q63 -79 63 -185t-61.5 -204t-161 -158t-206.5 -60q-123 0 -205 80l-73 -68h-49l100 92q-60 77 -60 180q0 106 62 205.5t162.5 160.5t205.5 61q120 0 201 -79l73 67h49zM98 276q0 -90 52 -158l516 477q-73 68 -178 68q-95 0 -186 -55.5t-147.5 -145.5
t-56.5 -186zM743 408q0 93 -55 162l-516 -477q72 -69 180 -69q96 0 187.5 55.5t147.5 145t56 183.5z" />
    <glyph glyph-name="Ugrave" unicode="&#xd9;" horiz-adv-x="704" 
d="M478 746l-91 133l42 9l96 -142h-47zM299 -12q-118 0 -177.5 78t-33.5 200l87 421h36l-88 -423q-22 -106 28 -173t150 -67q102 0 181.5 68t101.5 174l87 421h36l-88 -423q-25 -121 -114.5 -198.5t-205.5 -77.5z" />
    <glyph glyph-name="Uacute" unicode="&#xda;" horiz-adv-x="704" 
d="M361 746l154 142l40 -9l-145 -133h-49zM299 -12q-118 0 -177.5 78t-33.5 200l87 421h36l-88 -423q-22 -106 28 -173t150 -67q102 0 181.5 68t101.5 174l87 421h36l-88 -423q-25 -121 -114.5 -198.5t-205.5 -77.5z" />
    <glyph glyph-name="Ucircumflex" unicode="&#xdb;" horiz-adv-x="704" 
d="M325 746l134 137h44l80 -137h-43l-64 106l-106 -106h-45zM299 -12q-118 0 -177.5 78t-33.5 200l87 421h36l-88 -423q-22 -106 28 -173t150 -67q102 0 181.5 68t101.5 174l87 421h36l-88 -423q-25 -121 -114.5 -198.5t-205.5 -77.5z" />
    <glyph glyph-name="Udieresis" unicode="&#xdc;" horiz-adv-x="704" 
d="M368 783q-12 0 -19.5 7.5t-7.5 18.5q0 12 10 23t23 11q12 0 19.5 -8t7.5 -20q0 -11 -10.5 -21.5t-22.5 -10.5zM560 783q-12 0 -19.5 7.5t-7.5 18.5q0 12 10 23t23 11q12 0 19.5 -8t7.5 -20q0 -11 -10.5 -21.5t-22.5 -10.5zM299 -12q-118 0 -177.5 78t-33.5 200l87 421h36
l-88 -423q-22 -106 28 -173t150 -67q102 0 181.5 68t101.5 174l87 421h36l-88 -423q-25 -121 -114.5 -198.5t-205.5 -77.5z" />
    <glyph glyph-name="Yacute" unicode="&#xdd;" horiz-adv-x="632" 
d="M322 746l154 142l40 -9l-145 -133h-49zM243 0l59 279l-195 408h40l177 -370l332 370h47l-365 -408l-59 -279h-36z" />
    <glyph glyph-name="Thorn" unicode="&#xde;" horiz-adv-x="640" 
d="M25 0l143 687h36l-27 -131h252q91 0 145.5 -46.5t54.5 -121.5q0 -107 -84.5 -179.5t-200.5 -72.5h-254l-29 -136h-36zM97 172h245q102 0 176.5 61.5t74.5 149.5q0 62 -47.5 99.5t-128.5 37.5h-247z" />
    <glyph glyph-name="germandbls" unicode="&#xdf;" horiz-adv-x="535" 
d="M30 0l110 524q15 75 81 129t142 54q68 0 111.5 -43t43.5 -107q0 -57 -36.5 -114.5t-87.5 -78.5q37 -18 59.5 -56t22.5 -84q0 -84 -70 -154t-155 -70h-99l8 36h75q78 0 142 60t64 132q0 52 -38.5 83.5t-103.5 31.5h-75l7 36h67q75 0 129 51.5t54 121.5q0 51 -33.5 85
t-86.5 34q-63 0 -118.5 -46t-68.5 -109l-108 -516h-36z" />
    <glyph glyph-name="agrave" unicode="&#xe0;" 
d="M436 576h-47l-91 133l42 9zM545 517h36l-107 -517h-36l22 109q-42 -56 -101 -88.5t-125 -32.5q-82 0 -134 59.5t-52 152.5q0 124 93 226.5t205 102.5q67 0 113 -31t64 -88zM241 24q104 0 180 88t76 209q0 81 -42 126.5t-116 45.5q-95 0 -175 -91t-80 -200q0 -78 44 -128
t113 -50z" />
    <glyph glyph-name="aacute" unicode="&#xe1;" 
d="M466 709l-145 -133h-49l154 142zM545 517h36l-107 -517h-36l22 109q-42 -56 -101 -88.5t-125 -32.5q-82 0 -134 59.5t-52 152.5q0 124 93 226.5t205 102.5q67 0 113 -31t64 -88zM241 24q104 0 180 88t76 209q0 81 -42 126.5t-116 45.5q-95 0 -175 -91t-80 -200
q0 -78 44 -128t113 -50z" />
    <glyph glyph-name="acircumflex" unicode="&#xe2;" 
d="M387 682l-106 -106h-45l134 137h44l80 -137h-43zM545 517h36l-107 -517h-36l22 109q-42 -56 -101 -88.5t-125 -32.5q-82 0 -134 59.5t-52 152.5q0 124 93 226.5t205 102.5q67 0 113 -31t64 -88zM241 24q104 0 180 88t76 209q0 81 -42 126.5t-116 45.5q-95 0 -175 -91
t-80 -200q0 -78 44 -128t113 -50z" />
    <glyph glyph-name="atilde" unicode="&#xe3;" 
d="M318 652q-20 0 -40.5 -21.5t-33.5 -58.5l-35 9q17 51 46.5 79t64.5 28q26 0 46 -16.5t36.5 -33t32.5 -16.5q20 0 40 21.5t34 58.5l35 -9q-17 -51 -46 -79t-65 -28q-33 0 -65 33t-50 33zM545 517h36l-107 -517h-36l22 109q-42 -56 -101 -88.5t-125 -32.5q-82 0 -134 59.5
t-52 152.5q0 124 93 226.5t205 102.5q67 0 113 -31t64 -88zM241 24q104 0 180 88t76 209q0 81 -42 126.5t-116 45.5q-95 0 -175 -91t-80 -200q0 -78 44 -128t113 -50z" />
    <glyph glyph-name="adieresis" unicode="&#xe4;" 
d="M279 613q-12 0 -19.5 7.5t-7.5 18.5q0 12 10 23t23 11q12 0 19.5 -8t7.5 -20q0 -11 -10.5 -21.5t-22.5 -10.5zM471 613q-12 0 -19.5 7.5t-7.5 18.5q0 12 10 23t23 11q12 0 19.5 -8t7.5 -20q0 -11 -10.5 -21.5t-22.5 -10.5zM545 517h36l-107 -517h-36l22 109
q-42 -56 -101 -88.5t-125 -32.5q-82 0 -134 59.5t-52 152.5q0 124 93 226.5t205 102.5q67 0 113 -31t64 -88zM241 24q104 0 180 88t76 209q0 81 -42 126.5t-116 45.5q-95 0 -175 -91t-80 -200q0 -78 44 -128t113 -50z" />
    <glyph glyph-name="aring" unicode="&#xe5;" 
d="M367 589q-37 0 -60.5 23.5t-23.5 59.5q0 48 40 85.5t87 37.5q36 0 59.5 -23.5t23.5 -58.5q0 -48 -39 -86t-87 -38zM403 761q-31 0 -58 -25t-27 -56q0 -24 16 -40.5t40 -16.5q32 0 58 25.5t26 57.5q0 23 -15.5 39t-39.5 16zM545 517h36l-107 -517h-36l22 109
q-42 -56 -101 -88.5t-125 -32.5q-82 0 -134 59.5t-52 152.5q0 124 93 226.5t205 102.5q67 0 113 -31t64 -88zM241 24q104 0 180 88t76 209q0 81 -42 126.5t-116 45.5q-95 0 -175 -91t-80 -200q0 -78 44 -128t113 -50z" />
    <glyph glyph-name="ae" unicode="&#xe6;" horiz-adv-x="960" 
d="M694 242h-220q-2 -22 -2 -33q0 -79 49 -132t125 -53q125 0 205 72l21 -29q-39 -35 -104 -57t-127 -22q-74 0 -127 43t-71 113q-36 -72 -102.5 -114t-147.5 -42q-87 0 -133 47.5t-31 121.5q16 74 82 121t158 47q85 0 178 -38l6 29q15 74 -14.5 125.5t-113.5 51.5
q-83 0 -169 -46l-11 33q95 49 187 49q74 0 116 -39t47 -106q45 66 113.5 105.5t143.5 39.5q81 0 133 -40t52 -102q0 -68 -64 -106.5t-179 -38.5zM746 493q-89 0 -163.5 -63t-100.5 -152h219q94 0 147 28.5t53 78.5q0 47 -43.5 77.5t-111.5 30.5zM199 24q85 0 150.5 54.5
t83.5 138.5l7 33v4q-95 35 -168 35q-80 0 -137.5 -38.5t-70.5 -98.5q-12 -56 26 -92t109 -36z" />
    <glyph glyph-name="ccedilla" unicode="&#xe7;" horiz-adv-x="524" 
d="M360 529q45 0 90.5 -21.5t72.5 -55.5l-29 -23q-22 28 -60 46t-76 18q-114 0 -197 -87.5t-83 -207.5q0 -77 49.5 -125.5t127.5 -48.5q39 0 86 18.5t81 47.5l22 -27q-35 -30 -83.5 -50.5t-91.5 -23.5l-22 -35q4 1 11 1q26 0 41.5 -14.5t15.5 -37.5q0 -37 -33.5 -66
t-74.5 -29q-43 0 -77 29l20 31q24 -24 59 -24q29 0 49.5 15.5t20.5 37.5q0 30 -33 30q-22 0 -38 -12l-13 18l34 56q-83 8 -135 64.5t-52 141.5q0 136 94 235t224 99z" />
    <glyph glyph-name="egrave" unicode="&#xe8;" horiz-adv-x="567" 
d="M440 576h-47l-91 133l42 9zM301 242h-220q-2 -22 -2 -33q0 -79 49 -132t125 -53q125 0 205 72l21 -29q-39 -35 -104 -57t-127 -22q-90 0 -147.5 62t-57.5 155q0 125 96.5 224.5t219.5 99.5q81 0 133 -40t52 -102q0 -68 -64 -106.5t-179 -38.5zM353 493q-89 0 -163.5 -63
t-100.5 -152h219q94 0 147 28.5t53 78.5q0 47 -43.5 77.5t-111.5 30.5z" />
    <glyph glyph-name="eacute" unicode="&#xe9;" horiz-adv-x="567" 
d="M470 709l-145 -133h-49l154 142zM301 242h-220q-2 -22 -2 -33q0 -79 49 -132t125 -53q125 0 205 72l21 -29q-39 -35 -104 -57t-127 -22q-90 0 -147.5 62t-57.5 155q0 125 96.5 224.5t219.5 99.5q81 0 133 -40t52 -102q0 -68 -64 -106.5t-179 -38.5zM353 493
q-89 0 -163.5 -63t-100.5 -152h219q94 0 147 28.5t53 78.5q0 47 -43.5 77.5t-111.5 30.5z" />
    <glyph glyph-name="ecircumflex" unicode="&#xea;" horiz-adv-x="567" 
d="M391 682l-106 -106h-45l134 137h44l80 -137h-43zM301 242h-220q-2 -22 -2 -33q0 -79 49 -132t125 -53q125 0 205 72l21 -29q-39 -35 -104 -57t-127 -22q-90 0 -147.5 62t-57.5 155q0 125 96.5 224.5t219.5 99.5q81 0 133 -40t52 -102q0 -68 -64 -106.5t-179 -38.5z
M353 493q-89 0 -163.5 -63t-100.5 -152h219q94 0 147 28.5t53 78.5q0 47 -43.5 77.5t-111.5 30.5z" />
    <glyph glyph-name="edieresis" unicode="&#xeb;" horiz-adv-x="567" 
d="M283 613q-12 0 -19.5 7.5t-7.5 18.5q0 12 10 23t23 11q12 0 19.5 -8t7.5 -20q0 -11 -10.5 -21.5t-22.5 -10.5zM475 613q-12 0 -19.5 7.5t-7.5 18.5q0 12 10 23t23 11q12 0 19.5 -8t7.5 -20q0 -11 -10.5 -21.5t-22.5 -10.5zM301 242h-220q-2 -22 -2 -33q0 -79 49 -132
t125 -53q125 0 205 72l21 -29q-39 -35 -104 -57t-127 -22q-90 0 -147.5 62t-57.5 155q0 125 96.5 224.5t219.5 99.5q81 0 133 -40t52 -102q0 -68 -64 -106.5t-179 -38.5zM353 493q-89 0 -163.5 -63t-100.5 -152h219q94 0 147 28.5t53 78.5q0 47 -43.5 77.5t-111.5 30.5z" />
    <glyph glyph-name="igrave" unicode="&#xec;" horiz-adv-x="186" 
d="M134 576l-91 133l42 9l96 -142h-47zM21 0l108 517h36l-108 -517h-36z" />
    <glyph glyph-name="iacute" unicode="&#xed;" horiz-adv-x="186" 
d="M134 576l154 142l40 -9l-145 -133h-49zM21 0l108 517h36l-108 -517h-36z" />
    <glyph glyph-name="icircumflex" unicode="&#xee;" horiz-adv-x="186" 
d="M31 576l134 137h44l80 -137h-43l-64 106l-106 -106h-45zM21 0l108 517h36l-108 -517h-36z" />
    <glyph glyph-name="idieresis" unicode="&#xef;" horiz-adv-x="186" 
d="M74 613q-12 0 -19.5 7.5t-7.5 18.5q0 12 10 23t23 11q12 0 19.5 -8t7.5 -20q0 -11 -10.5 -21.5t-22.5 -10.5zM266 613q-12 0 -19.5 7.5t-7.5 18.5q0 12 10 23t23 11q12 0 19.5 -8t7.5 -20q0 -11 -10.5 -21.5t-22.5 -10.5zM21 0l108 517h36l-108 -517h-36z" />
    <glyph glyph-name="eth" unicode="&#xf0;" horiz-adv-x="613" 
d="M435 616q124 -136 124 -291q0 -135 -88.5 -236t-216.5 -101q-93 0 -147.5 54t-54.5 144q0 127 89 222t214 95q113 0 162 -89q-30 97 -116 188l-139 -57l-9 33l122 50q-42 39 -85 69l34 15q43 -29 86 -70l104 43l9 -33zM255 24q110 0 188 85.5t78 196.5q0 74 -44.5 117.5
t-122.5 43.5q-111 0 -188.5 -84t-77.5 -195q0 -74 45 -119t122 -45z" />
    <glyph glyph-name="ntilde" unicode="&#xf1;" horiz-adv-x="553" 
d="M299 652q-20 0 -40.5 -21.5t-33.5 -58.5l-35 9q17 51 46.5 79t64.5 28q33 0 65 -33t50 -33q20 0 40 21.5t34 58.5l35 -9q-17 -51 -46 -79t-65 -28q-26 0 -46 16.5t-36.5 33t-32.5 16.5zM337 529q74 0 117.5 -40.5t43.5 -107.5q0 -21 -33 -179q-25 -115 -43 -202h-36
q14 64 34 160q40 189 40 212q0 55 -35 88t-95 33q-74 0 -130.5 -46t-71.5 -118v1l-69 -330h-36l108 517h36l-19 -89q30 47 80 74t109 27z" />
    <glyph glyph-name="ograve" unicode="&#xf2;" horiz-adv-x="632" 
d="M407 576l-91 133l42 9l96 -142h-47zM263 -12q-89 0 -154.5 65t-65.5 154q0 131 97 226.5t230 95.5q89 0 154 -64.5t65 -153.5q0 -131 -96.5 -227t-229.5 -96zM265 24q117 0 202.5 84.5t85.5 199.5q0 75 -55 130t-130 55q-118 0 -203.5 -84t-85.5 -200q0 -75 55 -130
t131 -55z" />
    <glyph glyph-name="oacute" unicode="&#xf3;" horiz-adv-x="632" 
d="M290 576l154 142l40 -9l-145 -133h-49zM263 -12q-89 0 -154.5 65t-65.5 154q0 131 97 226.5t230 95.5q89 0 154 -64.5t65 -153.5q0 -131 -96.5 -227t-229.5 -96zM265 24q117 0 202.5 84.5t85.5 199.5q0 75 -55 130t-130 55q-118 0 -203.5 -84t-85.5 -200q0 -75 55 -130
t131 -55z" />
    <glyph glyph-name="ocircumflex" unicode="&#xf4;" horiz-adv-x="632" 
d="M254 576l134 137h44l80 -137h-43l-64 106l-106 -106h-45zM263 -12q-89 0 -154.5 65t-65.5 154q0 131 97 226.5t230 95.5q89 0 154 -64.5t65 -153.5q0 -131 -96.5 -227t-229.5 -96zM265 24q117 0 202.5 84.5t85.5 199.5q0 75 -55 130t-130 55q-118 0 -203.5 -84
t-85.5 -200q0 -75 55 -130t131 -55z" />
    <glyph glyph-name="otilde" unicode="&#xf5;" horiz-adv-x="632" 
d="M451 586q-33 0 -65 33t-50 33q-20 0 -40.5 -21.5t-33.5 -58.5l-35 9q17 51 46.5 79t64.5 28q26 0 46 -16.5t36.5 -33t32.5 -16.5q20 0 40 21.5t34 58.5l35 -9q-17 -51 -46 -79t-65 -28zM263 -12q-89 0 -154.5 65t-65.5 154q0 131 97 226.5t230 95.5q89 0 154 -64.5
t65 -153.5q0 -131 -96.5 -227t-229.5 -96zM265 24q117 0 202.5 84.5t85.5 199.5q0 75 -55 130t-130 55q-118 0 -203.5 -84t-85.5 -200q0 -75 55 -130t131 -55z" />
    <glyph glyph-name="odieresis" unicode="&#xf6;" horiz-adv-x="632" 
d="M297 613q-12 0 -19.5 7.5t-7.5 18.5q0 12 10 23t23 11q12 0 19.5 -8t7.5 -20q0 -11 -10.5 -21.5t-22.5 -10.5zM489 613q-12 0 -19.5 7.5t-7.5 18.5q0 12 10 23t23 11q12 0 19.5 -8t7.5 -20q0 -11 -10.5 -21.5t-22.5 -10.5zM263 -12q-89 0 -154.5 65t-65.5 154
q0 131 97 226.5t230 95.5q89 0 154 -64.5t65 -153.5q0 -131 -96.5 -227t-229.5 -96zM265 24q117 0 202.5 84.5t85.5 199.5q0 75 -55 130t-130 55q-118 0 -203.5 -84t-85.5 -200q0 -75 55 -130t131 -55z" />
    <glyph glyph-name="divide" unicode="&#xf7;" horiz-adv-x="594" 
d="M344 466q-12 0 -19.5 8t-7.5 20t10 22t24 10q11 0 18.5 -7t7.5 -18q0 -14 -10 -24.5t-23 -10.5zM79 316l8 36h459l-8 -36h-459zM277 142q-13 0 -20.5 7.5t-7.5 18.5q0 12 10.5 23t24.5 11q11 0 18 -7.5t7 -18.5q0 -13 -10 -23.5t-22 -10.5z" />
    <glyph glyph-name="oslash" unicode="&#xf8;" horiz-adv-x="632" 
d="M615 517l-75 -70q49 -60 49 -136q0 -131 -96.5 -227t-229.5 -96q-84 0 -148 58l-49 -46h-49l75 71q-49 62 -49 136q0 131 97 226.5t230 95.5q84 0 147 -58l48 46h50zM79 209q0 -62 40 -113l371 350q-53 47 -122 47q-118 0 -203.5 -84t-85.5 -200zM553 308q0 62 -40 113
l-371 -349q53 -48 123 -48q117 0 202.5 84.5t85.5 199.5z" />
    <glyph glyph-name="ugrave" unicode="&#xf9;" horiz-adv-x="553" 
d="M417 576h-47l-91 133l42 9zM494 517h36l-108 -517h-36l19 89q-30 -47 -80 -74t-109 -27q-74 0 -117.5 40.5t-43.5 107.5q0 21 33 179q25 115 43 202h36q-72 -342 -74 -361v-11q0 -55 35 -88t95 -33q74 0 130.5 46t71.5 118v-1z" />
    <glyph glyph-name="uacute" unicode="&#xfa;" horiz-adv-x="553" 
d="M447 709l-145 -133h-49l154 142zM494 517h36l-108 -517h-36l19 89q-30 -47 -80 -74t-109 -27q-74 0 -117.5 40.5t-43.5 107.5q0 21 33 179q25 115 43 202h36q-72 -342 -74 -361v-11q0 -55 35 -88t95 -33q74 0 130.5 46t71.5 118v-1z" />
    <glyph glyph-name="ucircumflex" unicode="&#xfb;" horiz-adv-x="553" 
d="M368 682l-106 -106h-45l134 137h44l80 -137h-43zM494 517h36l-108 -517h-36l19 89q-30 -47 -80 -74t-109 -27q-74 0 -117.5 40.5t-43.5 107.5q0 21 33 179q25 115 43 202h36q-72 -342 -74 -361v-11q0 -55 35 -88t95 -33q74 0 130.5 46t71.5 118v-1z" />
    <glyph glyph-name="udieresis" unicode="&#xfc;" horiz-adv-x="553" 
d="M260 613q-12 0 -19.5 7.5t-7.5 18.5q0 12 10 23t23 11q12 0 19.5 -8t7.5 -20q0 -11 -10.5 -21.5t-22.5 -10.5zM452 613q-12 0 -19.5 7.5t-7.5 18.5q0 12 10 23t23 11q12 0 19.5 -8t7.5 -20q0 -11 -10.5 -21.5t-22.5 -10.5zM494 517h36l-108 -517h-36l19 89
q-30 -47 -80 -74t-109 -27q-74 0 -117.5 40.5t-43.5 107.5q0 21 33 179q25 115 43 202h36q-72 -342 -74 -361v-11q0 -55 35 -88t95 -33q74 0 130.5 46t71.5 118v-1z" />
    <glyph glyph-name="yacute" unicode="&#xfd;" horiz-adv-x="567" 
d="M253 576l154 142l40 -9l-145 -133h-49zM40 -180q-47 0 -81 18l15 35q32 -17 68 -17q34 0 64.5 14t48.5 37l47 72l-118 538h39l107 -492l305 492h39l-366 -594q-63 -103 -168 -103z" />
    <glyph glyph-name="thorn" unicode="&#xfe;" 
d="M378 529q81 0 133 -59t52 -152q0 -81 -42 -158t-110.5 -124.5t-139.5 -47.5q-70 0 -117 31.5t-65 90.5l-59 -282h-36l89 430l3 13l89 428h36l-60 -289q43 55 102.5 87t124.5 32zM266 24q98 0 179 90.5t81 199.5q0 79 -44 129t-113 50q-104 0 -180 -89.5t-76 -211.5
q0 -79 40.5 -123.5t112.5 -44.5z" />
    <glyph glyph-name="ydieresis" unicode="&#xff;" horiz-adv-x="567" 
d="M260 613q-12 0 -19.5 7.5t-7.5 18.5q0 12 10 23t23 11q12 0 19.5 -8t7.5 -20q0 -11 -10.5 -21.5t-22.5 -10.5zM452 613q-12 0 -19.5 7.5t-7.5 18.5q0 12 10 23t23 11q12 0 19.5 -8t7.5 -20q0 -11 -10.5 -21.5t-22.5 -10.5zM40 -180q-47 0 -81 18l15 35q32 -17 68 -17
q34 0 64.5 14t48.5 37l47 72l-118 538h39l107 -492l305 492h39l-366 -594q-63 -103 -168 -103z" />
    <glyph glyph-name="Amacron" unicode="&#x100;" horiz-adv-x="710" 
d="M624 809l-7 -36h-310l7 36h310zM465 687l-1 -1l160 -686h-39l-41 175h-411l-114 -175h-41l446 687h41zM536 211l-100 431l-280 -431h380z" />
    <glyph glyph-name="amacron" unicode="&#x101;" 
d="M532 639l-7 -36h-310l7 36h310zM545 517h36l-107 -517h-36l22 109q-42 -56 -101 -88.5t-125 -32.5q-82 0 -134 59.5t-52 152.5q0 124 93 226.5t205 102.5q67 0 113 -31t64 -88zM241 24q104 0 180 88t76 209q0 81 -42 126.5t-116 45.5q-95 0 -175 -91t-80 -200
q0 -78 44 -128t113 -50z" />
    <glyph glyph-name="Abreve" unicode="&#x102;" horiz-adv-x="710" 
d="M462 759q-86 0 -136 61l30 24q38 -48 108 -48q71 0 132 50l22 -28q-71 -59 -156 -59zM585 0l-41 175h-411l-114 -175h-41l446 687h41l-1 -1l160 -686h-39zM156 211h380l-100 431z" />
    <glyph glyph-name="abreve" unicode="&#x103;" 
d="M370 589q-86 0 -136 61l30 24q38 -48 108 -48q71 0 132 50l22 -28q-71 -59 -156 -59zM545 517h36l-107 -517h-36l22 109q-42 -56 -101 -88.5t-125 -32.5q-82 0 -134 59.5t-52 152.5q0 124 93 226.5t205 102.5q67 0 113 -31t64 -88zM241 24q104 0 180 88t76 209
q0 81 -42 126.5t-116 45.5q-95 0 -175 -91t-80 -200q0 -78 44 -128t113 -50z" />
    <glyph glyph-name="Aogonek" unicode="&#x104;" horiz-adv-x="710" 
d="M657 -113l16 -32q-39 -28 -88 -28q-38 0 -60.5 21t-22.5 58t22 68t57 42l-37 159h-411l-114 -175h-41l446 687h41l-1 -1l160 -685l1 -1q-38 0 -62.5 -24.5t-24.5 -63.5q0 -22 15 -35.5t38 -13.5q40 0 66 24zM156 211h380l-100 431z" />
    <glyph glyph-name="aogonek" unicode="&#x105;" 
d="M442 -137q40 0 66 24l16 -32q-39 -28 -88 -28q-38 0 -60.5 21t-22.5 58q0 40 25.5 72t63.5 41l18 90q-42 -56 -101 -88.5t-125 -32.5q-82 0 -134 59.5t-52 152.5q0 124 93 226.5t205 102.5q67 0 113 -31t64 -88l22 107h36l-107 -515l2 -2q-38 0 -62.5 -24.5t-24.5 -63.5
q0 -22 15 -35.5t38 -13.5zM241 24q104 0 180 88t76 209q0 81 -42 126.5t-116 45.5q-95 0 -175 -91t-80 -200q0 -78 44 -128t113 -50z" />
    <glyph glyph-name="Cacute" unicode="&#x106;" horiz-adv-x="684" 
d="M393 746l154 142l40 -9l-145 -133h-49zM350 -12q-115 0 -200 85t-85 213q0 104 59 200t156.5 154.5t204.5 58.5q74 0 135.5 -29t101.5 -77l-29 -23q-34 42 -88 67.5t-121 25.5q-149 0 -266 -115t-117 -259q0 -114 74.5 -189.5t176.5 -75.5q59 0 127 27t118 69l23 -28
q-55 -45 -129.5 -74.5t-140.5 -29.5z" />
    <glyph glyph-name="cacute" unicode="&#x107;" horiz-adv-x="524" 
d="M272 576l154 142l40 -9l-145 -133h-49zM253 -12q-93 0 -152 58t-59 149q0 136 94 235t224 99q45 0 90.5 -21.5t72.5 -55.5l-29 -23q-22 28 -60 46t-76 18q-114 0 -197 -87.5t-83 -207.5q0 -77 49.5 -125.5t127.5 -48.5q39 0 86 18.5t81 47.5l22 -27q-39 -33 -92.5 -54
t-98.5 -21z" />
    <glyph glyph-name="Ccaron" unicode="&#x10c;" horiz-adv-x="684" 
d="M464 746l-78 137h43l62 -106l108 106h45l-136 -137h-44zM350 -12q-115 0 -200 85t-85 213q0 104 59 200t156.5 154.5t204.5 58.5q74 0 135.5 -29t101.5 -77l-29 -23q-34 42 -88 67.5t-121 25.5q-149 0 -266 -115t-117 -259q0 -114 74.5 -189.5t176.5 -75.5q59 0 127 27
t118 69l23 -28q-55 -45 -129.5 -74.5t-140.5 -29.5z" />
    <glyph glyph-name="ccaron" unicode="&#x10d;" horiz-adv-x="524" 
d="M343 576l-78 137h43l62 -106l108 106h45l-136 -137h-44zM253 -12q-93 0 -152 58t-59 149q0 136 94 235t224 99q45 0 90.5 -21.5t72.5 -55.5l-29 -23q-22 28 -60 46t-76 18q-114 0 -197 -87.5t-83 -207.5q0 -77 49.5 -125.5t127.5 -48.5q39 0 86 18.5t81 47.5l22 -27
q-39 -33 -92.5 -54t-98.5 -21z" />
    <glyph glyph-name="Dcaron" unicode="&#x10e;" horiz-adv-x="745" 
d="M408 746l-78 137h43l62 -106l108 106h45l-136 -137h-44zM40 0l143 687h234q128 0 209 -74.5t81 -191.5q0 -112 -58.5 -209.5t-157.5 -154.5t-214 -57h-237zM84 36h197q159 0 274.5 112.5t115.5 267.5q0 103 -72.5 169t-186.5 66h-200z" />
    <glyph glyph-name="dcaron" unicode="&#x10f;" 
d="M523 409l60 290h36l-145 -699h-36l23 109q-43 -57 -102 -89t-125 -32q-82 0 -134 59.5t-52 152.5q0 124 93 226.5t205 102.5q68 0 113.5 -31.5t63.5 -88.5zM721 699q28 0 28 -30q0 -52 -85 -142l-24 21q51 48 73 92q-12 -1 -19 6t-7 18q0 14 10 24.5t24 10.5zM241 24
q104 0 180 88t76 209q0 81 -42 126.5t-116 45.5q-95 0 -175 -91t-80 -200q0 -78 44 -128t113 -50z" />
    <glyph glyph-name="Dcroat" unicode="&#x110;" horiz-adv-x="777" 
d="M448 687q128 0 209 -74.5t81 -191.5q0 -112 -58.5 -209.5t-157.5 -154.5t-214 -57h-237l69 332h-82l7 36h83l66 319h234zM312 36q159 0 274.5 112.5t115.5 267.5q0 103 -72.5 169t-186.5 66h-200l-59 -283h230l-8 -36h-229l-62 -296h197z" />
    <glyph glyph-name="dcroat" unicode="&#x111;" horiz-adv-x="627" 
d="M666 628l-7 -36h-62l-123 -592h-36l23 109q-43 -57 -102 -89t-125 -32q-82 0 -134 59.5t-52 152.5q0 124 93 226.5t205 102.5q68 0 113.5 -31.5t63.5 -88.5l38 183h-192l7 36h192l15 71h36l-15 -71h62zM241 24q104 0 180 88t76 209q0 81 -42 126.5t-116 45.5
q-95 0 -175 -91t-80 -200q0 -78 44 -128t113 -50z" />
    <glyph glyph-name="Emacron" unicode="&#x112;" horiz-adv-x="609" 
d="M574 809l-7 -36h-310l7 36h310zM612 651h-416l-58 -283h384l-7 -36h-385l-61 -296h415l-8 -36h-451l143 687h451z" />
    <glyph glyph-name="emacron" unicode="&#x113;" horiz-adv-x="567" 
d="M536 639l-7 -36h-310l7 36h310zM301 242h-220q-2 -22 -2 -33q0 -79 49 -132t125 -53q125 0 205 72l21 -29q-39 -35 -104 -57t-127 -22q-90 0 -147.5 62t-57.5 155q0 125 96.5 224.5t219.5 99.5q81 0 133 -40t52 -102q0 -68 -64 -106.5t-179 -38.5zM353 493
q-89 0 -163.5 -63t-100.5 -152h219q94 0 147 28.5t53 78.5q0 47 -43.5 77.5t-111.5 30.5z" />
    <glyph glyph-name="Edotaccent" unicode="&#x116;" horiz-adv-x="609" 
d="M417 783q-12 0 -19.5 7.5t-7.5 18.5q0 12 10 23t23 11q12 0 19.5 -8t7.5 -20q0 -11 -10.5 -21.5t-22.5 -10.5zM612 651h-416l-58 -283h384l-7 -36h-385l-61 -296h415l-8 -36h-451l143 687h451z" />
    <glyph glyph-name="edotaccent" unicode="&#x117;" horiz-adv-x="567" 
d="M379 613q-12 0 -19.5 7.5t-7.5 18.5q0 12 10 23t23 11q12 0 19.5 -8t7.5 -20q0 -11 -10.5 -21.5t-22.5 -10.5zM301 242h-220q-2 -22 -2 -33q0 -79 49 -132t125 -53q125 0 205 72l21 -29q-39 -35 -104 -57t-127 -22q-90 0 -147.5 62t-57.5 155q0 125 96.5 224.5
t219.5 99.5q81 0 133 -40t52 -102q0 -68 -64 -106.5t-179 -38.5zM353 493q-89 0 -163.5 -63t-100.5 -152h219q94 0 147 28.5t53 78.5q0 47 -43.5 77.5t-111.5 30.5z" />
    <glyph glyph-name="Eogonek" unicode="&#x118;" horiz-adv-x="609" 
d="M612 651h-416l-58 -283h384l-7 -36h-385l-61 -296h415l-8 -36h-200q-38 0 -62.5 -24.5t-24.5 -63.5q0 -22 15 -35.5t38 -13.5q40 0 66 24l16 -32q-39 -28 -88 -28q-38 0 -60.5 21t-22.5 58q0 59 48 94h-176l143 687h451z" />
    <glyph glyph-name="eogonek" unicode="&#x119;" horiz-adv-x="567" 
d="M301 242h-220q-2 -22 -2 -33q0 -79 49 -132t125 -53q125 0 205 72l21 -29q-38 -34 -102.5 -56t-125.5 -23q-38 0 -62.5 -24.5t-24.5 -63.5q0 -22 15 -35.5t38 -13.5q40 0 66 24l16 -32q-39 -28 -88 -28q-38 0 -60.5 21t-22.5 58q0 32 17 59.5t44 42.5q-67 19 -106.5 75.5
t-39.5 133.5q0 125 96.5 224.5t219.5 99.5q81 0 133 -40t52 -102q0 -68 -64 -106.5t-179 -38.5zM353 493q-89 0 -163.5 -63t-100.5 -152h219q94 0 147 28.5t53 78.5q0 47 -43.5 77.5t-111.5 30.5z" />
    <glyph glyph-name="Ecaron" unicode="&#x11a;" horiz-adv-x="609" 
d="M429 746h-44l-78 137h43l62 -106l108 106h45zM612 651h-416l-58 -283h384l-7 -36h-385l-61 -296h415l-8 -36h-451l143 687h451z" />
    <glyph glyph-name="ecaron" unicode="&#x11b;" horiz-adv-x="567" 
d="M391 576h-44l-78 137h43l62 -106l108 106h45zM301 242h-220q-2 -22 -2 -33q0 -79 49 -132t125 -53q125 0 205 72l21 -29q-39 -35 -104 -57t-127 -22q-90 0 -147.5 62t-57.5 155q0 125 96.5 224.5t219.5 99.5q81 0 133 -40t52 -102q0 -68 -64 -106.5t-179 -38.5zM353 493
q-89 0 -163.5 -63t-100.5 -152h219q94 0 147 28.5t53 78.5q0 47 -43.5 77.5t-111.5 30.5z" />
    <glyph glyph-name="Gbreve" unicode="&#x11e;" horiz-adv-x="744" 
d="M509 759q-86 0 -136 61l30 24q38 -48 108 -48q71 0 132 50l22 -28q-71 -59 -156 -59zM493 699q153 0 246 -103l-29 -24q-81 91 -219 91q-72 0 -143.5 -32.5t-126 -85.5t-88.5 -123.5t-34 -142.5q0 -109 71.5 -182t182.5 -73q133 0 250 86l40 194h-238l7 36h275l-52 -250
q-133 -102 -284 -102q-126 0 -207 82t-81 205q0 106 62 205t162 159t206 60z" />
    <glyph glyph-name="gbreve" unicode="&#x11f;" horiz-adv-x="598" 
d="M356 589q-86 0 -136 61l30 24q38 -48 108 -48q71 0 132 50l22 -28q-71 -59 -156 -59zM532 517h36l-96 -463q-21 -100 -99 -163t-180 -63q-57 0 -112 20t-85 50l22 30q28 -28 76.5 -46t98.5 -18q88 0 157 54t86 138l24 116q-40 -64 -105 -99t-130 -35q-84 0 -136.5 55
t-52.5 139q0 115 87.5 206t200.5 91q68 0 118.5 -36.5t63.5 -100.5zM233 74q84 0 155.5 58.5t92.5 141.5l5 24q3 16 3 34q0 71 -45.5 116t-117.5 45q-100 0 -177 -79.5t-77 -176.5q0 -70 44 -116.5t117 -46.5z" />
    <glyph glyph-name="Gcommaaccent" unicode="&#x122;" horiz-adv-x="744" 
d="M493 699q153 0 246 -103l-29 -24q-81 91 -219 91q-72 0 -143.5 -32.5t-126 -85.5t-88.5 -123.5t-34 -142.5q0 -109 71.5 -182t182.5 -73q133 0 250 86l40 194h-238l7 36h275l-52 -250q-133 -102 -284 -102q-126 0 -207 82t-81 205q0 106 62 205t162 159t206 60zM328 -97
q28 0 28 -30q0 -52 -85 -142l-24 21q51 48 73 92q-12 -1 -19 6t-7 18q0 14 10 24.5t24 10.5z" />
    <glyph glyph-name="gcommaaccent" unicode="&#x123;" horiz-adv-x="600" 
d="M392 613q-28 0 -28 30q0 52 85 142l24 -21q-51 -48 -73 -92q12 1 19 -6t7 -18q0 -14 -10 -24.5t-24 -10.5zM532 517h36l-96 -463q-21 -100 -99 -163t-180 -63q-57 0 -112 20t-85 50l22 30q28 -28 76.5 -46t98.5 -18q88 0 157 54t86 138l24 116q-40 -64 -105 -99t-130 -35
q-84 0 -136.5 55t-52.5 139q0 115 87.5 206t200.5 91q68 0 118.5 -36.5t63.5 -100.5zM233 74q84 0 155.5 58.5t92.5 141.5l5 24q3 16 3 34q0 71 -45.5 116t-117.5 45q-100 0 -177 -79.5t-77 -176.5q0 -70 44 -116.5t117 -46.5z" />
    <glyph glyph-name="Imacron" unicode="&#x12a;" horiz-adv-x="194" 
d="M49 773l7 36h310l-7 -36h-310zM25 0l143 687h36l-143 -687h-36z" />
    <glyph glyph-name="imacron" unicode="&#x12b;" horiz-adv-x="186" 
d="M10 603l7 36h310l-7 -36h-310zM21 0l108 517h36l-108 -517h-36z" />
    <glyph glyph-name="Iogonek" unicode="&#x12e;" horiz-adv-x="194" 
d="M29 -137q40 0 66 24l16 -32q-39 -28 -88 -28q-38 0 -60.5 21t-22.5 58q0 40 25.5 72t63.5 41l139 668h36l-143 -685l2 -2q-38 0 -62.5 -24.5t-24.5 -63.5q0 -22 15 -35.5t38 -13.5z" />
    <glyph glyph-name="iogonek" unicode="&#x12f;" horiz-adv-x="186" 
d="M176 673q12 0 19.5 -8t7.5 -20q0 -11 -10.5 -21.5t-22.5 -10.5t-19.5 7.5t-7.5 18.5q0 12 10 23t23 11zM41 0q-38 0 -62.5 -24.5t-24.5 -63.5q0 -22 15 -35.5t38 -13.5q40 0 66 24l16 -32q-39 -28 -88 -28q-38 0 -60.5 21t-22.5 58q0 43 29 76.5t71 38.5l6 -6l105 502h36
l-108 -517h-16z" />
    <glyph glyph-name="Idotaccent" unicode="&#x130;" horiz-adv-x="194" 
d="M209 783q-12 0 -19.5 7.5t-7.5 18.5q0 12 10 23t23 11q12 0 19.5 -8t7.5 -20q0 -11 -10.5 -21.5t-22.5 -10.5zM25 0l143 687h36l-143 -687h-36z" />
    <glyph glyph-name="dotlessi" unicode="&#x131;" horiz-adv-x="186" 
d="M21 0l108 517h36l-108 -517h-36z" />
    <glyph glyph-name="Kcommaaccent" unicode="&#x136;" horiz-adv-x="612" 
d="M38 0l143 687h36l-90 -430l484 430h49l-350 -311l228 -376h-45l-213 349l-162 -144l-44 -205h-36zM194 -269l-24 21q51 48 73 92q-12 -1 -19 6t-7 18q0 14 10 24.5t24 10.5q28 0 28 -30q0 -52 -85 -142z" />
    <glyph glyph-name="kcommaaccent" unicode="&#x137;" horiz-adv-x="502" 
d="M542 517l-282 -237l161 -280h-45l-145 255l-146 -123l-27 -132h-36l145 699h36l-107 -514l394 332h52zM191 -97q28 0 28 -30q0 -52 -85 -142l-24 21q51 48 73 92q-12 -1 -19 6t-7 18q0 14 10 24.5t24 10.5z" />
    <glyph glyph-name="Lacute" unicode="&#x139;" horiz-adv-x="534" 
d="M355 879l-145 -133h-49l154 142zM58 36h396l-8 -36h-432l143 687h36z" />
    <glyph glyph-name="lacute" unicode="&#x13a;" horiz-adv-x="188" 
d="M156 758l154 142l40 -9l-145 -133h-49zM23 0l145 699h36l-145 -699h-36z" />
    <glyph glyph-name="Lcaron" unicode="&#x13d;" horiz-adv-x="534" 
d="M326 669q0 -52 -85 -142l-24 21q51 48 73 92q-12 -1 -19 6t-7 18q0 14 10 24.5t24 10.5q28 0 28 -30zM58 36h396l-8 -36h-432l143 687h36z" />
    <glyph glyph-name="lcaron" unicode="&#x13e;" horiz-adv-x="188" 
d="M23 0l145 699h36l-145 -699h-36zM248 527l-24 21q51 48 73 92q-12 -1 -19 6t-7 18q0 14 10 24.5t24 10.5q28 0 28 -30q0 -52 -85 -142z" />
    <glyph glyph-name="Lslash" unicode="&#x141;" horiz-adv-x="607" 
d="M128 36h396l-8 -36h-432l63 304l-111 -52l8 41l112 52l71 342h36l-67 -323l179 83l-8 -41l-179 -83z" />
    <glyph glyph-name="lslash" unicode="&#x142;" horiz-adv-x="269" 
d="M259 390l-8 -41l-88 -41l-64 -308h-36l60 289l-87 -40l8 41l88 41l76 368h36l-73 -350z" />
    <glyph glyph-name="Nacute" unicode="&#x143;" horiz-adv-x="728" 
d="M373 746l154 142l40 -9l-145 -133h-49zM40 0l143 687h36l337 -631l131 631h36l-143 -687h-35l-337 631l-132 -631h-36z" />
    <glyph glyph-name="nacute" unicode="&#x144;" horiz-adv-x="553" 
d="M447 709l-145 -133h-49l154 142zM337 529q74 0 117.5 -40.5t43.5 -107.5q0 -21 -33 -179q-25 -115 -43 -202h-36q14 64 34 160q40 189 40 212q0 55 -35 88t-95 33q-74 0 -130.5 -46t-71.5 -118v1l-69 -330h-36l108 517h36l-19 -89q30 47 80 74t109 27z" />
    <glyph glyph-name="Ncommaaccent" unicode="&#x145;" horiz-adv-x="728" 
d="M40 0l143 687h36l337 -631l131 631h36l-143 -687h-35l-337 631l-132 -631h-36zM231 -269l-24 21q51 48 73 92q-12 -1 -19 6t-7 18q0 14 10 24.5t24 10.5q28 0 28 -30q0 -52 -85 -142z" />
    <glyph glyph-name="ncommaaccent" unicode="&#x146;" horiz-adv-x="553" 
d="M337 529q74 0 117.5 -40.5t43.5 -107.5q0 -21 -33 -179q-25 -115 -43 -202h-36q14 64 34 160q40 189 40 212q0 55 -35 88t-95 33q-74 0 -130.5 -46t-71.5 -118v1l-69 -330h-36l108 517h36l-19 -89q30 47 80 74t109 27zM202 -97q28 0 28 -30q0 -52 -85 -142l-24 21
q51 48 73 92q-12 -1 -19 6t-7 18q0 14 10 24.5t24 10.5z" />
    <glyph glyph-name="Ncaron" unicode="&#x147;" horiz-adv-x="728" 
d="M444 746l-78 137h43l62 -106l108 106h45l-136 -137h-44zM40 0l143 687h36l337 -631l131 631h36l-143 -687h-35l-337 631l-132 -631h-36z" />
    <glyph glyph-name="ncaron" unicode="&#x148;" horiz-adv-x="553" 
d="M368 576h-44l-78 137h43l62 -106l108 106h45zM337 529q74 0 117.5 -40.5t43.5 -107.5q0 -21 -33 -179q-25 -115 -43 -202h-36q14 64 34 160q40 189 40 212q0 55 -35 88t-95 33q-74 0 -130.5 -46t-71.5 -118v1l-69 -330h-36l108 517h36l-19 -89q30 47 80 74t109 27z" />
    <glyph glyph-name="Omacron" unicode="&#x14c;" horiz-adv-x="806" 
d="M353 773l7 36h310l-7 -36h-310zM349 -12q-125 0 -206 81t-81 203q0 106 62 205.5t162.5 160.5t205.5 61q124 0 205 -83t81 -206q0 -106 -61.5 -204t-161 -158t-206.5 -60zM352 24q96 0 187.5 55.5t147.5 145t56 183.5q0 108 -72 181.5t-183 73.5q-95 0 -186 -55.5
t-147.5 -145.5t-56.5 -186q0 -109 71.5 -180.5t182.5 -71.5z" />
    <glyph glyph-name="omacron" unicode="&#x14d;" horiz-adv-x="632" 
d="M233 603l7 36h310l-7 -36h-310zM263 -12q-89 0 -154.5 65t-65.5 154q0 131 97 226.5t230 95.5q89 0 154 -64.5t65 -153.5q0 -131 -96.5 -227t-229.5 -96zM265 24q117 0 202.5 84.5t85.5 199.5q0 75 -55 130t-130 55q-118 0 -203.5 -84t-85.5 -200q0 -75 55 -130t131 -55z
" />
    <glyph glyph-name="Ohungarumlaut" unicode="&#x150;" horiz-adv-x="806" 
d="M429 746l154 142l40 -9l-145 -133h-49zM595 746l154 142l40 -9l-145 -133h-49zM349 -12q-125 0 -206 81t-81 203q0 106 62 205.5t162.5 160.5t205.5 61q124 0 205 -83t81 -206q0 -106 -61.5 -204t-161 -158t-206.5 -60zM352 24q96 0 187.5 55.5t147.5 145t56 183.5
q0 108 -72 181.5t-183 73.5q-95 0 -186 -55.5t-147.5 -145.5t-56.5 -186q0 -109 71.5 -180.5t182.5 -71.5z" />
    <glyph glyph-name="ohungarumlaut" unicode="&#x151;" horiz-adv-x="632" 
d="M271 576l154 142l40 -9l-145 -133h-49zM437 576l154 142l40 -9l-145 -133h-49zM263 -12q-89 0 -154.5 65t-65.5 154q0 131 97 226.5t230 95.5q89 0 154 -64.5t65 -153.5q0 -131 -96.5 -227t-229.5 -96zM265 24q117 0 202.5 84.5t85.5 199.5q0 75 -55 130t-130 55
q-118 0 -203.5 -84t-85.5 -200q0 -75 55 -130t131 -55z" />
    <glyph glyph-name="OE" unicode="&#x152;" horiz-adv-x="995" 
d="M1022 651h-416l-58 -283h384l-7 -36h-385l-61 -296h415l-8 -36h-534q-125 0 -207 78.5t-82 198.5q0 105 60.5 200t160.5 152.5t208 57.5h537zM356 36h86l129 615h-84q-97 0 -187 -51.5t-145.5 -138t-55.5 -181.5q0 -106 72 -175t185 -69z" />
    <glyph glyph-name="oe" unicode="&#x153;" horiz-adv-x="1069" 
d="M803 242h-220q-2 -22 -2 -33q0 -79 49 -132t125 -53q125 0 205 72l21 -29q-39 -35 -104 -57t-127 -22q-78 0 -132.5 47.5t-68.5 123.5q-43 -77 -119.5 -124t-166.5 -47q-89 0 -154.5 65t-65.5 154q0 131 97 226.5t230 95.5q78 0 138.5 -50.5t76.5 -125.5q42 78 117 127
t159 49q81 0 133 -40t52 -102q0 -68 -64 -106.5t-179 -38.5zM265 24q117 0 202.5 84.5t85.5 199.5q0 75 -55 130t-130 55q-118 0 -203.5 -84t-85.5 -200q0 -75 55 -130t131 -55zM855 493q-89 0 -163.5 -63t-100.5 -152h219q94 0 147 28.5t53 78.5q0 47 -43.5 77.5
t-111.5 30.5z" />
    <glyph glyph-name="Racute" unicode="&#x154;" horiz-adv-x="630" 
d="M507 879l-145 -133h-49l154 142zM656 519q0 -107 -84.5 -179.5t-200.5 -72.5h-4l160 -267h-43l-159 267h-208l-56 -267h-36l143 687h288q91 0 145.5 -46.5t54.5 -121.5zM124 303h245q102 0 176.5 61.5t74.5 149.5q0 62 -47.5 99.5t-128.5 37.5h-247z" />
    <glyph glyph-name="racute" unicode="&#x155;" horiz-adv-x="348" 
d="M365 709l-145 -133h-49l154 142zM150 405q29 59 91 91.5t133 32.5l-5 -36q-86 0 -153.5 -55.5t-88.5 -142.5l-62 -295h-36l108 517h36z" />
    <glyph glyph-name="Rcommaaccent" unicode="&#x156;" horiz-adv-x="630" 
d="M656 519q0 -107 -84.5 -179.5t-200.5 -72.5h-4l160 -267h-43l-159 267h-208l-56 -267h-36l143 687h288q91 0 145.5 -46.5t54.5 -121.5zM124 303h245q102 0 176.5 61.5t74.5 149.5q0 62 -47.5 99.5t-128.5 37.5h-247zM215 -97q28 0 28 -30q0 -52 -85 -142l-24 21
q51 48 73 92q-12 -1 -19 6t-7 18q0 14 10 24.5t24 10.5z" />
    <glyph glyph-name="rcommaaccent" unicode="&#x157;" horiz-adv-x="348" 
d="M150 405q29 59 91 91.5t133 32.5l-5 -36q-86 0 -153.5 -55.5t-88.5 -142.5l-62 -295h-36l108 517h36zM42 -97q28 0 28 -30q0 -52 -85 -142l-24 21q51 48 73 92q-12 -1 -19 6t-7 18q0 14 10 24.5t24 10.5z" />
    <glyph glyph-name="Rcaron" unicode="&#x158;" horiz-adv-x="630" 
d="M428 746h-44l-78 137h43l62 -106l108 106h45zM656 519q0 -107 -84.5 -179.5t-200.5 -72.5h-4l160 -267h-43l-159 267h-208l-56 -267h-36l143 687h288q91 0 145.5 -46.5t54.5 -121.5zM124 303h245q102 0 176.5 61.5t74.5 149.5q0 62 -47.5 99.5t-128.5 37.5h-247z" />
    <glyph glyph-name="rcaron" unicode="&#x159;" horiz-adv-x="348" 
d="M286 576h-44l-78 137h43l62 -106l108 106h45zM150 405q29 59 91 91.5t133 32.5l-5 -36q-86 0 -153.5 -55.5t-88.5 -142.5l-62 -295h-36l108 517h36z" />
    <glyph glyph-name="Sacute" unicode="&#x15a;" horiz-adv-x="603" 
d="M308 746l154 142l40 -9l-145 -133h-49zM261 -11q-72 0 -138.5 28.5t-109.5 81.5l25 26q38 -48 99 -74t126 -26q96 0 165.5 52t69.5 123q0 24 -9.5 43t-23 31t-39.5 23.5t-46 18t-57 16.5q-108 31 -151.5 60.5t-43.5 88.5q0 89 77.5 154t184.5 65q129 0 217 -99l-26 -26
q-33 41 -84.5 65t-108.5 24q-91 0 -157.5 -51.5t-66.5 -122.5q0 -22 9.5 -39.5t22 -28.5t40 -22.5t46.5 -17.5t59 -17q107 -30 150.5 -62.5t43.5 -94.5q0 -89 -81 -154t-193 -65z" />
    <glyph glyph-name="sacute" unicode="&#x15b;" horiz-adv-x="485" 
d="M228 576l154 142l40 -9l-145 -133h-49zM205 -12q-119 0 -200 78l25 26q81 -68 177 -68q63 0 115.5 33.5t52.5 85.5q0 33 -29 57.5t-94 47.5q-76 24 -111 54t-35 71q0 67 62 111.5t136 44.5q95 0 175 -59l-26 -26q-70 49 -151 49q-62 0 -111 -33.5t-49 -77.5
q0 -31 30.5 -55.5t97.5 -48.5q75 -24 108.5 -54.5t33.5 -74.5q0 -69 -65 -115t-142 -46z" />
    <glyph glyph-name="Scedilla" unicode="&#x15e;" horiz-adv-x="603" 
d="M390 700q129 0 217 -99l-26 -26q-33 41 -84.5 65t-108.5 24q-91 0 -157.5 -51.5t-66.5 -122.5q0 -22 9.5 -39.5t22 -28.5t40 -22.5t46.5 -17.5t59 -17q107 -30 150.5 -62.5t43.5 -94.5q0 -86 -76.5 -150t-183.5 -69l-22 -35q4 1 11 1q26 0 41.5 -14.5t15.5 -37.5
q0 -37 -33.5 -66t-74.5 -29q-43 0 -77 29l20 31q24 -24 59 -24q29 0 49.5 15.5t20.5 37.5q0 30 -33 30q-21 0 -38 -12l-13 18l35 57q-65 5 -124.5 33t-98.5 76l25 26q38 -48 99 -74t126 -26q96 0 165.5 52t69.5 123q0 24 -9.5 43t-23 31t-39.5 23.5t-46 18t-57 16.5
q-108 31 -151.5 60.5t-43.5 88.5q0 89 77.5 154t184.5 65z" />
    <glyph glyph-name="scedilla" unicode="&#x15f;" horiz-adv-x="485" 
d="M302 493q-62 0 -111 -33.5t-49 -77.5q0 -31 30.5 -55.5t97.5 -48.5q75 -24 108.5 -54.5t33.5 -74.5q0 -66 -59.5 -111t-134.5 -50l-22 -34q4 1 11 1q26 0 41.5 -14.5t15.5 -37.5q0 -37 -33.5 -66t-74.5 -29q-43 0 -77 29l20 31q24 -24 59 -24q29 0 49.5 15.5t20.5 37.5
q0 30 -33 30q-21 0 -38 -12l-13 18l35 56q-103 9 -174 77l25 26q81 -68 177 -68q63 0 115.5 33.5t52.5 85.5q0 33 -29 57.5t-94 47.5q-76 24 -111 54t-35 71q0 67 62 111.5t136 44.5q95 0 175 -59l-26 -26q-70 49 -151 49z" />
    <glyph glyph-name="Scaron" unicode="&#x160;" horiz-adv-x="603" 
d="M379 746l-78 137h43l62 -106l108 106h45l-136 -137h-44zM261 -11q-72 0 -138.5 28.5t-109.5 81.5l25 26q38 -48 99 -74t126 -26q96 0 165.5 52t69.5 123q0 24 -9.5 43t-23 31t-39.5 23.5t-46 18t-57 16.5q-108 31 -151.5 60.5t-43.5 88.5q0 89 77.5 154t184.5 65
q129 0 217 -99l-26 -26q-33 41 -84.5 65t-108.5 24q-91 0 -157.5 -51.5t-66.5 -122.5q0 -22 9.5 -39.5t22 -28.5t40 -22.5t46.5 -17.5t59 -17q107 -30 150.5 -62.5t43.5 -94.5q0 -89 -81 -154t-193 -65z" />
    <glyph glyph-name="scaron" unicode="&#x161;" horiz-adv-x="485" 
d="M299 576l-78 137h43l62 -106l108 106h45l-136 -137h-44zM205 -12q-119 0 -200 78l25 26q81 -68 177 -68q63 0 115.5 33.5t52.5 85.5q0 33 -29 57.5t-94 47.5q-76 24 -111 54t-35 71q0 67 62 111.5t136 44.5q95 0 175 -59l-26 -26q-70 49 -151 49q-62 0 -111 -33.5
t-49 -77.5q0 -31 30.5 -55.5t97.5 -48.5q75 -24 108.5 -54.5t33.5 -74.5q0 -69 -65 -115t-142 -46z" />
    <glyph glyph-name="uni0162" unicode="&#x162;" horiz-adv-x="630" 
d="M134 687h540l-7 -36h-252l-134 -640h3l-4 -6l-1 -5h-2l-29 -46q4 1 11 1q26 0 41.5 -14.5t15.5 -37.5q0 -37 -33.5 -66t-74.5 -29q-43 0 -77 29l20 31q24 -24 59 -24q29 0 49.5 15.5t20.5 37.5q0 30 -33 30q-21 0 -38 -12l-13 18l48 78h1l134 640h-252z" />
    <glyph glyph-name="uni0163" unicode="&#x163;" horiz-adv-x="362" 
d="M347 481h-136q-78 -379 -79 -392q0 -30 14 -47.5t39 -17.5q41 0 80 27l17 -31q-36 -24 -81 -31l-22 -35q4 1 11 1q26 0 41.5 -14.5t15.5 -37.5q0 -37 -33.5 -66t-74.5 -29q-43 0 -77 29l20 31q24 -24 59 -24q29 0 49.5 15.5t20.5 37.5q0 30 -33 30q-22 0 -38 -12l-13 18
l35 57q-31 6 -48.5 31t-17.5 63q0 23 51 262q17 83 28 135h-91l7 36h91l30 142h36l-30 -142h136z" />
    <glyph glyph-name="Tcaron" unicode="&#x164;" horiz-adv-x="630" 
d="M396 746l-78 137h43l62 -106l108 106h45l-136 -137h-44zM243 0l136 651h-252l7 36h540l-7 -36h-252l-136 -651h-36z" />
    <glyph glyph-name="tcaron" unicode="&#x165;" horiz-adv-x="362" 
d="M497 699q28 0 28 -30q0 -52 -85 -142l-24 21q51 48 73 92q-12 -1 -19 6t-7 18q0 14 10 24.5t24 10.5zM248 659l-30 -142h136l-7 -36h-136q-78 -379 -79 -392q0 -30 14 -47.5t39 -17.5q41 0 80 27l17 -31q-49 -32 -101 -32q-39 0 -62 26.5t-23 69.5q0 23 51 262
q17 83 28 135h-91l7 36h91l30 142h36z" />
    <glyph glyph-name="Umacron" unicode="&#x16a;" horiz-adv-x="704" 
d="M304 773l7 36h310l-7 -36h-310zM299 -12q-118 0 -177.5 78t-33.5 200l87 421h36l-88 -423q-22 -106 28 -173t150 -67q102 0 181.5 68t101.5 174l87 421h36l-88 -423q-25 -121 -114.5 -198.5t-205.5 -77.5z" />
    <glyph glyph-name="umacron" unicode="&#x16b;" horiz-adv-x="553" 
d="M513 639l-7 -36h-310l7 36h310zM494 517h36l-108 -517h-36l19 89q-30 -47 -80 -74t-109 -27q-74 0 -117.5 40.5t-43.5 107.5q0 21 33 179q25 115 43 202h36q-72 -342 -74 -361v-11q0 -55 35 -88t95 -33q74 0 130.5 46t71.5 118v-1z" />
    <glyph glyph-name="Uring" unicode="&#x16e;" horiz-adv-x="704" 
d="M456 759q-36 0 -60 23.5t-24 59.5q0 48 40 85.5t87 37.5q36 0 59.5 -23.5t23.5 -58.5q0 -48 -39 -86t-87 -38zM463 793q32 0 58 25.5t26 57.5q0 23 -15.5 39t-39.5 16q-31 0 -58 -25t-27 -56q0 -24 16 -40.5t40 -16.5zM299 -12q-118 0 -177.5 78t-33.5 200l87 421h36
l-88 -423q-22 -106 28 -173t150 -67q102 0 181.5 68t101.5 174l87 421h36l-88 -423q-25 -121 -114.5 -198.5t-205.5 -77.5z" />
    <glyph glyph-name="uring" unicode="&#x16f;" horiz-adv-x="553" 
d="M348 589q-36 0 -60 23.5t-24 59.5q0 48 40 85.5t87 37.5q36 0 59.5 -23.5t23.5 -58.5q0 -48 -39 -86t-87 -38zM384 761q-31 0 -58 -25t-27 -56q0 -24 16 -40.5t40 -16.5q32 0 58 25.5t26 57.5q0 23 -15.5 39t-39.5 16zM494 517h36l-108 -517h-36l19 89q-30 -47 -80 -74
t-109 -27q-74 0 -117.5 40.5t-43.5 107.5q0 21 33 179q25 115 43 202h36q-72 -342 -74 -361v-11q0 -55 35 -88t95 -33q74 0 130.5 46t71.5 118v-1z" />
    <glyph glyph-name="Uhungarumlaut" unicode="&#x170;" horiz-adv-x="704" 
d="M287 746l154 142l40 -9l-145 -133h-49zM453 746l154 142l40 -9l-145 -133h-49zM299 -12q-118 0 -177.5 78t-33.5 200l87 421h36l-88 -423q-22 -106 28 -173t150 -67q102 0 181.5 68t101.5 174l87 421h36l-88 -423q-25 -121 -114.5 -198.5t-205.5 -77.5z" />
    <glyph glyph-name="uhungarumlaut" unicode="&#x171;" horiz-adv-x="553" 
d="M373 709l-145 -133h-49l154 142zM394 576h-49l154 142l40 -9zM425 187l69 330h36l-108 -517h-36l19 89q-30 -47 -80 -74t-109 -27q-74 0 -117.5 40.5t-43.5 107.5q0 21 33 179q25 115 43 202h36q-72 -342 -74 -361v-11q0 -55 35 -88t95 -33q74 0 130.5 46t71.5 118v-1z
" />
    <glyph glyph-name="Uogonek" unicode="&#x172;" horiz-adv-x="704" 
d="M671 687h36l-88 -423q-25 -121 -114.5 -198.5t-205.5 -77.5q-12 0 -32 2q-44 -24 -44 -78q0 -22 15 -35.5t38 -13.5q40 0 66 24l16 -32q-39 -28 -88 -28q-38 0 -60.5 21t-22.5 58q0 55 43 90q-85 22 -124.5 95t-17.5 175l87 421h36l-88 -423q-22 -106 28 -173t150 -67
q102 0 181.5 68t101.5 174z" />
    <glyph glyph-name="uogonek" unicode="&#x173;" horiz-adv-x="553" 
d="M388 -137q40 0 66 24l16 -32q-39 -28 -88 -28q-38 0 -60.5 21t-22.5 58q0 40 26 72.5t65 40.5l15 70q-30 -47 -80 -74t-109 -27q-74 0 -117.5 40.5t-43.5 107.5q0 21 33 179q25 115 43 202h36q-72 -342 -74 -361v-11q0 -55 35 -88t95 -33q74 0 130.5 46t71.5 118v-1
l69 330h36l-108 -517q-38 0 -62.5 -24.5t-24.5 -63.5q0 -22 15 -35.5t38 -13.5z" />
    <glyph glyph-name="Wcircumflex" unicode="&#x174;" horiz-adv-x="1033" 
d="M489 746l134 137h44l80 -137h-43l-64 106l-106 -106h-45zM213 0l-87 687h38l80 -629l341 629h39l80 -629l341 629h40l-373 -687h-39l-79 629l-342 -629h-39z" />
    <glyph glyph-name="wcircumflex" unicode="&#x175;" horiz-adv-x="793" 
d="M336 576l134 137h44l80 -137h-43l-64 106l-106 -106h-45zM151 0l-62 517h37l57 -469l253 469h31l57 -469l253 469h37l-277 -517h-45l-54 450l-242 -450h-45z" />
    <glyph glyph-name="Ycircumflex" unicode="&#x176;" horiz-adv-x="632" 
d="M286 746l134 137h44l80 -137h-43l-64 106l-106 -106h-45zM243 0l59 279l-195 408h40l177 -370l332 370h47l-365 -408l-59 -279h-36z" />
    <glyph glyph-name="ycircumflex" unicode="&#x177;" horiz-adv-x="567" 
d="M217 576l134 137h44l80 -137h-43l-64 106l-106 -106h-45zM40 -180q-47 0 -81 18l15 35q32 -17 68 -17q34 0 64.5 14t48.5 37l47 72l-118 538h39l107 -492l305 492h39l-366 -594q-63 -103 -168 -103z" />
    <glyph glyph-name="Ydieresis" unicode="&#x178;" horiz-adv-x="632" 
d="M329 783q-12 0 -19.5 7.5t-7.5 18.5q0 12 10 23t23 11q12 0 19.5 -8t7.5 -20q0 -11 -10.5 -21.5t-22.5 -10.5zM521 783q-12 0 -19.5 7.5t-7.5 18.5q0 12 10 23t23 11q12 0 19.5 -8t7.5 -20q0 -11 -10.5 -21.5t-22.5 -10.5zM243 0l59 279l-195 408h40l177 -370l332 370h47
l-365 -408l-59 -279h-36z" />
    <glyph glyph-name="Zacute" unicode="&#x179;" horiz-adv-x="619" 
d="M321 746l154 142l40 -9l-145 -133h-49zM5 0l5 30l586 621h-449l7 36h494l-5 -30l-586 -621h460l-8 -36h-504z" />
    <glyph glyph-name="zacute" unicode="&#x17a;" horiz-adv-x="514" 
d="M233 576l154 142l40 -9l-145 -133h-49zM1 0l5 30l453 451h-352l7 36h400l-6 -30l-452 -451h360l-8 -36h-407z" />
    <glyph glyph-name="Zdotaccent" unicode="&#x17b;" horiz-adv-x="619" 
d="M424 783q-12 0 -19.5 7.5t-7.5 18.5q0 12 10 23t23 11q12 0 19.5 -8t7.5 -20q0 -11 -10.5 -21.5t-22.5 -10.5zM5 0l5 30l586 621h-449l7 36h494l-5 -30l-586 -621h460l-8 -36h-504z" />
    <glyph glyph-name="zdotaccent" unicode="&#x17c;" horiz-adv-x="514" 
d="M336 613q-12 0 -19.5 7.5t-7.5 18.5q0 12 10 23t23 11q12 0 19.5 -8t7.5 -20q0 -11 -10.5 -21.5t-22.5 -10.5zM1 0l5 30l453 451h-352l7 36h400l-6 -30l-452 -451h360l-8 -36h-407z" />
    <glyph glyph-name="Zcaron" unicode="&#x17d;" horiz-adv-x="619" 
d="M392 746l-78 137h43l62 -106l108 106h45l-136 -137h-44zM5 0l5 30l586 621h-449l7 36h494l-5 -30l-586 -621h460l-8 -36h-504z" />
    <glyph glyph-name="zcaron" unicode="&#x17e;" horiz-adv-x="514" 
d="M304 576l-78 137h43l62 -106l108 106h45l-136 -137h-44zM1 0l5 30l453 451h-352l7 36h400l-6 -30l-452 -451h360l-8 -36h-407z" />
    <glyph glyph-name="uni0237" unicode="&#x237;" horiz-adv-x="225" 
d="M-64 -178q-43 0 -79 17l11 32q28 -13 68 -13q33 0 60 25t34 62l119 572h36l-119 -574q-11 -53 -47.5 -87t-82.5 -34z" />
    <glyph glyph-name="circumflex" unicode="&#x2c6;" horiz-adv-x="384" 
d="M129 576l134 137h44l80 -137h-43l-64 106l-106 -106h-45z" />
    <glyph glyph-name="caron" unicode="&#x2c7;" horiz-adv-x="384" 
d="M236 576l-78 137h43l62 -106l108 106h45l-136 -137h-44z" />
    <glyph glyph-name="breve" unicode="&#x2d8;" horiz-adv-x="418" 
d="M280 589q-86 0 -136 61l30 24q38 -48 108 -48q71 0 132 50l22 -28q-71 -59 -156 -59z" />
    <glyph glyph-name="dotaccent" unicode="&#x2d9;" horiz-adv-x="186" 
d="M170 613q-12 0 -19.5 7.5t-7.5 18.5q0 12 10 23t23 11q12 0 19.5 -8t7.5 -20q0 -11 -10.5 -21.5t-22.5 -10.5z" />
    <glyph glyph-name="ring" unicode="&#x2da;" horiz-adv-x="332" 
d="M235 589q-37 0 -60.5 23.5t-23.5 59.5q0 48 40 85.5t87 37.5q36 0 59.5 -23.5t23.5 -58.5q0 -48 -39 -86t-87 -38zM242 623q32 0 58 25.5t26 57.5q0 23 -15.5 39t-39.5 16q-31 0 -58 -25t-27 -56q0 -24 16 -40.5t40 -16.5z" />
    <glyph glyph-name="ogonek" unicode="&#x2db;" horiz-adv-x="310" 
d="M75 -173q-38 0 -60.5 21t-22.5 58q0 43 29 76.5t71 38.5l23 -21q-38 0 -62.5 -24.5t-24.5 -63.5q0 -22 15 -35.5t38 -13.5q40 0 66 24l16 -32q-39 -28 -88 -28z" />
    <glyph glyph-name="tilde" unicode="&#x2dc;" horiz-adv-x="370" 
d="M320 586q-26 0 -46 16.5t-36.5 33t-32.5 16.5q-20 0 -40.5 -21.5t-33.5 -58.5l-35 9q17 51 46.5 79t64.5 28q33 0 65 -33t50 -33q20 0 40 21.5t34 58.5l35 -9q-17 -51 -46 -79t-65 -28z" />
    <glyph glyph-name="hungarumlaut" unicode="&#x2dd;" horiz-adv-x="458" 
d="M129 576l154 142l40 -9l-145 -133h-49zM295 576l154 142l40 -9l-145 -133h-49z" />
    <glyph glyph-name="uni0326" unicode="&#x326;" horiz-adv-x="0" 
d="M-244 -269l-24 21q51 48 73 92q-12 -1 -19 6t-7 18q0 14 10 24.5t24 10.5q28 0 28 -30q0 -52 -85 -142z" />
    <glyph glyph-name="Wgrave" unicode="&#x1e80;" horiz-adv-x="1033" 
d="M591 746l-91 133l42 9l96 -142h-47zM213 0l-87 687h38l80 -629l341 629h39l80 -629l341 629h40l-373 -687h-39l-79 629l-342 -629h-39z" />
    <glyph glyph-name="wgrave" unicode="&#x1e81;" horiz-adv-x="793" 
d="M436 576l-91 133l42 9l96 -142h-47zM151 0l-62 517h37l57 -469l253 469h31l57 -469l253 469h37l-277 -517h-45l-54 450l-242 -450h-45z" />
    <glyph glyph-name="Wacute" unicode="&#x1e82;" horiz-adv-x="1033" 
d="M592 746l154 142l40 -9l-145 -133h-49zM213 0l-87 687h38l80 -629l341 629h39l80 -629l341 629h40l-373 -687h-39l-79 629l-342 -629h-39z" />
    <glyph glyph-name="wacute" unicode="&#x1e83;" horiz-adv-x="793" 
d="M441 576l154 142l40 -9l-145 -133h-49zM151 0l-62 517h37l57 -469l253 469h31l57 -469l253 469h37l-277 -517h-45l-54 450l-242 -450h-45z" />
    <glyph glyph-name="Wdieresis" unicode="&#x1e84;" horiz-adv-x="1033" 
d="M532 783q-12 0 -19.5 7.5t-7.5 18.5q0 12 10 23t23 11q12 0 19.5 -8t7.5 -20q0 -11 -10.5 -21.5t-22.5 -10.5zM724 783q-12 0 -19.5 7.5t-7.5 18.5q0 12 10 23t23 11q12 0 19.5 -8t7.5 -20q0 -11 -10.5 -21.5t-22.5 -10.5zM213 0l-87 687h38l80 -629l341 629h39l80 -629
l341 629h40l-373 -687h-39l-79 629l-342 -629h-39z" />
    <glyph glyph-name="wdieresis" unicode="&#x1e85;" horiz-adv-x="793" 
d="M379 613q-12 0 -19.5 7.5t-7.5 18.5q0 12 10 23t23 11q12 0 19.5 -8t7.5 -20q0 -11 -10.5 -21.5t-22.5 -10.5zM571 613q-12 0 -19.5 7.5t-7.5 18.5q0 12 10 23t23 11q12 0 19.5 -8t7.5 -20q0 -11 -10.5 -21.5t-22.5 -10.5zM151 0l-62 517h37l57 -469l253 469h31l57 -469
l253 469h37l-277 -517h-45l-54 450l-242 -450h-45z" />
    <glyph glyph-name="uni1EB8" unicode="&#x1eb8;" horiz-adv-x="585" 
d="M612 651h-416l-58 -283h384l-7 -36h-385l-61 -296h415l-8 -36h-451l143 687h451zM223 -96q12 0 19.5 -8t7.5 -20q0 -11 -10.5 -21.5t-22.5 -10.5t-19.5 7.5t-7.5 18.5q0 12 10 23t23 11z" />
    <glyph glyph-name="uni1EB9" unicode="&#x1eb9;" horiz-adv-x="600" 
d="M301 242h-220q-2 -22 -2 -33q0 -79 49 -132t125 -53q125 0 205 72l21 -29q-39 -35 -104 -57t-127 -22q-90 0 -147.5 62t-57.5 155q0 125 96.5 224.5t219.5 99.5q81 0 133 -40t52 -102q0 -68 -64 -106.5t-179 -38.5zM353 493q-89 0 -163.5 -63t-100.5 -152h219
q94 0 147 28.5t53 78.5q0 47 -43.5 77.5t-111.5 30.5zM208 -97q12 0 19.5 -8t7.5 -20q0 -11 -10.5 -21.5t-22.5 -10.5t-19.5 7.5t-7.5 18.5q0 12 10 23t23 11z" />
    <glyph glyph-name="uni1EBC" unicode="&#x1ebc;" horiz-adv-x="609" 
d="M360 822q-20 0 -40.5 -21.5t-33.5 -58.5l-35 9q17 51 46.5 79t64.5 28q26 0 46 -16.5t36.5 -33t32.5 -16.5q20 0 40 21.5t34 58.5l35 -9q-17 -51 -46 -79t-65 -28q-33 0 -65 33t-50 33zM612 651h-416l-58 -283h384l-7 -36h-385l-61 -296h415l-8 -36h-451l143 687h451z
" />
    <glyph glyph-name="uni1EBD" unicode="&#x1ebd;" horiz-adv-x="567" 
d="M322 652q-20 0 -40.5 -21.5t-33.5 -58.5l-35 9q17 51 46.5 79t64.5 28q26 0 46 -16.5t36.5 -33t32.5 -16.5q20 0 40 21.5t34 58.5l35 -9q-17 -51 -46 -79t-65 -28q-33 0 -65 33t-50 33zM359 529q81 0 133 -40t52 -102q0 -68 -64 -106.5t-179 -38.5h-220q-2 -22 -2 -33
q0 -79 49 -132t125 -53q125 0 205 72l21 -29q-39 -35 -104 -57t-127 -22q-90 0 -147.5 62t-57.5 155q0 125 96.5 224.5t219.5 99.5zM308 278q94 0 147 28.5t53 78.5q0 47 -43.5 77.5t-111.5 30.5q-89 0 -163.5 -63t-100.5 -152h219z" />
    <glyph glyph-name="Ygrave" unicode="&#x1ef2;" horiz-adv-x="632" 
d="M439 746l-91 133l42 9l96 -142h-47zM243 0l59 279l-195 408h40l177 -370l332 370h47l-365 -408l-59 -279h-36z" />
    <glyph glyph-name="ygrave" unicode="&#x1ef3;" horiz-adv-x="567" 
d="M370 576l-91 133l42 9l96 -142h-47zM40 -180q-47 0 -81 18l15 35q32 -17 68 -17q34 0 64.5 14t48.5 37l47 72l-118 538h39l107 -492l305 492h39l-366 -594q-63 -103 -168 -103z" />
    <glyph glyph-name="endash" unicode="&#x2013;" horiz-adv-x="577" 
d="M55 254l8 36h465l-8 -36h-465z" />
    <glyph glyph-name="emdash" unicode="&#x2014;" horiz-adv-x="882" 
d="M55 254l8 36h770l-8 -36h-770z" />
    <glyph glyph-name="quoteleft" unicode="&#x2018;" horiz-adv-x="241" 
d="M219 664l24 -21q-51 -48 -73 -92q26 0 26 -24q0 -14 -10 -24.5t-24 -10.5q-28 0 -28 30q0 52 85 142z" />
    <glyph glyph-name="quoteright" unicode="&#x2019;" horiz-adv-x="241" 
d="M151 475l-24 21q51 48 73 92q-26 0 -26 24q0 14 10 24.5t24 10.5q28 0 28 -30q0 -52 -85 -142z" />
    <glyph glyph-name="quotedblleft" unicode="&#x201c;" horiz-adv-x="421" 
d="M219 664l24 -21q-51 -48 -73 -92q26 0 26 -24q0 -14 -10 -24.5t-24 -10.5q-28 0 -28 30q0 52 85 142zM398 664l24 -21q-51 -48 -73 -92q26 0 26 -24q0 -14 -10 -24.5t-24 -10.5q-28 0 -28 30q0 52 85 142z" />
    <glyph glyph-name="quotedblright" unicode="&#x201d;" horiz-adv-x="421" 
d="M152 475l-24 21q51 48 73 92q-26 0 -26 24q0 14 10 24.5t24 10.5q28 0 28 -30q0 -52 -85 -142zM331 475l-24 21q51 48 73 92q-26 0 -26 24q0 14 10 24.5t24 10.5q28 0 28 -30q0 -52 -85 -142z" />
    <glyph glyph-name="ellipsis" unicode="&#x2026;" horiz-adv-x="566" 
d="M51 -12q-13 0 -20.5 7.5t-7.5 18.5q0 12 10 23t24 11q12 0 19 -7.5t7 -18.5q0 -13 -10 -23.5t-22 -10.5zM231 -12q-13 0 -20.5 7.5t-7.5 18.5q0 12 10 23t24 11q12 0 19 -7.5t7 -18.5q0 -13 -10 -23.5t-22 -10.5zM411 -12q-13 0 -20.5 7.5t-7.5 18.5q0 12 10 23t24 11
q12 0 19 -7.5t7 -18.5q0 -13 -10 -23.5t-22 -10.5z" />
    <glyph glyph-name="perthousand" unicode="&#x2030;" horiz-adv-x="1151" 
d="M214 349q-54 0 -85.5 34.5t-31.5 92.5q0 84 53.5 150.5t130.5 66.5q56 0 87 -36.5t31 -91.5q0 -83 -54 -149.5t-131 -66.5zM72 0l613 687h49l-613 -687h-49zM217 385q61 0 103 55t42 120q0 43 -21.5 70t-62.5 27q-60 0 -102.5 -55.5t-42.5 -121.5q0 -43 22.5 -69
t61.5 -26zM521 -10q-54 0 -85 34.5t-31 92.5q0 86 53 151.5t130 65.5q54 0 86 -35t32 -93q0 -84 -54 -150t-131 -66zM902 -10q-54 0 -85 34.5t-31 92.5q0 86 53 151.5t130 65.5q54 0 86 -35t32 -93q0 -84 -54 -150t-131 -66zM524 26q61 0 103.5 55t42.5 121q0 44 -23 70
t-62 26q-60 0 -102 -54.5t-42 -122.5q0 -43 22 -69t61 -26zM905 26q61 0 103.5 55t42.5 121q0 44 -23 70t-62 26q-60 0 -102 -54.5t-42 -122.5q0 -43 22 -69t61 -26z" />
    <glyph glyph-name="Euro" unicode="&#x20ac;" horiz-adv-x="684" 
d="M485 699q74 0 135.5 -29t101.5 -77l-29 -23q-34 42 -88 67.5t-121 25.5q-102 0 -194.5 -58.5t-143.5 -149.5h367l-7 -36h-377q-28 -64 -28 -130v-1h377l-7 -36h-368q13 -100 85 -164t164 -64q59 0 127 27t118 69l23 -28q-55 -45 -129.5 -74.5t-140.5 -29.5
q-106 0 -188.5 74t-94.5 190h-92l7 36h83q0 67 26 131h-81l7 36h90q54 106 158 175t220 69z" />
    <glyph glyph-name="minus" unicode="&#x2212;" horiz-adv-x="594" 
d="M79 316l8 36h459l-8 -36h-459z" />
    <glyph glyph-name="a.alt" horiz-adv-x="555" 
d="M332 529q77 0 120 -43t43 -116q0 -8 -0.5 -15t-1.5 -15t-4 -22.5t-5.5 -29.5t-9 -45t-12.5 -59t-17 -81t-22 -103h-36l17 82q-37 -44 -100 -69t-121 -25q-71 0 -114.5 36.5t-43.5 96.5q0 88 72 146t172 58q85 0 178 -38q11 54 11 78q0 57 -32 92.5t-101 35.5
q-83 0 -169 -46l-11 33q95 49 187 49zM421 163v-1q3 14 7.5 34t7 33.5t4.5 24.5q-95 35 -168 35q-86 0 -148.5 -46.5t-62.5 -115.5q0 -46 36 -74.5t92 -28.5q67 0 136 37t96 102z" />
    <glyph glyph-name="aacute.alt" horiz-adv-x="555" 
d="M457 709l-145 -133h-49l154 142zM332 529q77 0 120 -43t43 -116q0 -8 -0.5 -15t-1.5 -15t-4 -22.5t-5.5 -29.5t-9 -45t-12.5 -59t-17 -81t-22 -103h-36l17 82q-37 -44 -100 -69t-121 -25q-71 0 -114.5 36.5t-43.5 96.5q0 88 72 146t172 58q85 0 178 -38q11 54 11 78
q0 57 -32 92.5t-101 35.5q-83 0 -169 -46l-11 33q95 49 187 49zM421 163v-1q3 14 7.5 34t7 33.5t4.5 24.5q-95 35 -168 35q-86 0 -148.5 -46.5t-62.5 -115.5q0 -46 36 -74.5t92 -28.5q67 0 136 37t96 102z" />
    <glyph glyph-name="abreve.alt" horiz-adv-x="555" 
d="M361 589q-86 0 -136 61l30 24q38 -48 108 -48q71 0 132 50l22 -28q-71 -59 -156 -59zM332 529q77 0 120 -43t43 -116q0 -8 -0.5 -15t-1.5 -15t-4 -22.5t-5.5 -29.5t-9 -45t-12.5 -59t-17 -81t-22 -103h-36l17 82q-37 -44 -100 -69t-121 -25q-71 0 -114.5 36.5t-43.5 96.5
q0 88 72 146t172 58q85 0 178 -38q11 54 11 78q0 57 -32 92.5t-101 35.5q-83 0 -169 -46l-11 33q95 49 187 49zM421 163v-1q3 14 7.5 34t7 33.5t4.5 24.5q-95 35 -168 35q-86 0 -148.5 -46.5t-62.5 -115.5q0 -46 36 -74.5t92 -28.5q67 0 136 37t96 102z" />
    <glyph glyph-name="acircumflex.alt" horiz-adv-x="555" 
d="M378 682l-106 -106h-45l134 137h44l80 -137h-43zM332 529q77 0 120 -43t43 -116q0 -8 -0.5 -15t-1.5 -15t-4 -22.5t-5.5 -29.5t-9 -45t-12.5 -59t-17 -81t-22 -103h-36l17 82q-37 -44 -100 -69t-121 -25q-71 0 -114.5 36.5t-43.5 96.5q0 88 72 146t172 58q85 0 178 -38
q11 54 11 78q0 57 -32 92.5t-101 35.5q-83 0 -169 -46l-11 33q95 49 187 49zM421 163v-1q3 14 7.5 34t7 33.5t4.5 24.5q-95 35 -168 35q-86 0 -148.5 -46.5t-62.5 -115.5q0 -46 36 -74.5t92 -28.5q67 0 136 37t96 102z" />
    <glyph glyph-name="adieresis.alt" horiz-adv-x="555" 
d="M270 613q-12 0 -19.5 7.5t-7.5 18.5q0 12 10 23t23 11q12 0 19.5 -8t7.5 -20q0 -11 -10.5 -21.5t-22.5 -10.5zM462 613q-12 0 -19.5 7.5t-7.5 18.5q0 12 10 23t23 11q12 0 19.5 -8t7.5 -20q0 -11 -10.5 -21.5t-22.5 -10.5zM332 529q77 0 120 -43t43 -116q0 -8 -0.5 -15
t-1.5 -15t-4 -22.5t-5.5 -29.5t-9 -45t-12.5 -59t-17 -81t-22 -103h-36l17 82q-37 -44 -100 -69t-121 -25q-71 0 -114.5 36.5t-43.5 96.5q0 88 72 146t172 58q85 0 178 -38q11 54 11 78q0 57 -32 92.5t-101 35.5q-83 0 -169 -46l-11 33q95 49 187 49zM421 163v-1
q3 14 7.5 34t7 33.5t4.5 24.5q-95 35 -168 35q-86 0 -148.5 -46.5t-62.5 -115.5q0 -46 36 -74.5t92 -28.5q67 0 136 37t96 102z" />
    <glyph glyph-name="agrave.alt" horiz-adv-x="555" 
d="M427 576h-47l-91 133l42 9zM332 529q77 0 120 -43t43 -116q0 -8 -0.5 -15t-1.5 -15t-4 -22.5t-5.5 -29.5t-9 -45t-12.5 -59t-17 -81t-22 -103h-36l17 82q-37 -44 -100 -69t-121 -25q-71 0 -114.5 36.5t-43.5 96.5q0 88 72 146t172 58q85 0 178 -38q11 54 11 78
q0 57 -32 92.5t-101 35.5q-83 0 -169 -46l-11 33q95 49 187 49zM421 163v-1q3 14 7.5 34t7 33.5t4.5 24.5q-95 35 -168 35q-86 0 -148.5 -46.5t-62.5 -115.5q0 -46 36 -74.5t92 -28.5q67 0 136 37t96 102z" />
    <glyph glyph-name="amacron.alt" horiz-adv-x="555" 
d="M213 639h310l-7 -36h-310zM332 529q77 0 120 -43t43 -116q0 -8 -0.5 -15t-1.5 -15t-4 -22.5t-5.5 -29.5t-9 -45t-12.5 -59t-17 -81t-22 -103h-36l17 82q-37 -44 -100 -69t-121 -25q-71 0 -114.5 36.5t-43.5 96.5q0 88 72 146t172 58q85 0 178 -38q11 54 11 78
q0 57 -32 92.5t-101 35.5q-83 0 -169 -46l-11 33q95 49 187 49zM421 163v-1q3 14 7.5 34t7 33.5t4.5 24.5q-95 35 -168 35q-86 0 -148.5 -46.5t-62.5 -115.5q0 -46 36 -74.5t92 -28.5q67 0 136 37t96 102z" />
    <glyph glyph-name="aogonek.alt" horiz-adv-x="555" 
d="M391 -137q40 0 66 24l16 -32q-39 -28 -88 -28q-38 0 -60.5 21t-22.5 58q0 40 25.5 72t63.5 41l13 63q-37 -44 -100 -69t-121 -25q-71 0 -114.5 36.5t-43.5 96.5q0 88 72 146t172 58q85 0 178 -38q11 54 11 78q0 57 -32 92.5t-101 35.5q-83 0 -169 -46l-11 33
q95 49 187 49q77 0 120 -43t43 -116q0 -7 -0.5 -12.5t-1.5 -14.5t-2 -17t-4.5 -24t-6.5 -31.5t-9.5 -44.5t-12.5 -57t-15.5 -74.5t-19.5 -92.5l2 -2q-38 0 -62.5 -24.5t-24.5 -63.5q0 -22 15 -35.5t38 -13.5zM421 163v-1q3 14 7.5 34t7 33.5t4.5 24.5q-95 35 -168 35
q-86 0 -148.5 -46.5t-62.5 -115.5q0 -46 36 -74.5t92 -28.5q67 0 136 37t96 102z" />
    <glyph glyph-name="aring.alt" horiz-adv-x="555" 
d="M358 589q-36 0 -60 23.5t-24 59.5q0 48 40 85.5t87 37.5q36 0 59.5 -23.5t23.5 -58.5q0 -48 -39 -86t-87 -38zM394 761q-31 0 -58 -25t-27 -56q0 -24 16 -40.5t40 -16.5q32 0 58 25.5t26 57.5q0 23 -15.5 39t-39.5 16zM332 529q77 0 120 -43t43 -116q0 -8 -0.5 -15
t-1.5 -15t-4 -22.5t-5.5 -29.5t-9 -45t-12.5 -59t-17 -81t-22 -103h-36l17 82q-37 -44 -100 -69t-121 -25q-71 0 -114.5 36.5t-43.5 96.5q0 88 72 146t172 58q85 0 178 -38q11 54 11 78q0 57 -32 92.5t-101 35.5q-83 0 -169 -46l-11 33q95 49 187 49zM421 163v-1
q3 14 7.5 34t7 33.5t4.5 24.5q-95 35 -168 35q-86 0 -148.5 -46.5t-62.5 -115.5q0 -46 36 -74.5t92 -28.5q67 0 136 37t96 102z" />
    <glyph glyph-name="atilde.alt" horiz-adv-x="555" 
d="M309 652q-20 0 -40.5 -21.5t-33.5 -58.5l-35 9q17 51 46.5 79t64.5 28q32 0 64.5 -33t50.5 -33q20 0 40 21.5t34 58.5l35 -9q-17 -51 -46 -79t-65 -28q-26 0 -46 16.5t-36.5 33t-32.5 16.5zM332 529q77 0 120 -43t43 -116q0 -8 -0.5 -15t-1.5 -15t-4 -22.5t-5.5 -29.5
t-9 -45t-12.5 -59t-17 -81t-22 -103h-36l17 82q-37 -44 -100 -69t-121 -25q-71 0 -114.5 36.5t-43.5 96.5q0 88 72 146t172 58q85 0 178 -38q11 54 11 78q0 57 -32 92.5t-101 35.5q-83 0 -169 -46l-11 33q95 49 187 49zM421 163v-1q3 14 7.5 34t7 33.5t4.5 24.5
q-95 35 -168 35q-86 0 -148.5 -46.5t-62.5 -115.5q0 -46 36 -74.5t92 -28.5q67 0 136 37t96 102z" />
    <glyph glyph-name="ascender" 
d="M30 0l145 699h36l-145 -699h-36z" />
    <glyph glyph-name="descender" 
d="M-6 -172l143 689h36l-143 -689h-36z" />
    </font>
</defs>
</svg>
