<?xml version="1.0" standalone="no"?>
<!DOCTYPE svg PUBLIC "-//W3C//DTD SVG 1.1//EN" "http://www.w3.org/Graphics/SVG/1.1/DTD/svg11.dtd" >
<svg xmlns="http://www.w3.org/2000/svg" xmlns:xlink="http://www.w3.org/1999/xlink" version="1.1">
<metadata>
Created by FontForge 20170731 at Mon Oct 27 13:55:27 2008
 By Aleksey,,,
Jadefedgah [80] (c) (junkohanhero). 2008. All Rights Reserved
</metadata>
<defs>
<font id="Jadefedgah80" horiz-adv-x="0" >
  <font-face 
    font-family="Jadefedgah[80]"
    font-weight="400"
    font-stretch="normal"
    units-per-em="2048"
    panose-1="2 0 5 0 0 0 0 0 0 0"
    ascent="1638"
    descent="-410"
    x-height="1630"
    cap-height="1774"
    bbox="-1509 -585 9060 1968"
    underline-thickness="150"
    underline-position="-442"
    unicode-range="U+0020-F002"
  />
<missing-glyph horiz-adv-x="796" 
d="M398 1237q62 -4 66 -90q-6 -322 2 -322l17 -9l19 3l24 -2q54 -3 75 -69l-4 -371l3 -4v-4l-4 -3q-6 -96 55 -100h3q40 -3 50 54q-66 277 -63 319q5 239 -3 240q-85 15 -81 90q8 129 -17 130q-44 46 -43 56q8 16 15 17h11q155 -155 154 -178l8 -43l-4 -3l3 -15
q-20 -330 26 -452l33 -171q-4 -71 -77 -84l-28 1q-65 4 -80 105q10 426 -3 426q-14 16 -28 16l-53 4l-15 -17l2 -26l-7 -461l3 -14l-15 -21l-25 5l-218 -7l-39 -1l-11 4h-53q-15 1 -14 379q-6 138 1 561q3 41 58 61zM125 1164l-2 -161l2 -15l-4 -3q-3 -57 36 -60l165 -2
l3 -4h4q82 -5 83 23l4 4q4 236 -7 236l-17 8q-254 6 -255 -2zM587 993q-4 -75 38 -78h8q5 -1 11 13q4 67 -24 80l-10 1q-20 1 -23 -16zM-441 -250h4l3 -3v-4l-3 -3l-4 3v7zM-421 -264q4 0 5 -9h-9l-4 4zM776 -439l9 2141q47 167 -7 4l-495 -11q196 24 -264 6l7 -253
l-32 -1812q21 -1 656 -57q122 -22 126 -18z" />
    <glyph glyph-name=".notdef" horiz-adv-x="796" 
d="M398 1237q62 -4 66 -90q-6 -322 2 -322l17 -9l19 3l24 -2q54 -3 75 -69l-4 -371l3 -4v-4l-4 -3q-6 -96 55 -100h3q40 -3 50 54q-66 277 -63 319q5 239 -3 240q-85 15 -81 90q8 129 -17 130q-44 46 -43 56q8 16 15 17h11q155 -155 154 -178l8 -43l-4 -3l3 -15
q-20 -330 26 -452l33 -171q-4 -71 -77 -84l-28 1q-65 4 -80 105q10 426 -3 426q-14 16 -28 16l-53 4l-15 -17l2 -26l-7 -461l3 -14l-15 -21l-25 5l-218 -7l-39 -1l-11 4h-53q-15 1 -14 379q-6 138 1 561q3 41 58 61zM125 1164l-2 -161l2 -15l-4 -3q-3 -57 36 -60l165 -2
l3 -4h4q82 -5 83 23l4 4q4 236 -7 236l-17 8q-254 6 -255 -2zM587 993q-4 -75 38 -78h8q5 -1 11 13q4 67 -24 80l-10 1q-20 1 -23 -16zM-441 -250h4l3 -3v-4l-3 -3l-4 3v7zM-421 -264q4 0 5 -9h-9l-4 4zM776 -439l9 2141q47 167 -7 4l-495 -11q196 24 -264 6l7 -253
l-32 -1812q21 -1 656 -57q122 -22 126 -18z" />
    <glyph glyph-name=".null" 
 />
    <glyph glyph-name="nonmarkingreturn" horiz-adv-x="203" 
 />
    <glyph glyph-name="space" unicode=" " horiz-adv-x="301" 
 />
    <glyph glyph-name="space" unicode="&#xa0;" horiz-adv-x="301" 
 />
    <glyph glyph-name="exclam" unicode="!" horiz-adv-x="583" 
d="M428 1223v-53q-11 -876 -38 -876h-233q-52 0 -52 38l8 8l-8 36l-15 802l-7 37l7 8h338zM135 212h255l14 -14v-263q0 -22 -30 -22l-22 7l-37 -7l-23 7l-52 -7l-53 7l-44 -7q-30 10 -30 22v255zM553 -356l7 2186q35 171 -6 4l-374 -11q148 24 -199 6l5 -258l-24 -1850
q16 -1 495 -59q92 -22 96 -18z" />
    <glyph glyph-name="quotedbl" unicode="&#x22;" horiz-adv-x="637" 
d="M492 1268q26 -11 26 -20v-332q-6 -20 -40 -20h-145l-14 13v352h146zM60 1261h172l14 -13v-332l-20 -20h-159l-20 20v332zM-14 1849l-76 -2185q-45 -171 5 -5l413 -5q-164 -18 219 -16l3 263l88 1877q-17 2 3 13q-647 96 -655 58z" />
    <glyph glyph-name="numbersign" unicode="#" horiz-adv-x="1310" 
d="M410 1188h205l33 -22l-21 -184h21v-10l54 10h21l44 -10q48 0 65 205l11 11h227l32 -22l-32 -173l65 -21l53 10q87 -6 87 -32q-21 -237 -65 -237h-172q-17 -141 -32 -141l32 -43l64 11l44 -11l10 11h11q43 -17 43 -32q-19 -239 -43 -239h-173q-22 0 -54 -205h-130
l-108 -11l-21 44l21 162l-11 10h-151l-54 -205h-21v-11l-108 11h-43l-44 -11l-32 11l21 195l-10 10h-174l-21 23q20 248 65 248l11 -11l11 11h10l55 -11l64 11l11 -11l42 172l-9 12h-173q-22 0 -22 32q0 237 87 237h32l43 -10l42 10l12 -10h11q35 216 64 216zM583 713v-12
l-21 -161h11l10 -11h11l12 11h9l76 -11q76 0 76 151l-11 33h-173zM1295 -509l85 2339q-7 20 -11 5l-884 15q350 16 -470 23l5 -278l-116 -1977q38 -3 1166 -99q217 -32 225 -28z" />
    <glyph glyph-name="dollar" unicode="$" horiz-adv-x="910" 
d="M503 1356v-3l2 3q145 -9 194 -42l110 -36q6 -5 4 -36l4 -5l1 -8l-3 -23l-2 -70l-3 -12l4 -32l-6 -26l3 -26q-4 -15 -21 -14l-49 33q-11 1 -33 25q-60 11 -73 23l-96 16l-31 1h-3l-29 3q-94 -18 -95 -40q-13 1 -27 -39q-2 -38 30 -63q41 -37 77 -51q33 -25 87 -50
q43 -38 74 -45q55 -32 62 -42q7 -16 63 -56q0 -6 28 -40q-1 -15 36 -57q11 -39 17 -109l-2 -38q-2 -29 -25 -104l5 -3l-1 -3q0 -10 -38 -53q-34 -61 -90 -96l-27 -19l-13 -6l1 4q-28 -20 -86 -36l-112 -19l-175 10q-29 2 -164 41q-68 28 -73 46v8l5 32l-2 9h3l-3 1l4 18v45
l4 16l-4 39l5 31h-3q8 37 18 36h3q31 -29 74 -51q-1 -16 63 -30q-1 -14 154 -24h13l3 -5h3v4l4 -4l6 -1l5 4l1 -4q97 7 98 24q43 23 46 67l4 13l2 20l2 2q-7 70 -34 72q-16 7 -50 49q-29 2 -105 62q-48 36 -59 37q-26 1 -53 38q-45 26 -46 40q-23 1 -44 42l-31 30
q-5 0 -17 48q-29 2 -30 115l2 37q3 38 37 116l33 49q38 42 61 41l37 33q12 -1 69 19q19 -1 47 11l20 2l4 -4q1 13 93 9l17 -1zM412 1561h4l14 -2l15 -1h7l8 -1h6l8 -1h7v0h11l27 -3h15q10 -2 23 -3h31q21 -4 23 -6l-2 -6l3 -11l-3 -6l2 -9l-5 -10v-38l-2 -3v-13l-4 -29l3 -6
l-1 -5l1 -8l-3 -10l-3 -22l1 -3h-1l1 -1q-3 -22 -25 -20h-16l-38 3h-27l-73 6h-16q-13 1 -25 6v5l-2 5l1 -1l-1 1l-1 1h2l-1 1v0l2 2l-1 9l8 76l-2 5l3 26l-2 5l4 27q1 15 -3 17l4 4l-4 6l3 2h-2v1l2 1l-1 4q12 6 25 5zM280 178h4l14 -2l15 -1h7l8 -1l6 1l8 -2l7 1v-1l11 1
l28 -3l15 -1q9 -1 22 -2l31 -1q21 -3 24 -6l-3 -5l3 -12l-3 -6l2 -9l-5 -10v-38l-2 -3v-12l-4 -29l3 -7l-1 -5l1 -8l-3 -10l-3 -22l1 -2h-1l1 -2q-2 -22 -25 -20h-16l-38 3h-26l-74 6h-16q-13 1 -25 7v4l-2 5l1 -1l-1 1l-1 1l2 1h-1v0l2 2l-1 9l8 76l-2 5l3 27l-2 4l4 27
q1 15 -3 17l4 5l-3 5l2 2l-2 1v0l2 2l-1 3q12 6 25 5zM898 -480l12 2262q56 176 -9 4l-600 -11q238 25 -319 7l9 -268l-39 -1914q26 -2 794 -61q147 -23 152 -19z" />
    <glyph glyph-name="percent" unicode="%" horiz-adv-x="987" 
d="M280 1256q150 0 227 -183q16 -27 16 -105q0 -230 -226 -281h-33q-131 0 -210 170q-23 56 -23 111q0 193 178 276zM142 975v-13q0 -109 105 -147h55q105 37 105 110l6 37v29q-25 138 -139 138q-111 0 -132 -154zM871 853q28 -60 28 -88l-790 -361q-18 0 -33 85
q776 364 795 364zM667 555h33q127 0 216 -189l10 -83v-22q0 -189 -203 -270l-56 -6q-233 54 -233 294q0 192 189 270zM545 251q0 -93 115 -138h29q86 0 128 131v45q-29 145 -140 145q-96 0 -132 -128v-55zM983 -453l12 2236q61 174 -8 4l-648 -11q256 25 -345 7l9 -265
l-42 -1892q28 -2 857 -60q160 -23 165 -19z" />
    <glyph glyph-name="ampersand" unicode="&#x26;" horiz-adv-x="1119" 
d="M426 1285q229 0 278 -265q0 -198 -206 -328v-16l199 -245q24 48 40 178h152l14 -11q0 -133 -87 -323l212 -270v-12l-7 -6h-53l-7 6l-6 -6h-126q-14 4 -118 139q-154 -160 -291 -160h-119q-156 0 -277 211q-27 84 -27 126v34q0 212 257 367v5q-112 168 -112 244v77
q0 144 166 234q74 21 118 21zM301 1002v-5q0 -99 99 -200q145 92 145 184v55q-33 105 -112 105q-85 0 -125 -88zM162 349q0 -138 139 -206l79 -17q135 0 239 128v5l-259 339h-12q-186 -102 -186 -249zM58 1801l-130 -2206q-74 -171 9 -4l687 2q-273 -21 366 -11l3 261
l144 1866q-29 2 -905 70q-168 25 -174 22z" />
    <glyph glyph-name="quotesingle" unicode="'" horiz-adv-x="424" 
d="M213 1000h-30l-62 359q-4 23 -4 33q0 37 20.5 57t59.5 20t60.5 -19.5t21.5 -56.5q0 -8 -4 -34zM31 1824l-48 -2160q-27 -168 4 -5l254 3q-101 -21 136 -12l1 256l53 1828q-10 1 -335 69q-62 24 -65 21z" />
    <glyph glyph-name="parenleft" unicode="(" horiz-adv-x="333" 
d="M327 1468h10q18 -11 65 -94v-19q-298 -317 -298 -703v-138q0 -400 307 -713l-74 -110q-385 354 -385 899q0 517 375 878zM-31 1744l-60 -2151q-34 -167 4 -4l319 2q-126 -21 170 -11l1 255l86 1889q-14 2 -417 32q-100 -9 -103 -12z" />
    <glyph glyph-name="parenright" unicode=")" horiz-adv-x="489" 
d="M59 1432h5q366 -383 338 -873q-29 -508 -435 -851l-69 105v7q329 292 353 726q26 461 -268 789zM390 -434l106 2153q39 166 -5 4l-337 3q134 19 -179 14l-7 -255l-106 -1821q14 -2 443 -76q82 -26 85 -22z" />
    <glyph glyph-name="asterisk" unicode="*" horiz-adv-x="655" 
d="M318 1120q17 65 3 129q-15 71 -11 87q10 29 38 39t64 -3q36 -11 54 -34.5t9 -49.5q-5 -19 -60 -70q-49 -44 -73 -104q69 2 129 32q65 34 84 34q11 -1 20 -5q17 -5 30 -20q20 -23 21 -59q0 -19 -5 -34q-5 -13 -11 -24q-19 -23 -48 -22q-6 0 -18 4q-25 8 -70 31
q-25 13 -51 22q-39 12 -80 15q25 -64 75 -108q55 -49 62 -66q6 -21 1 -38q-4 -8 -7 -15q-16 -25 -53 -36q-34 -10 -62 -1q-2 0 -2 1q-28 10 -38 35q-7 20 6 92q11 64 -7 127q-53 -40 -80 -98q-30 -63 -46 -73q-25 -18 -54 -10l-4 2q-28 9 -49 36q-22 28 -22 59q-1 10 3 18
q5 16 19 26q18 11 94 20q66 7 123 41q-35 22 -71 35q-27 8 -52 12q-55 6 -78 14q-8 3 -12 7q-27 16 -28 46q-2 14 2 28q6 15 17 30q21 29 49 37q20 5 37 1q8 -4 15 -9q18 -11 53 -78q30 -60 84 -103zM-5 1736l-80 -2141q-46 -171 5 -4l427 2q-169 -21 227 -11l2 260l89 1862
q-18 2 -562 30q-104 5 -108 2z" />
    <glyph glyph-name="plus" unicode="+" horiz-adv-x="706" 
d="M287 552l-262 19l8 110l262 -19l20 292h2l104 -7l-21 -291l262 -19l1 -1l-8 -109l-263 19l-20 -292l-105 7zM4 1766l-88 -2172q-50 -169 6 -5l468 3q-186 -21 248 -11l3 257l88 1887q-21 2 -606 30q-114 14 -119 11z" />
    <glyph glyph-name="comma" unicode="," horiz-adv-x="437" 
d="M79 230h184l27 -20v-149q-63 -163 -119 -179h-105l53 159h-13q-53 0 -53 20v149zM-22 1842l12 -2284q-25 -182 4 -4l277 53q-110 -42 148 15l-6 270l3 1935q-12 -1 -367 6q-69 13 -71 9z" />
    <glyph glyph-name="hyphen" unicode="-" horiz-adv-x="705" 
d="M94 598q-53 7 -49 40l14 97q4 34 59 27l471 -63q55 -7 50 -41l-13 -97q-5 -33 -58 -26zM28 1794l-64 -2196l6 -5l442 3q-176 -22 234 -12l3 270l92 1928q-19 2 -601 -10q-108 25 -112 22z" />
    <glyph glyph-name="hyphen" unicode="&#xad;" horiz-adv-x="705" 
d="M94 598q-53 7 -49 40l14 97q4 34 59 27l471 -63q55 -7 50 -41l-13 -97q-5 -33 -58 -26zM28 1794l-64 -2196l6 -5l442 3q-176 -22 234 -12l3 270l92 1928q-19 2 -601 -10q-108 25 -112 22z" />
    <glyph glyph-name="period" unicode="." horiz-adv-x="348" 
d="M32 252h187l12 -12v-192q0 -17 -22 -17l-17 5l-27 -5l-17 5l-39 -5l-39 5l-33 -5q-22 8 -22 17v187zM-4 1768l-32 -2029l3 -4l218 2q-87 -20 116 -11l1 249l46 1782q-9 1 -297 -10q-53 24 -55 21z" />
    <glyph glyph-name="slash" unicode="/" horiz-adv-x="739" 
d="M324 1385l147 -46l-358 -1463l-147 46zM11 1768l-47 -2170l4 -5l323 3q-128 -22 172 -12l2 267l67 1905q-14 2 -439 -10q-79 25 -82 22z" />
    <glyph glyph-name="zero" unicode="0" horiz-adv-x="914" 
d="M394 1282h25q329 0 414 -436v-173q-35 -168 -94 -255q-89 -131 -257 -181h-12v9l-54 -9h-41q-72 0 -189 75q-190 164 -190 455q0 313 234 474q70 41 164 41zM220 782v-22q22 -165 66 -211l86 -72h82q152 55 152 301q0 215 -168 265l-50 9q-96 -37 -130 -114
q-16 -28 -38 -156zM-8 1727l-60 -2132l8 -5l572 3q-228 -22 304 -12l3 268l119 1909q-24 2 -778 -10q-192 -3 -168 -21z" />
    <glyph glyph-name="one" unicode="1" horiz-adv-x="842" 
d="M610 1272q96 0 96 -108v-311l-10 -204l10 -11v-10l-10 -43l10 -12v-10l-10 -10l10 -108v-96l-10 -43l10 -44v-129l-10 -10l10 -11v-54q-24 -53 -108 -53h-214l-43 22v815q0 56 -32 65q-39 -32 -75 -32h-86q-34 5 -54 140l-10 -12h-22v183h22v-22h10l312 86zM46 1779
l-75 -2181l7 -5l516 3q-205 -22 275 -12l2 268l108 1915q-22 2 -703 -10q-126 25 -130 22z" />
    <glyph glyph-name="two" unicode="2" horiz-adv-x="738" 
d="M337 1204q258 -61 258 -262v-70q0 -184 -368 -413q-86 -95 -90 -181h438l20 -20v-91l-20 -20h-547l-20 20v151q0 191 309 363q149 123 149 231q0 128 -169 161q-104 0 -150 -141h-10q-91 18 -119 40q78 232 259 232h60zM0 1754l-69 -2152l6 -5l474 3q-188 -22 252 -12
l2 265l99 1889q-20 2 -644 -10q-116 25 -120 22z" />
    <glyph glyph-name="three" unicode="3" horiz-adv-x="818" 
d="M371 1280q209 0 303 -267v-85q0 -116 -121 -218v-12q65 0 170 -170l12 -121v-24q-55 -376 -376 -376h-36q-259 0 -364 279v12l145 48q79 -181 243 -181q230 41 230 254q-63 218 -315 218v146h24q219 12 219 145v49q0 116 -158 145q-95 0 -194 -121q-133 18 -133 49
q88 230 291 230h60zM-4 1754l-75 -2156l7 -5l519 3q-207 -22 275 -12l3 265l108 1893q-22 2 -706 -10q-126 25 -131 22z" />
    <glyph glyph-name="four" unicode="4" horiz-adv-x="1106" 
d="M644 1280l101 -11h173q21 -4 41 -54l-11 -96v-21h11l-11 -54v-441q6 -63 31 -63h20l51 10q40 -58 40 -96v-161q0 -40 -131 -54l-11 -11v-33l11 -42l-11 -33l11 -53q-14 -54 -72 -54h-254q-31 11 -31 65v75l11 65l-11 31h-527q-60 22 -71 268l538 677q20 0 20 44
q37 31 82 31v11zM410 550l11 -10h9l82 10l81 -10l9 10v258h-9l-183 -247v-11zM1121 -457l-12 2229l-10 5l-719 11q284 17 -384 20l11 -274l-49 -1956q31 -3 979 -9q178 -30 184 -26z" />
    <glyph glyph-name="five" unicode="5" horiz-adv-x="1412" 
d="M469 1270h566q43 -5 43 -39v-18l-4 -52l4 -53v-12q0 -16 -16 -35l-153 -4h-231q-61 0 -61 -67l-22 -112v-5h13q0 22 87 22h166q25 0 69 -53q46 0 136 -108q19 -48 57 -105l8 -87v-49q0 -163 -39 -195l-40 -83q-18 0 -43 -57q-23 0 -61 -56l-34 -5v5q-36 0 -67 -53l-21 -4
h-253q-22 0 -61 48q-71 0 -91 43q-106 78 -106 140l-38 79v39l22 22h217q22 0 49 -75q81 -87 117 -87h17q86 0 123 65q25 0 39 75v170q0 35 -91 109q-23 13 -57 13h-31q-65 0 -105 -53q-8 0 -61 -57h-12l-22 5l-31 -5q-118 0 -118 41q-11 11 -13 43v22l9 47v48q15 76 47 171
q0 113 45 247l-5 6q7 69 53 69zM1280 1201h10q7 0 10 -75l-3 -69v-61q0 -90 19 -205v-53l-2 -4q4 -25 4 -109q0 -35 -4 -35l2 -4l-2 -44l4 -22q-21 -112 -21 -214v-38l3 -88l-6 -44l3 -4v-12l-7 -14h-11q-33 68 -50 131q-16 0 -27 179l-17 118v178l4 49v65q14 77 26 209
q3 19 25 65q0 22 40 101zM33 1118q29 0 57 -87q19 0 56 -245q0 -41 13 -92l-4 -52l4 -13l-13 -69v-26q0 -49 -44 -223q-26 -21 -39 -83q0 -27 -30 -27h-4l-22 22l4 240v367l-4 257q7 20 26 31zM-42 189q49 -13 49 -65l4 -40l-4 -31l4 -57v-43h-45v-74l-8 -9l-4 4v306l4 5v4z
M1498 97l4 -4v-4l-4 -5h-36v9h14zM71 1739l-126 -2196l12 -5l872 3q-347 -22 463 -12l5 270l183 1928q-38 2 -1188 -10q-213 25 -221 22z" />
    <glyph glyph-name="six" unicode="6" horiz-adv-x="713" 
d="M83 1205l95 19l23 -15q-35 -332 -17 -424l70 44l67 13q173 35 301 -180l22 -65l4 -20q39 -203 -162 -333l-55 -21l-66 -13q-288 12 -330 225l-7 38q14 724 55 732zM153 488q29 -150 225 -145q158 32 141 239q-78 144 -182 123l-39 3q-173 -75 -145 -220zM28 1794
l-64 -2196l6 -5l442 3q-176 -22 234 -12l3 270l92 1928q-19 2 -601 -10q-108 25 -112 22z" />
    <glyph glyph-name="seven" unicode="7" horiz-adv-x="778" 
d="M-19 1265h751v-163q-321 -496 -388 -1212h-266q0 462 412 1153h-509v222zM-48 1745l-3 -2152l7 -4l514 20q-203 -29 274 -3l-6 264l44 1891q-22 1 -699 -34q-127 21 -131 18z" />
    <glyph glyph-name="eight" unicode="8" horiz-adv-x="836" 
d="M619 527q0 11 67 -59q35 -36 57 -102q28 -71 28 -132v-10q0 -105 -68 -234q-69 -76 -86 -76q-25 -26 -77 -44q0 -5 -134 -32q-72 0 -186 32q0 8 -47 25q-84 65 -98 102q-52 77 -52 202q0 91 32 156q17 58 94 131l47 33zM262 252v-61q13 -80 31 -80q16 -28 75 -45l31 -1
h11q46 0 82 27q43 36 43 87l4 12v37q-18 95 -36 95q0 24 -68 48l-32 1q-62 0 -106 -40q-23 -29 -35 -80zM410 1141h41q138 -20 138 -36q30 0 93 -65q32 -33 51 -94q27 -63 27 -120v-10q0 -96 -62 -214q-65 -72 -81 -74l-421 -9l3 2q-66 53 -79 87q-48 70 -48 184
q0 84 31 145q15 53 84 119q56 44 112 62zM307 808v-51q12 -67 26 -67q13 -24 62 -38l28 -2h8q39 0 69 23q36 32 36 74l3 10v31q-14 80 -30 80q0 20 -57 40l-26 1q-53 0 -89 -33q-20 -25 -30 -68zM-16 1626l51 -2207l7 -4l526 33q-208 -34 280 4l-12 271l-2 1940
q-23 0 -716 -52q-130 19 -134 15z" />
    <glyph glyph-name="nine" unicode="9" horiz-adv-x="722" 
d="M276 1263l187 -12q208 -14 215 -227l-33 -509q-35 -210 -243 -196l-187 12q-228 45 -217 209l4 71l167 -11q-8 -124 55 -128l187 -12l65 48l9 141l-249 16q-227 50 -217 191l16 246q9 140 241 161zM200 1074l-14 -212l60 -56l187 -12l65 48l11 176l-14 89l-229 15z
M28 1794l-64 -2196l6 -5l442 3q-176 -22 234 -12l3 270l92 1928q-19 2 -601 -10q-108 25 -112 22z" />
    <glyph glyph-name="colon" unicode=":" horiz-adv-x="385" 
d="M41 939h208l22 -22v-198l-22 -21h-197l-33 32v187zM46 398h209l22 -21v-198l-22 -22h-209l-22 22v198zM-2 1753l-34 -2155l3 -5l233 3q-92 -22 124 -12l1 265l49 1892q-10 2 -317 -10q-57 25 -59 22z" />
    <glyph glyph-name="semicolon" unicode=";" horiz-adv-x="401" 
d="M52 987h251l27 -28v-254l-27 -28h-239l-39 43v239zM52 360h251l27 -21v-170l14 -42q-63 -255 -292 -255l-27 21v64q133 90 133 137q-130 33 -133 54v191zM12 1756l-37 -2158l3 -5l252 3q-100 -22 134 -12l1 266l53 1894q-11 2 -343 -10q-61 25 -63 22z" />
    <glyph glyph-name="semicolon" unicode="&#x37e;" horiz-adv-x="401" 
d="M52 987h251l27 -28v-254l-27 -28h-239l-39 43v239zM52 360h251l27 -21v-170l14 -42q-63 -255 -292 -255l-27 21v64q133 90 133 137q-130 33 -133 54v191zM12 1756l-37 -2158l3 -5l252 3q-100 -22 134 -12l1 266l53 1894q-11 2 -343 -10q-61 25 -63 22z" />
    <glyph glyph-name="less" unicode="&#x3c;" horiz-adv-x="775" 
d="M708 846l-529 -173l395 -226l-85 -149l-498 278l59 225l637 200zM32 1794l-68 -2210l6 -4l469 2q-186 -22 250 -12l2 272l98 1940q-20 2 -638 -11q-115 27 -119 23z" />
    <glyph glyph-name="equal" unicode="=" horiz-adv-x="837" 
d="M18 737l727 -91l-13 -134l-728 90zM47 1038l729 -90l-13 -135l-729 91zM42 1794l-78 -2196l7 -5l535 3q-212 -22 285 -12l2 270l112 1928q-23 2 -728 -10q-131 25 -135 22z" />
    <glyph glyph-name="greater" unicode="&#x3e;" horiz-adv-x="771" 
d="M149 943l493 -302l52 -38l-574 -324l-102 163l313 166l-292 165zM33 1790l-69 -2192l6 -5l476 3q-189 -22 252 -12l3 270l99 1924q-20 2 -647 -10q-116 25 -120 22z" />
    <glyph glyph-name="question" unicode="?" horiz-adv-x="930" 
d="M435 1269q55 0 227 -62l106 -121q35 -78 35 -142v-11q0 -62 -8 -82l4 -5v-3q-31 -116 -83 -149q-20 -41 -105 -93q-121 -95 -161 -102q-136 -127 -136 -164q-14 -20 -24 -20v-8q0 -53 -101 -63q0 11 -58 16l-33 -4q-19 7 -19 20q9 90 24 109q21 92 66 130q36 65 43 65
q58 63 118 102l144 102q51 60 51 102v19q-7 50 -27 71q-21 31 -58 31q0 7 -28 8h-24q-68 -7 -124 -62q-31 -40 -67 -40q-23 40 -55 51q0 13 -75 94v7q45 75 157 149q67 32 211 55zM157 213h20q66 -47 66 -62l16 -32v-62q-35 -122 -125 -122q-68 0 -86 36q-32 0 -43 78v39
q0 36 71 106q44 19 81 19zM45 1794l-81 -2196l7 -5l560 3q-222 -22 297 -12l3 270l117 1928q-24 2 -761 -10q-137 25 -142 22z" />
    <glyph glyph-name="at" unicode="@" horiz-adv-x="1126" 
d="M492 1171h21q520 -61 520 -438q-70 -416 -375 -416h-21q-41 0 -41 84q-125 -84 -187 -84q-209 28 -209 209v41q29 396 292 396h21q79 0 187 -105v64h124l-104 -459h64q69 0 145 250q0 297 -375 354h-41q-396 -69 -396 -375v-125q0 -298 437 -354q166 0 313 126h104
q-152 -230 -396 -230h-42q-400 0 -541 396v187q0 383 500 479zM346 609v-83l63 -63h20q167 0 208 229q0 125 -124 125h-21q-146 -75 -146 -208zM64 1754l-100 -2156l9 -5l688 3q-274 -22 365 -12l4 265l143 1893q-29 2 -935 -10q-168 25 -174 22z" />
    <glyph glyph-name="A" unicode="A" horiz-adv-x="896" 
d="M714 1261q27 -3 22 -54l26 -296l43 -449q-2 -24 39 -461l-2 -6q-4 -12 -21 -11l-244 24q-24 2 -18 56q-5 98 -10 127l2 1v4q-3 58 -12 58l-204 20q-15 1 -33 -88l-36 -142l-19 -5l-244 24q-16 1 -17 11l1 8l327 1180l4 22l11 10l2 4zM499 979q-64 -266 -118 -461l10 -17
l21 2l113 -11l11 12q-7 32 -23 312l-8 163h-6zM47 1873l-83 -2274l8 -5l572 3q-228 -23 304 -13l3 280l119 1996q-24 2 -778 -10q-140 26 -145 23z" />
    <glyph glyph-name="B" unicode="B" horiz-adv-x="1019" 
d="M135 1280l58 -5l160 -6h86v-2l3 2h7v-3l52 2l7 -1l148 -29q56 -2 94 -58q19 -1 65 -113l18 -167v-7q-28 -148 -61 -147q0 -26 -115 -41q-49 -23 -49 -29v-6q-1 -18 123 -36q97 -63 95 -138l8 -77l-6 -151l-3 -14l3 -4q-7 -197 -122 -237l-184 -18l-166 10l-173 2l-51 5
l-49 -2q-18 18 -19 53l5 44l-2 11l4 34l14 404l-3 18l5 21l23 652q1 23 25 33zM425 1076q-17 1 -23 -175l-2 -24l-3 -14l6 -38l-6 -48q12 -11 24 -11l55 -2q45 -1 65 84v6l-1 49l6 59q2 68 -45 95zM1030 779h3q30 -1 50 -33q16 -1 21 -14v-15l-7 -6h-8q-10 0 -15 39l-4 3
l-34 -2h-7l-8 7l2 14zM1161 775q42 -5 40 -16q-4 -14 -10 -13h-11l-10 7l-3 -3q-24 9 -24 15zM1268 771q37 -5 37 -15v-4l-11 -10l-72 3q-7 0 -10 18q15 6 56 8zM1138 736v-16q-7 -5 -8 -38l-16 -41h-7l3 62q16 31 28 33zM1248 682l24 -2q30 -1 47 -12l-1 -20h-6v-3l3 -4
l-4 -3v-4l10 -42l-15 1l-19 28l15 20l-4 11l-4 -4l-16 9l-35 -3v4l-3 13l1 3zM1019 683h7v-18h-7v18zM1219 658l10 -7q-5 -30 -12 -37v-25l-14 1q-5 0 -12 56q7 -1 7 9l3 4zM883 642l20 -21l-1 -11l-7 -6h-9q-10 0 -17 29zM1100 614l4 -4l-3 -40q-14 -15 -14 -42l-11 7
l-1 60zM1024 599h2l7 -7q-8 0 -10 -13h-7l1 13zM1210 583h6v-25l-7 1zM946 585h8l3 -14q-6 -15 -11 -13q-10 3 -10 20zM389 549l3 -21l-5 -44q0 -42 5 -42l-8 -58l1 -53l-5 -31l3 -38l-5 -41q5 -21 22 -21q102 6 102 27q18 21 20 86l-2 13l8 31l-1 84l1 44q4 91 -62 93
l-45 1q-31 1 -32 -30zM1180 542h4l3 -14l-3 -4l-8 1l-7 8zM1020 510h7l24 -5q-4 -20 -10 -20l-15 3l-10 -2l-3 4v13zM1110 506l41 -1l8 -7q-9 -15 -16 -17h-20q-18 2 -20 12v6zM1047 437l24 -1l7 -7l-20 -576l-8 -7l-25 1l-6 7l21 576zM934 436h8l6 -14v-21l-11 -9l-7 7
l1 13zM930 305q10 -13 9 -31v-14l-7 -6h-4l-9 18v23zM936 167l7 -7l-1 -24l-11 -10l-6 20v11zM-38 194h7l8 -52l-5 -24h-5l-10 38v4zM921 64h4l7 -7v-4h-4l-7 8v3zM930 8h7v-3q-1 -35 -16 -35v-6q-1 -26 -10 -27h-4v16q1 25 21 24l-2 4v3zM783 -35l11 -1l9 -11v-13l-10 -9
h-4q-35 4 -35 14v4q10 16 29 16zM657 -79l18 -5v-2l-29 -10l-4 4h-2l-14 -4l-13 11l3 4h4l2 -4zM1004 -337l7 1996q60 159 28 63l-332 -2q-92 -9 -642 0l-34 -227l-27 -1862q28 -3 852 31q133 5 148 1z" />
    <glyph glyph-name="C" unicode="C" horiz-adv-x="996" 
d="M450 1272h56q175 0 270 -108q73 -83 106 -172q33 -72 33 -115v-8q0 -93 -67 -93h-162q-52 0 -90 131l-101 55q-146 -48 -146 -178q-28 -58 -28 -132v-39q42 -271 112 -271l51 -15q134 20 134 139q28 47 73 47h191q39 0 39 -63q0 -56 -73 -239q-124 -160 -213 -178
q-24 -31 -50 -31h-196q-150 60 -207 139q-90 93 -90 163q-79 122 -79 240q-10 0 -11 78v14q0 67 55 264q31 42 57 139q120 185 218 201q0 22 118 32zM1000 -335l7 2079q60 166 28 66l-337 -3q-93 -10 -650 1l-35 -238l-27 -1938q28 -4 863 31q135 6 151 2z" />
    <glyph glyph-name="D" unicode="D" horiz-adv-x="1081" 
d="M28 1272h402q138 0 273 -105q66 -87 69 -129v-794q0 -84 -127 -181q-115 -60 -215 -60h-344l-34 -5l-47 17l7 60v1125l-7 60zM261 1055v-826q0 -31 46 -31h35q130 0 170 54l11 31v715q0 88 -221 88q-35 0 -41 -31zM1074 -335l8 2093q67 168 31 67l-377 -4q-104 -9 -728 1
l-38 -239l-31 -1951q31 -4 967 31q151 6 168 2z" />
    <glyph glyph-name="E" unicode="E" horiz-adv-x="1027" 
d="M73 1280l61 -6h729l60 6l19 -25v-195l-6 -25l6 -19l-43 -17l-135 11l-232 -6l-6 6v6l-7 -6l-30 6l-55 -12h-24l-19 12l-25 -23v-31l19 -19q-6 -46 -19 -61v-42l25 -13l13 13l6 -6l30 6l54 -13l44 13l67 -6l141 6l43 -6l74 6h12q36 -16 36 -62l6 -7l-12 -17v-37l6 -25
l-6 -18l6 -49l-12 -18l12 -31l-19 -12h-513l-13 -13v-30l13 -18v-13l-13 -18v-30l7 -69l-7 -36l7 -6h599l12 -12v-214l13 -19q-42 -7 -42 -18l-74 12h-821l-6 6h-6l6 31v1138zM-32 147q12 0 19 -55h6l7 7q12 -61 29 -61l38 -25l146 6h122l13 -12l-6 -7h-165l-85 -6l-25 6
l-19 -6l-12 13h-30v-19h-13l-12 12l6 7q-31 0 -31 134l6 6h6zM789 25q49 -6 49 -18l-13 -13h-36l-18 19zM863 13h24v-13h-24v13zM191 -28h132v-2h-136v-2l8 -1h258l11 -2l3 1h118l8 -2v-4h7v-1l4 1h50q6 0 10 -4h126q8 0 8 -3h3h57q7 0 7 -4h130q6 0 11 -5h129v-1h-1077
l-7 1v24l7 1q8 0 8 -2l22 -1l12 1l26 -1l23 1v1l-30 1v2l45 -1zM892 -61h19v-12h-19v12zM1017 -336l8 2051q61 164 28 65l-347 -3q-96 -9 -670 1l-36 -234l-28 -1912q29 -4 890 31q139 6 155 1z" />
    <glyph glyph-name="F" unicode="F" horiz-adv-x="671" 
d="M429 1287l193 23l34 -28l5 -38q-21 -23 -15 -72q-15 -2 -6 -71l-29 -28l-17 15l-70 -8q-112 -47 -98 -162l-20 -26l9 -7l146 18l35 -27l1 -8q2 -15 -22 -18l9 -78q-14 -17 -8 -64l-27 -26l-148 -18l5 -39l-20 -33l10 -78l-12 -25l10 -85l-14 -87l-13 -18l12 -100l-12 -88
l-8 -9l10 -84l-49 -54l-201 -24l-17 13l-14 117l13 87l8 10l-12 100l29 81l-13 108l12 26l-10 77l20 34l-2 24q-2 15 -96 11l-18 22l-2 15q14 12 4 94q17 2 10 56l27 27l86 11q15 2 5 87l45 146q94 152 153 159q-2 17 75 33zM670 -336l5 2055q41 165 19 66l-231 -4
q-63 -9 -446 2l-23 -235l-19 -1916q19 -4 592 31q93 6 103 1z" />
    <glyph glyph-name="G" unicode="G" horiz-adv-x="1485" 
d="M1503 982q9 0 9 -39h6v33h9v-4l4 -62q-13 0 -13 -18l-6 -6h-5l-13 15v71zM1518 853h9q9 0 15 -29l-15 -9h-9l-20 19q0 10 20 10v9zM2177 848h33l9 -9l-9 -9h-61v4q4 14 28 14zM991 801h28v-10h-28v10zM2016 801h27v-10h-27v10zM1152 753v-4l-9 -9h-33l-11 9l5 4h48z
M1792 696h39l9 -9l-9 -9h-39l-9 9zM1313 658h5l10 -9h-15v9zM1717 601l4 -4v-5l-9 -9h-5v9zM1318 1343h10v-47q14 0 14 -9v-11l-20 -9l-14 38v15zM1754 1300h9v-13h-9v13zM1271 1234h9l9 -9l-5 -6h-4l-9 11v4zM1858 1234l10 -9l-4 -6h-6l-9 11l6 4h3zM1275 1206l9 -11v-3h-9
l-9 9l5 5h4zM1247 1259q0 -9 15 -9l4 -5v-9l-13 -15h-20q-11 0 -13 24zM1038 1120h10l13 -14l-9 -10l-14 10l-10 -10l-9 10zM2067 588h5l10 -9l-4 -4h-11v13zM2087 460h9v-33l9 -15l-9 -9h-9v57zM2091 389q24 0 24 -33h5l-5 -4v-39h-10v29h-9v23l-9 14l4 6v4zM2134 299h10
v-42h-10v42zM2129 233h29l-5 -24h-9v9q-15 0 -15 10v5zM782 1469h7q291 -29 291 -68q120 -45 232 -164q0 -18 17 -18l30 -48l-134 -121q-11 -27 -66 -73q-21 0 -114 96q-151 92 -232 92h-103q-119 -16 -213 -110q-80 -124 -80 -176l-17 -127v-177q24 -180 78 -230
q0 -39 129 -104l91 -25h108q208 32 208 110l5 19v72l7 24q0 46 -73 56l-110 -7l-37 7l-5 -7h-7q-103 7 -103 37v195q0 8 42 30h602l38 -37v-492q0 -83 -269 -237q-81 -54 -230 -72l-85 -14h-74q-222 25 -298 74q0 12 -47 17q-183 147 -232 244q-15 0 -91 213q0 61 -12 96
v274q24 171 61 225q20 71 49 103q117 184 279 248q90 49 176 61h37zM1676 608h6q40 0 71 -42q21 0 28 -19v-20l-10 -9h-9q-14 0 -24 52l-4 5l-47 -5h-11l-9 10v19zM1667 476h9v-24h-9v24zM1482 414l29 -29v-14l-10 -10h-14q-13 0 -23 38zM1676 361h6l9 -9q-12 0 -15 -19h-9
v19zM1572 337h10l4 -18q-6 -19 -14 -19q-13 4 -13 28zM1676 238h11l33 -5q-5 -28 -15 -28l-18 4l-15 -4l-5 4v20zM1996 826h9l11 -20v-28l-15 -14l-9 9v20zM1996 645q14 -17 14 -42v-19l-9 -11h-5l-15 24v35zM2010 456l10 -11v-33l-15 -14l-9 29v14zM1996 313h5l9 -9v-5h-5
l-9 9v5zM2010 237h10v-4q0 -48 -19 -48v-9q0 -36 -14 -38h-6v23q0 33 29 33l-5 6v4zM-997 1096q10 0 10 -38h5v33h9v-4l4 -62q-13 0 -13 -18l-5 -6h-6l-13 15v71zM-982 968h9q9 0 15 -29l-15 -9h-9l-20 19q0 10 20 10v9zM-323 963h33l9 -9l-9 -9h-61v4q4 14 28 14z
M-1509 916h28v-10h-28v10zM-484 916h28v-10h-28v10zM-1348 868v-4l-9 -9h-33l-11 9l6 4h47zM-707 811h38l9 -9l-9 -9h-38l-10 9zM-1187 773h6l9 -9h-15v9zM-783 716l4 -4v-5l-9 -9h-5v9zM-1181 1458h9v-47q14 0 14 -9v-11l-20 -9l-14 38v15zM-746 1415h10v-13h-10v13z
M-1229 1349h9l9 -10l-5 -5h-4l-9 11v4zM-641 1349l9 -10l-4 -5h-5l-10 11l6 4h4zM-1225 1321l9 -11v-4h-9l-9 10l5 5h4zM-394 1244q0 -9 14 -9l4 -5v-9l-13 -15h-20q-11 0 -13 24zM-1461 1235h9l13 -14l-9 -10l-13 10l-11 -10l-9 10zM-433 703h6l9 -9l-4 -4h-11v13z
M-413 575h9v-33l10 -15l-10 -9h-9v57zM-409 504q24 0 24 -34h5l-5 -3v-39h-9v29h-10v23l-9 14l4 6v4zM-365 414h9v-43h-9v43zM-371 348h29l-5 -24h-9v9q-15 0 -15 9v6zM-824 723h6q41 0 71 -43q21 0 28 -18v-20l-10 -9h-9q-14 0 -24 51l-4 6l-47 -6h-11l-9 11v18zM-833 591
h9v-24h-9v24zM-1018 529l29 -29v-14l-10 -10h-13q-14 0 -24 38zM-824 476h6l9 -9q-12 0 -15 -19h-9v19zM-928 452h11l4 -18q-7 -19 -15 -19q-13 4 -13 28zM-824 353h11l33 -5q-5 -28 -15 -28l-18 4l-15 -4l-5 4v20zM-504 941h9l11 -20v-28l-15 -14l-9 9v20zM-504 760
q14 -17 14 -43v-18l-9 -11h-5l-15 24v34zM-490 571l10 -11v-33l-15 -14l-9 29v14zM-504 428h5l9 -9v-5h-5l-9 9v5zM-490 352h10v-4q0 -48 -19 -48v-9q0 -36 -14 -38h-6v23q0 33 29 33l-5 6v4zM1400 -415l130 2168q97 169 45 67l-492 24q-138 -3 -951 53l-64 -244l-151 -2022
q40 -6 1264 -37q197 -4 219 -9z" />
    <glyph glyph-name="H" unicode="H" horiz-adv-x="1034" 
d="M791 40q-15 6 -19 36q2 13 -98 29l-11 15l37 297l8 46q-9 11 -22 14l1 2l-52 5l-227 33l-49 9q-22 -1 -24 -16l-40 -319l1 -12q-5 -21 -26 -18l-153 22q-15 1 -22 17l11 54l100 801l3 52q1 16 24 12l164 -22q5 -1 12 -19l-8 -40l-41 -325q0 -7 25 -17h21l302 -43
q12 -1 26 7l2 46l41 322q9 12 27 10l153 -21q23 -4 21 -25l-7 -30l4 -3l-7 -18l-91 -728l49 -8q-3 -20 -31 -52q-18 -79 -36 -76q-10 -6 -29 -40l-3 -3zM29 739l84 415q36 -7 22 -77q11 -2 -4 -137q-12 -65 -62 -169q-6 -30 -40 -32zM1028 -363l8 2077q61 165 29 66l-346 -3
q-96 -10 -668 1l-36 -237l-28 -1937q29 -3 887 32q138 6 154 1z" />
    <glyph glyph-name="I" unicode="I" horiz-adv-x="568" 
d="M215 1278h5l19 -11l19 -2l10 2l11 -5l9 3l11 -6l10 3v-4l15 5l38 -12h21q12 -8 30 -11l43 2q29 -17 31 -31l-5 -33l-2 -71l-7 -33l-1 -54l-11 -64l-18 -227l-4 -20l-6 -74l-19 -176l2 -37l-4 -33l-2 -47l-9 -58l-13 -134v-16h-2l1 -9q-13 -131 -44 -126l-23 -1l-52 8
l-37 -1l-101 20l-22 -4q-18 7 -33 36l2 25l-1 29l2 -1l-2 3v5l3 4l-2 3v2l5 13l2 52l46 460l-1 30l16 159l-1 28l18 164q9 87 3 99l8 29l-2 31l4 12l-2 4v3l3 9v20q20 41 39 38zM30 1003l-3 -764l1 -20l1 -276q1 -67 1 -85v-24q-1 -23 -2 -23l-1 5h-1v32h-1v7l1 209v6l3 935
v4zM207 861l21 -1v-6l-21 1v6zM568 -380l4 2087q34 168 16 67l-189 -3q-52 -10 -363 1l-20 -238l-15 -1948q16 -3 483 32q75 6 84 2z" />
    <glyph glyph-name="J" unicode="J" horiz-adv-x="789" 
d="M354 1269h268l6 -6h5l4 6q0 -9 14 -9l4 -16h-4l4 -6l-4 -92l4 -398l-4 -397l8 -21q-8 -19 -8 -56v-31q-14 0 -14 -21h-9v-25q-3 -57 -41 -83v-26h-9v11h-5q2 -24 -50 -68l-13 -5l-5 5q0 -9 -22 -9l5 -6l-24 -25v-6l-52 -16l-27 -17q-25 3 -170 -22l-153 1l3 11q0 4 -4 40
h9v21h-9v10l1 175l3 -2l3 -4q6 18 6 4l5 5h4v-11h31l6 6l5 -6h-33l18 6l18 -6l37 11l9 -11h22q61 -4 105 63l27 38l13 55v695q-16 5 -4 5l-15 5h-6l58 -5h-20l-7 21v191q7 0 7 21zM782 -379l6 2120q46 169 21 67l-260 -3q-73 -10 -504 1l-27 -242l-21 -1977q22 -4 669 31
q104 7 116 3z" />
    <glyph glyph-name="K" unicode="K" horiz-adv-x="1119" 
d="M157 1298l-1 -4l-3 -5v-4h7v9l20 -5l4 5v-9h20l11 9v-9h5l11 3v-9h8v9h5l4 -5h3l4 5v-9h8q0 13 8 13h4v-9q12 0 31 -26l4 -1v-4l-4 -5v-4l8 -9l-8 -9l4 -4v-4l-4 -5l3 -22v-34l4 -5v-4l-4 -4h4l-4 -5v-4l4 -5l-9 -27l3 -13l-7 -9l7 -9l-3 -4l-1 -4l4 -18l-4 -4h4l-4 -5
v-34l7 -15l-7 -9h3l-3 -4l3 -44l-4 -35l2 -26l-4 -27h9l-5 -5v-4l25 -17v-5q12 19 31 22q4 17 19 17v5h-7v4q16 0 16 9l-4 4l4 5h4l4 -5v9l7 9h5v-9h4q0 22 20 39l4 -4v4l-4 5l4 4l-4 4l32 9v13h-8v4h24l-4 5v9l17 8h2l-2 5v4h15v4h-8v5l8 8l16 13l4 -4h4v9l-4 4v5
q20 2 20 13h-3q0 13 16 13v8l4 -4h3l1 4l-4 13l4 -4h11l-4 4v9h13l-4 5v4h8v9q16 0 16 8q39 47 39 57h9l-5 -4v-5l12 5l1 8l-4 5v4q16 0 16 18q15 0 15 8l9 9q0 13 12 13h3v4l-3 5v4h3l4 -4h5v9l4 -5l4 -1v6l-4 4v4l24 3v-9h7q0 13 24 13v5l35 -18l9 9v-4l11 8l20 -10l8 9
l23 -9v9h9l-5 -4v-5h5l8 9l11 -9l5 5h4l3 -5l4 5v-9h4v9h7v-9l20 3v-9h4q0 13 13 13l3 -4l4 4q0 -13 9 -13v9h4l-2 -9h5l12 5l-8 -14h8q0 14 8 14l8 -14l-8 -8l-5 4q0 -9 -11 -9l4 -4v-4q-14 -27 -37 -27l5 -4v-4l-64 -61q-1 -18 -37 -44q-48 -46 -48 -57l-4 5h-3
q-34 -44 -45 -44v-8l-7 -9h-5l-4 4h-4v-4h4q0 -9 -76 -79q0 -10 -24 -30v-5l-3 5h-4v-5l4 -4l-61 -70l-4 -21l11 -27l-4 -13h13v-4l-5 -4v-5q13 -10 23 -45l-4 -4h4l4 4l12 -35l4 5h4l7 -28l-4 -4h4l4 4h3q7 -25 31 -48l16 -28h8l-4 -4v-4h9l14 -31q0 -10 15 -23v-9l5 5h8
l-4 -5v-4q0 -13 11 -13l-4 -5v-4q17 -13 69 -106q20 -22 31 -54q13 0 13 -8v-5l-4 -4v-5q11 0 11 -14h12v-4l-5 -5v-4q10 0 20 -31l16 -17l-9 -9l20 -10l-4 -4v-9l4 4h8l-4 -4v-4l7 -9l-3 -4q20 0 19 -22l4 -5h-7v-4l16 -1l-5 -5v-4h7l-2 -5v-4l2 -4v-5l5 5h8q-1 -35 23 -35
l-4 -4v-5l4 -13h-4l-12 -4l-13 4l5 -4v-5l-5 -4h-4l-3 4v5l-19 -9l-16 4l-13 -4v13h-11v-9h-4v19l-29 -17l-7 9l-8 -9l-3 4l-4 -4h-4l-32 9l-8 -9l-4 13l-20 -7l-16 8l-11 -8l-13 4l-3 -4q-43 0 -43 40l-12 5l5 4v9h-16l4 4v4h-4l-4 -4v26l-7 9l-5 -4h-8l4 4v4l-7 2v9l3 -5
h4v5l-4 4h-3l-13 13l2 9l3 4v4l-16 9l4 4v5q-11 0 -11 9l4 4h-8l-5 -4h-4l-11 27h8q0 9 -15 9v4l4 5v4h-4l-4 -4l-12 21l5 5h-5l-4 -5l-16 32l5 5l-16 4l4 22l-4 4l-42 80l-12 -4q0 9 12 9l-7 8l-5 -4v4l5 5v4l-5 -4h-4l-7 8l4 5v5l-12 9l4 13l-20 9l-3 -4v4l4 13l-19 22v4
l4 5v5l-4 -4h-9l4 4v5h-7l3 4v4q0 9 -18 9q0 18 -33 31q-10 1 -87 -90q-10 0 -16 -45l3 -5l-4 -43v-22l-5 -5v-4h5l-9 -17q9 0 9 -22h2l-7 -32l3 -4h-4l4 -5v-13h-7l-1 -4h8v-5l-4 -21l4 -5h-8v-8l4 -5l-4 -4v-5l7 -26l-3 -4h3l-5 -4v-50l5 -4l-5 -5v-8l5 -5l-6 -48l-3 5h-4
v-5l4 -4l-39 -9v9l-5 -4h-4v4l-4 -4h-20l4 4v4h-4l-7 -8l-4 4l-31 -7l-24 9l-5 -5v5l-4 -5h-35v9h-4l-3 -4h-5l-12 5l-12 -4v4l-7 9l3 4l2 9h-9l4 4v5l-8 17l4 5v4l-3 4l7 31l-11 1l8 9l-4 4v9h12v4h-12l4 5l-4 4v9l4 -4h5v17h-9v4l9 13h-9l2 22q15 0 15 13q-10 0 -11 18
l-9 1v5l13 -2l-4 6v13l4 4l-4 5v13l4 4l-4 5v4l4 4l-4 5v4l4 4v5h-7v4h7l-3 4v5l7 13v9l-2 -5h-5v9l9 26l-9 10v5l13 17q0 9 -13 9v4h13v9h-11l7 13h-7v13l4 -4h3v4l-3 4h3q1 13 -12 13q0 9 16 9v4q-11 0 -11 9v5l4 -5h4l4 5v8h-8v10l8 -1v4l-8 2l4 4v9l-4 4l4 5v13l-3 4
l3 4v5l-3 17l5 5h2l-7 34v22l5 5l-3 14l3 22l-3 4h7v9h-7l8 13l-8 9h8l-4 4v13q0 9 11 9q2 9 -11 9v4l9 13l-9 9l1 14l8 -1l-5 6v4l9 13l-4 5l4 4h-7v4l3 5l-3 4v17h4v-8h3v8l-3 5h-4l4 4v9h-9v9h5l11 -5q-1 18 -11 18v4q12 0 12 13q-12 0 -12 9l8 9l-4 5l4 5h-7q2 17 11 17
v9q-11 0 -11 9h11v4h-7v17h5v-8h2l2 8h-4l11 22h-3q-8 0 -8 -17h-9v8l4 5l-4 4v9l4 -4h5l4 4v4l-4 5h-5l5 4v13l-5 4l2 5h7v8l-16 2v4h9q0 9 11 9l-7 9l-4 -5l-4 5l4 4v9l-4 4v5l12 4v4h-15v5h7l-4 4l1 17l3 -4h4l-4 4v9h8l-8 9l-3 -5v9h7v9h-7l4 4v5l-4 4h8v28q12 -2 12 8
v5h-4l-12 -5q3 13 16 18l4 -5v5l-4 4h4l20 -14h4v4h-8v10l19 -1v-9zM1105 -383l8 1926q66 153 31 61l-370 -3q-103 -9 -715 1l-38 -220l-30 -1796q31 -3 949 30q148 5 165 1z" />
    <glyph glyph-name="L" unicode="L" horiz-adv-x="888" 
d="M211 1495l283 -16l17 -20l-59 -989l-7 -39l3 -19l-3 1l4 -8l-1 -12l-7 -32l12 -13l77 2l194 -11q102 -7 100 -25l-15 -250l-19 -17l-643 37q-34 1 -38 21l81 1353q7 39 21 37zM875 -359l6 1999q54 159 25 63l-300 -3q-83 -9 -579 1l-31 -227l-24 -1865q25 -4 769 30
q120 5 134 2z" />
    <glyph glyph-name="M" unicode="M" horiz-adv-x="1340" 
d="M189 1319l318 -21l5 -5h5l-5 -7l-1 -5q9 -33 30 -34l-3 -49q30 -29 26 -89q9 0 24 -41h5l-6 -26l-2 -5q26 -30 37 -107l20 -23l-4 -49q21 -13 18 -55q10 -2 9 -33q25 -10 1 -72l-6 -21l6 5h-5l20 -18l-6 -5l5 -5l-3 -44l-1 57l-1 -7l6 -10l1 17l27 -13l-28 -11l14 43l5 5
h6l-5 5v6q36 36 38 79l23 25l-3 45q25 -3 49 89q17 -1 32 68q35 41 39 96q21 -2 24 48l29 30l-5 6l2 28l41 51l282 -19l10 -12l-14 -205l5 -84l-5 -5l-1 -5l5 -6l-15 -74l-2 -6l10 -17l-8 -54v-77l-8 -119q-10 -134 -25 -211l5 -77l-1 -27l-13 -15v-5l10 -18l-1 -11l-34 -31
l-5 2l-52 13l-31 3l-22 -4l-5 5h-5l-46 -1h-5q-32 8 -32 18l40 581l-2 56q0 24 -9 -23q-16 1 -45 -111l-15 -42l3 -28l-37 -14l-4 -49q-28 -28 -66 -175q-14 1 -44 -96l-22 -20l-2 -16l4 -28q-10 1 -24 -30l-58 -2l-46 8l-43 4q-25 29 -22 77l-21 7l8 38q1 15 -23 55l-9 34
l6 15l-35 31l13 31q-13 67 -38 68l7 28l2 21q-31 33 -27 95q-11 3 -29 45l8 26l-11 79q0 15 -21 35l-39 -626l10 -18l-1 -11q0 -11 -38 -19l-1 -5l-159 21l-32 -8h-5l-21 24l66 965l-4 34l8 27v10zM97 677l11 -2l-2 -31h-12zM84 483h10l-7 -130l-12 1zM-820 72q9 0 16 -48h5
l5 5q11 -53 27 -53l32 -22l127 6h107l11 -11l-6 -5h-143l-75 -5l-21 5l-16 -5l-11 10h-26v-16h-11l-11 11l6 5q-27 0 -27 117l5 6h6zM67 305l5 -5l-2 -16h-5l-10 11zM-13 211l4 -4l-1 -13l-10 -8l-21 1q-9 9 -29 11v8zM1135 169q36 -10 35 -19q-30 -14 -49 -12h-5l-58 15
l1 5zM-107 -35q2 -5 2 -16l-10 -10h8l-16 15zM181 227l15 -11l136 1l32 -1l10 -12l-5 -5l-1 -6l-5 6l-27 2l-11 -10l-119 13h-11q-10 2 -13 -25l-5 -5h-11q-10 1 -9 28q-69 18 -69 26l6 5zM627 198q43 -9 42 -20l-5 -5l-38 2l-10 13zM-83 -46h21v-10h-21v10zM0 207h6
q15 -4 13 -44l-12 -10l-11 1l-10 11l3 32zM1237 97l5 -6v-5l-12 -10l-5 5v6zM407 148l5 -7l-2 -5l-5 -5l46 -2l-5 5v5l6 5zM165 158h11l-1 -17l-10 2v15zM-86 152l12 -1v-9l-13 1zM1332 -384l10 2074q80 166 37 66l-451 -3q-124 -10 -870 1l-47 -236l-36 -1935
q38 -4 1156 31q180 6 201 2z" />
    <glyph glyph-name="N" unicode="N" horiz-adv-x="1280" 
d="M126 1302l35 -6l101 -3l46 3q70 -33 67 -104q20 -5 43 -98q27 -25 32 -82q26 -10 24 -47q78 -169 90 -226q17 -1 42 -98q13 -17 28 -78l11 -1l20 25v137l17 514q1 38 27 45l76 -8l35 -1l72 3q31 -1 50 -33l-43 -1275l-21 -18l-127 4l-81 -4q-27 1 -82 166q-14 3 -26 83
q-15 0 -44 92q-13 1 -32 93q-35 38 -33 88q-19 1 -37 92q-19 1 -38 88q-8 0 -32 93l-6 5h-5q-15 -15 -16 -35l-5 1l1 -138l-20 -589l-27 -25l-61 8l-61 2l-55 -4q-61 9 -60 32l10 26l-4 26l7 212l-3 31l6 51l31 924q11 26 47 24zM1059 1271l47 -1l9 -11l-11 -320h-4
q-47 2 -42 159q-23 1 -30 164zM1264 -380l9 2076q77 166 36 66l-429 -3q-119 -10 -829 1l-44 -237l-35 -1936q36 -4 1100 31q172 6 192 2z" />
    <glyph glyph-name="O" unicode="O" horiz-adv-x="1530" 
d="M822 1334q131 -11 256 -68q89 -58 106 -59l125 -133q82 -122 89 -180q26 -2 51 -263l-11 -115q-12 -144 -61 -242q-2 -34 -85 -158q-107 -137 -256 -210l-125 -39l-122 -14l-62 -5l-115 11q-256 63 -253 94q-41 4 -83 48q-34 2 -164 186q-111 227 -95 408l10 45l1 69
q11 130 93 300q14 0 46 72q14 2 47 56q178 154 261 163q1 24 236 45zM321 632q-14 -191 11 -194q0 -41 54 -147q63 -82 93 -93q-3 -14 79 -43q15 -21 127 -31q115 -11 176 16q86 17 170 116q9 -2 49 68q15 -2 27 68q10 -3 30 56l-3 4l6 20l12 137q7 71 -31 197q-11 9 -24 60
q-96 132 -143 138q-36 38 -150 49l-66 10q-104 -2 -126 -21q-84 -15 -156 -93q-24 -15 -57 -76l-35 -66q-22 -3 -43 -175zM1425 -388l130 1936q99 149 46 58l-504 29q-141 -1 -973 60l-65 -217l-145 -1729q42 -6 1285 -125q202 -7 226 -12z" />
    <glyph glyph-name="P" unicode="P" horiz-adv-x="1028" 
d="M537 1263q121 -17 187 -38q19 -18 82 -40l76 -72l53 -103q43 -118 38 -204q-10 -97 -50 -160q-2 -42 -111 -155l-62 -41l-96 -39q-109 -7 -164 -22l-76 9q-37 2 -46 -73l-4 -95l4 -5l-4 -4l-3 -27q-5 -86 -10 -86l-6 -74l-304 17l5 81q-9 0 1 67l50 843q1 76 -24 77
q37 -2 35 164l387 -22zM436 964l-22 -256q-5 -75 44 -78h5q54 -3 143 36l48 48q10 0 26 114q10 112 -84 171q-69 36 -118 38q-36 2 -42 -73zM1014 -381l7 2039q61 163 29 65l-345 -3q-96 -10 -667 0l-35 -232l-28 -1901q29 -4 885 30q138 6 154 2z" />
    <glyph glyph-name="Q" unicode="Q" horiz-adv-x="1325" 
d="M579 1280h110q157 -16 273 -78q249 -193 249 -570q0 -388 -304 -571q-32 -3 -32 -23v-8q0 -102 150 -117l124 16h24q37 0 62 -39q0 -165 -86 -165l-124 -7h-24q-262 0 -328 211q0 78 -55 78h-8q-172 0 -273 54q-120 69 -211 204q-78 178 -78 320v124q0 261 204 461
q167 110 327 110zM370 665q0 -327 198 -380l66 -19q77 0 181 85q78 111 78 234v49q0 251 -163 319q-59 30 -102 30q-105 -14 -187 -103q-50 -58 -66 -210zM1312 -413l10 2097q78 167 36 67l-443 -3q-122 -10 -856 0l-45 -238l-36 -1956q37 -4 1136 31q177 6 198 2z" />
    <glyph glyph-name="R" unicode="R" horiz-adv-x="1687" 
d="M308 1373h677q163 0 363 -111q140 -142 140 -246q8 0 20 -74v-74q-28 -221 -57 -221q-39 -95 -123 -147l-110 -68l-5 -24q48 -47 121 -178q17 0 117 -167q79 -96 79 -122v-14l-17 -17h-31l-42 6l-55 -6h-68l-62 6l-56 -6h-12q-95 91 -283 394q-53 73 -67 73l-62 6h-98
q-62 0 -62 -74l8 -87v-90l-8 -87l8 -31l-8 -25l8 -25q-14 -54 -57 -54h-179l-5 6l-6 -6h-62q-31 16 -31 48v1317l-6 55q13 38 31 43zM1539 1373h101q13 0 35 -62v-885l-5 -12q-11 0 -25 128q-10 54 -20 148q-8 20 -27 147l-15 105q-11 41 -26 159q-4 0 -14 113q-9 6 -24 134
q10 25 20 25zM615 1010l8 -116v-57l-8 -25l8 -17l-8 -99q0 -30 56 -30h270q130 0 210 111l18 91q0 125 -99 173q-142 37 -196 37h-178q-81 0 -81 -68zM-13 905q15 -25 26 -141q10 -22 24 -123q8 -26 48 -258q7 -1 21 -116q7 -14 27 -135l22 -137l12 -31v-29l-12 -25h-105
q-41 0 -49 153l-4 7l-16 24v800zM1665 -380l12 2063q101 164 47 65l-568 -3q-158 -10 -1098 1l-59 -235l-46 -1924q47 -4 1458 31q227 6 254 2z" />
    <glyph glyph-name="S" unicode="S" horiz-adv-x="967" 
d="M548 1389v-4l2 4q170 0 230 -37l132 -36q7 -6 7 -45l5 -5l2 -10l-2 -29l2 -86l-2 -15l7 -40l-5 -32l5 -32q-4 -19 -24 -19l-59 37q-13 1 -41 28q-71 10 -87 23l-113 13l-37 -2h-3l-35 2q-108 -30 -108 -57q-15 0 -28 -50q0 -47 39 -75q51 -43 94 -57q40 -29 105 -55
q54 -44 90 -50q67 -36 76 -47q9 -20 78 -65q0 -7 36 -47q0 -18 46 -68q16 -47 28 -133v-47q0 -35 -21 -130l5 -3v-4q0 -12 -41 -68q-36 -78 -98 -126l-31 -25l-14 -8v4q-31 -26 -98 -51l-130 -32h-205q-34 0 -195 37q-82 30 -89 52v9l3 40l-3 11h3l-3 2l3 22l-3 55l3 20
l-7 48l4 39h-4q7 46 18 46h4q39 -33 90 -57q0 -20 76 -32q0 -18 183 -18h15l4 -5h3v5l5 -5h7l5 5l2 -5q113 16 113 37q49 32 49 86l4 16v25l3 3q-14 86 -45 86q-20 7 -62 57q-35 0 -128 68q-59 41 -72 41q-30 0 -64 43q-55 29 -57 46q-27 0 -55 48l-38 35q-6 0 -24 58
q-34 0 -43 140v46q0 46 34 145l36 63q41 55 68 55l41 44q14 0 79 29q23 0 54 17l24 4l5 -4q0 16 108 18h20zM-77 1181l19 -3v-1078q-11 0 -25 12l6 63l-2 28l2 13q-6 161 -9 650l-3 26l3 35v55l-7 51v74l4 20l-10 44q12 10 22 10zM1052 1725v-564h-2q-1 0 -3 78q-3 0 -4 207
l-1 30q2 139 5 188q0 61 5 61zM1057 1736v-1716q-3 0 -3 30v0l3 105l-1 26v6l-1 208l1 4v5l-1 5v6l2 96q-2 25 -3 202l1 97q-1 59 -1 224v154v99v3v7v39v147v51v16l-1 151q0 26 4 35zM262 828v-11l8 7l-5 4h-3zM367 805l-4 -2v-4l4 -5h5l2 5l5 -5l3 5v6h-3l-5 -2h-2z
M584 698l-2 -11l18 -13v6h7v-6l7 6v11q-14 0 -14 7h-16zM548 656v-8h7v-4h-7v-11h26l15 8v7l-29 10zM396 633v-14h17l2 14l-2 4h-5zM532 573v-11h16v11h-16zM853 457l-5 -3v-11q14 -15 14 -25h12l4 25v2zM788 437v-31h7q20 0 23 12q-10 0 -11 19l-5 2h-2zM727 421v-3h23v10
h-14zM772 366v-7h16l-8 7h-8zM802 307v-5h16v5h-16zM795 285l12 -11l4 11l-4 11zM1049 469h3v-418q-4 0 -7 23v196v26l1 40l-2 71q0 54 5 62zM788 188v-9h14v9h-14zM848 169v-6l5 -18h2v6h5v-6h2l5 13l-5 11l-2 -3l-5 3h-7zM584 108v-3l12 -11h11v22h-4zM972 -380l7 2067
q58 166 27 66l-324 -3q-89 -10 -625 1l-34 -236l-26 -1928q27 -4 831 31q129 6 144 2z" />
    <glyph glyph-name="T" unicode="T" horiz-adv-x="984" 
d="M1243 1146h6l11 -12l-23 -17l-6 5v12zM199 1134l6 -6v-6l-6 -5h-5l-6 5v6l6 6h5zM88 1236l818 -20l22 -22l-1 -13l-15 -20l-4 -180l14 -22q-1 -13 -60 -40l-29 1l-21 14h-15l-22 -13l-43 2l-21 14l-45 -26l14 -22v-27l-23 -21l7 -8l-3 -151l-9 -35q22 0 22 -14v-8
l-23 -26l-1 -21q22 -1 22 -15l-5 -200l-15 -20l14 -15l-2 -76l-22 -20l7 -7l-4 -153l-8 -6v-8l14 -14v-14l-44 -26h-15l-22 14l-20 1l-22 -13h-7l-22 14l-137 3l-23 -12h-7l-43 28l22 894l-216 6l-28 27l6 257zM1520 887h18v-18l-24 -24l-6 6v24zM1561 875v-18l-12 12l6 6h6
zM1520 828l12 -12v-118l-12 -12l-12 12v118zM1520 674q23 -8 23 -17l-23 -18l-12 12v12zM1585 669l11 -12l-11 -12h-12l-18 18l6 6h24zM1549 244h12v-18h-12v18zM1555 221l12 -12v-6l-12 -12l-12 12v6zM1520 185h12l11 -12v-6l-23 -23l-12 12v17zM1502 79h30l17 -18v-11h-23
l-24 11v18zM70 -110h6l11 -11l-17 -12h-12v12zM288 -110l35 -23l-23 -18q0 24 -42 30v6l6 5h24zM471 -110h35l18 -17l-12 -12l-12 12h-29v17zM559 -110l12 -11l-18 -18l-23 24l5 5h24zM712 -110h6l12 -11l-24 -18l-6 6v12zM765 -110l12 -11v-6l-12 -12h-6l-23 24l6 5h23z
M877 -110h53l36 -35v-6l-12 -12h-18l-23 36h-12l-18 -12h-6l-11 12v6zM1031 -110h17l12 -11v-24h-6q-35 6 -35 18v6zM1213 -110l12 -11q-71 -6 -71 -24v-6l12 -18q-12 0 -12 -64l-6 -6h-5l-6 6v64l-12 18l29 41h59zM1355 -110l12 -11l-6 -6h-24l-12 12l6 5h24zM1426 -110h23
l12 -11l-30 -18l-17 18zM1249 -133l11 -12v-6l-11 -12l-18 24l6 6h12zM76 -145l11 -12l-5 -6h-12l-12 12l6 6h12zM854 -145l6 -6v-12l-12 -11h-6l-12 11zM1361 -145h6l11 -12v-17l-11 -12l-6 6v35zM223 -157l6 -6v-6l-6 -5h-6l-6 5v6l6 6h6zM571 -157l12 -12l-6 -29l6 -35
v-6l-18 -18l-6 6v82zM1426 -157h11l12 -12v-5l-12 -12h-6l-17 17zM1054 -169l18 -70v-18q-12 -14 -12 -41h-18v35l-23 41v30zM606 -180l12 -12l-18 -18l-12 12zM276 -192l12 -12v-6l-12 -12q0 12 -24 12l-5 6v6l5 6h24zM759 -204h6l12 -12v-6l-12 -11h-17l-12 11zM1372 -204
l6 -6v-6l-6 -6h-5l-6 6v6l6 6h5zM70 -216l6 -6v-29h-18v24zM924 -216h24l18 -17l-12 -12h-30l-11 12v6zM1591 -216l5 -6v-17h-17v12zM1231 -222h6l12 -11l-18 -12l-12 12zM594 -239h18v-6l-12 -12l-6 6v12zM1337 -239l6 -6v-53l-12 -12l-6 6v53zM1402 -239l12 -12v-6
l-12 -12l-12 18zM689 -251l6 -6v-12l-12 -12l-6 6v12zM1148 -251l18 -41v-6l-12 -12h-6l-23 29zM1243 -251l17 -24v-17l-17 -18l-12 12v35zM1555 -251h18v-18h-6l-12 12v6zM948 -263h18v-35h-18v35zM842 -269h18l11 -12l-17 -17h-6l-18 17zM199 -275h18v-11h-18v11z
M1555 -275l12 -11l-12 -12h-12v12zM317 -281l6 -5v-6l-12 -12l-5 6v6zM99 -292l12 -12l-6 -6h-23l-12 12l6 6h23zM754 -292l11 -12l-6 -6h-11l-12 12l6 6h12zM913 -298h17l-11 -12l-6 6v6zM951 -381l7 2038q57 163 26 65l-321 -3q-89 -10 -622 0l-33 -232l-26 -1900
q27 -4 825 30q129 6 144 2z" />
    <glyph glyph-name="U" unicode="U" horiz-adv-x="866" 
d="M276 1297l14 -6h7l48 -1l25 -7l4 4h4q21 -10 21 -18l-2 -14v-30l-5 -18l-2 -48l-5 -26l-3 -58l-37 -333l-9 -45l3 -19l-14 -94v-37l-10 -66l-8 -77q-14 -134 52 -173q-1 -13 38 -33l-8 -10l6 -16l11 -1l1 11l-12 27q2 17 56 44q17 35 33 34q20 -2 27 11q-32 11 -30 33
l6 14l1 55l3 26l28 212l1 37l6 29l1 38l5 21l4 70l14 140l3 63l9 54l4 40l4 3l-3 4l1 11l6 29l-1 16l7 40l-2 15q7 18 27 15l15 -1l83 -12l49 -1l44 -9l26 1q25 -7 24 -17v-3l-12 -40l3 -50l-2 -18l-12 -80l2 -22l-8 -39l-6 -97l-10 -55l-2 -58l-12 -81l-7 -107l-7 -32
l2 -22l-16 -73l-4 -81l-7 -29l4 -4l-1 -4l-44 -151q-22 -48 -52 -73q-2 -19 -39 -58q-104 -80 -186 -71l-30 -4l-52 9l-3 -4l-4 1q-104 21 -145 55q-8 13 -35 27q1 6 -67 80q-45 103 -44 115q-7 69 3 204l10 55v6l-4 1l7 26l17 168l-1 30l18 106l2 49v3q2 23 16 50
q-9 19 -6 50l7 69l19 150l-3 3v4l5 15l1 15l1 36l15 10l104 -11zM553 272l-8 -11l10 -8h7l7 6q1 8 -16 13zM586 208l-1 -11l-5 -22l3 -3l-1 -4l-10 -28l4 -4l11 -1l8 6v4l10 61zM598 133q-5 -48 -36 -51l-1 -15l8 -1v-3q14 -1 44 36l-4 4v3l7 15v4zM406 138l8 -37l11 -1
q11 2 13 21l1 11q-3 11 -21 13h-4zM371 123l-1 -11l17 -16l4 -1l8 7q-3 19 -28 21zM469 98q-1 -11 13 -12q12 2 16 13l-10 8l-7 1zM457 55l38 -22l15 -1l20 16v4l-21 6l-16 -2l-13 8q-22 -1 -23 -9zM810 -389l57 2066q52 165 24 66l-268 3q-75 -9 -517 14l-33 -236
l-69 -1927q21 -4 688 15q107 3 118 -1z" />
    <glyph glyph-name="V" unicode="V" horiz-adv-x="1289" 
d="M687 538zM569 619l-8 9v7l20 12l9 -6v-8zM827 445zM1116 6q-43 9 -43 18l6 7l40 -3l9 -12zM723 517l-9 7l2 6l18 11l8 -5l-2 -7zM109 1638l-147 -1880q-82 -146 -37 -58l401 -16q111 4 773 -37l57 212l162 1751q-33 6 -1030 21q-161 2 -179 7zM395 -12q-31 4 -25 58
l-26 320l-44 483q1 24 -40 497l1 7q8 11 25 9l275 -31q27 -4 21 -62q5 -105 11 -135l-3 -2l-1 -5q16 -340 24 -318l176 -26q-7 -28 81 350l42 153l23 5l277 -32q16 -1 18 -11l-1 -10l-381 -1260l-5 -22l-13 -11l-3 -5zM642 285q73 286 135 493l-9 17l-24 1l-128 15l-12 -13
q6 -34 24 -335l8 -177z" />
    <glyph glyph-name="W" unicode="W" horiz-adv-x="1140" 
d="M660 65l323 -20l18 16l-5 6l71 1157l-22 25l-83 -2l-110 13l-21 -39l3 -54l-6 -5l-1 -6l7 -6l-10 -40l-18 -294l-1 -118l-13 -117l-14 -217l-2 -142q-13 -26 -25 -28l-24 2q-15 1 -19 60l2 53l-27 608q-5 354 -25 355l-12 2l-24 -6l-5 7h-6l-41 -3l-42 8
q-37 -17 -60 -332q-19 2 -63 -343q-20 -78 -50 -340q-21 -74 -46 -73l-27 25l34 469l17 282l-4 24l6 23l15 235q2 31 -21 42l-53 4l-59 -3l-52 9l-30 -4l1 7l-25 -17l-72 -1174l10 -13l341 -21q36 -1 37 28l-5 6v6q20 27 22 76l3 40q90 614 126 611h6q17 -1 13 -65l-2 -54
q-7 -97 10 -300q-6 -100 20 -361l12 -1l-2 -5zM1223 -418l-9 1l1 27l9 -1zM1232 -256h-9l7 108l9 -1zM1295 -256l-4 1l-9 9l6 90l9 8l5 -5zM2054 -190q-8 1 -11 41h-4l-5 -4q-6 46 -20 46l-25 20l-108 2l-90 6l-8 9l5 4l121 -7l63 1l17 -6l14 4l8 -10l23 -1l1 13h9l8 -10
l-5 -4q23 -1 17 -100l-5 -4h-5zM1246 -109l-4 5l1 13h4l8 -10zM1312 -59l-4 5l1 13l9 9l22 -2q10 -9 31 -11v-9zM1203 1011q-22 7 -21 15q17 12 32 11h4l31 -11v-4zM1460 -64q-36 7 -35 16l9 8l27 -1l13 -15zM1151 -45l-13 10l-36 -7l-27 2l-9 9l5 5l1 4l4 -5l22 -1l10 8
l22 -5l9 -1q9 -1 10 22l5 4l9 -1q9 0 7 -22q58 -14 57 -22l-4 -4zM815 -24q-35 7 -35 15l5 5l31 -2l9 -10zM1407 -51l-18 1v9l18 -1v-9zM1300 -27h-4q-13 4 -11 37l9 8h9l9 -10l-2 -27zM880 -306l-125 6v8l131 -6v9l-7 6l-246 10l-11 10l-3 -4l-112 6l-7 6l2 19h-9v2l-3 -2
l-48 2q-5 0 -8 19l-119 6q-9 0 -7 11l-3 3l-55 3q-6 0 -6 16l-123 6q-6 0 -10 19l-122 6v5l1029 -46l7 -6l-9 -103l-6 -5q-9 0 -7 8l-22 6l-10 -2l-26 5l-22 -3v-5l27 -7v-8l-42 7zM1126 1070l-4 4v5l9 8l5 -4l-1 -5zM998 19l-5 4l1 5l4 4h5l4 -5v-4l-5 -5zM1164 13h-9v14
l9 -1v-13zM1388 4l-14 1l1 8h13v-9zM569 1747l583 -2l13 -2q-29 -268 -48.5 -640t-35.5 -555l-53 -652q-362 6 -636.5 3.5t-465.5 -11.5q10 139 11 200q1 21 60 691t77 986z" />
    <glyph glyph-name="X" unicode="X" horiz-adv-x="894" 
d="M305 1265q7 0 149 -372l15 -24l161 396h120l52 -3h15l-256 -608l244 -612l-3 -26h-172q-161 409 -161 405l-162 -405l-184 12l-5 5q246 637 239 635l-239 594l40 3h147zM89 1642l-104 -1883q-59 -147 -27 -59l285 -16q80 4 551 -37l41 212l114 1755q-23 5 -733 21
q-114 2 -127 7z" />
    <glyph glyph-name="Y" unicode="Y" horiz-adv-x="1126" 
d="M180 1276l23 -12l36 4l33 -6l129 8l3 4q37 0 41 -94l18 -169l12 -17h2q8 0 12 218l-2 23q5 29 34 29l36 6l15 -2h41q44 -1 44 -6q15 6 54 6h88l32 8q18 -24 18 -67q-18 -53 -44 -316q-5 0 -21 -206q-23 -105 -23 -150v-12q0 -44 11 -103l-2 -41q13 -19 32 -19l3 4l9 -4
q0 -17 21 -31v-24q0 -15 -9 -18l-6 10l-10 -4l-5 12l3 15q0 16 -32 23q-6 27 -19 27q-14 0 -14 -73q-5 -18 -24 -36l-39 -68q0 -9 21 -47v-8l-2 -16l2 -3l-5 -6v-2l5 -9l-2 -3l2 -9q-5 -14 -11 -15l-10 3l-8 -3q-32 24 -32 42h-12l-56 -21l-74 -4l-15 4q-20 0 -64 -33
q0 -18 14 -26q12 0 25 24l2 2h15q16 0 23 -17q0 -38 -56 -38l-32 -27h-17q-26 14 -39 44v3l8 12q0 12 -32 21l-2 -4l-110 12h-3q-24 0 -35 -8h-3q-17 9 -35 56l11 61l-5 42l5 25l-9 54q18 42 48 42h11q17 -12 27 -12q13 0 21 12q0 8 -9 8l-18 18v3l12 67q0 29 -27 98l-2 24
l2 41l-38 195q-18 60 -23 147q-18 31 -29 156q-21 46 -31 138q9 30 18 30h7l31 -6h7q16 14 29 14zM153 1194l36 -200q29 -131 29 -153q0 -25 27 -115l47 -268q15 -26 24 -142q0 -33 -88 -33q-17 -16 -19 -38l4 -36l-4 -31q0 -36 36 -36h6l23 3l33 -3h109q180 27 180 47
q46 19 46 58q21 16 45 122l24 204q8 34 26 224q8 32 35 293q6 0 15 104q-4 12 -15 18h-27l-34 2l-44 -2h-75l-17 2q-33 0 -33 -70q-21 -216 -35 -625q-8 -56 -18 -56q-20 0 -29 148q0 50 -29 226q0 45 -27 228q-6 144 -30 144l-121 5l-35 -2l-44 2q-12 0 -21 -20zM169 569
v-17h-4q-27 1 -27 9t31 8zM163 446l6 -7v-2h-25l-6 6l4 3h21zM109 375h12q9 0 9 -13q-6 -12 -11 -14h-10q-4 0 -9 14zM98 312h11l12 -11v-8q-6 -35 -15 -48q13 -17 13 -27v-5l-10 -10l-9 19l4 20l-33 44q0 18 21 18q0 8 6 8zM640 136v-12h35l3 -3l12 3v3q-18 0 -18 36l-11 2
q-19 0 -21 -29zM751 50h4l26 -14l-3 -15v-3h6v-6h-6v-2l3 -4v-2q-15 0 -20 -21h-4l-23 29v9q0 13 17 27v2zM675 39h12l6 -6l12 -3l2 -3v-2q-9 0 -14 -21h-3q-22 0 -29 14v3zM169 30h11l6 -5v-13l-15 -14h-2l-6 6v21zM519 -2q44 -11 44 -21v-12q-7 -21 -36 -21h-11
q-29 6 -53 21v12q0 16 56 21zM207 -59q17 -19 17 -50q-6 0 -6 -8l-3 -4h-2l-4 4v2l-20 -6l-3 10h-23l-4 -12q-16 0 -26 26v15q1 6 15 11l23 -2q20 14 36 14zM790 -73l20 -3h31l2 -3l3 3h3l62 -45q0 -20 39 -29l35 3q11 -5 11 -8v-44q0 -7 -15 -7q0 -9 -17 -29l-6 -18l9 -6
h18l9 6l2 -3v-77l-6 -6h-26v-111l-6 -6h-15q-18 9 -18 20l4 71v26h-18q-9 0 -9 33v6q-9 0 -9 5v6l6 9v12q-27 81 -79 103q0 6 -12 15q-4 38 -24 62v12h6v3zM292 -76l12 -18l-18 -17h-6v6h-2l5 -50l-11 -4v-82l2 -59h6v-21h6l30 -3v24h-36v41l6 6h11q7 0 7 -30l8 -6
q10 13 42 15l6 -11l-3 -4v-2l5 -6v-36l-5 -6h-183l-5 6v27q12 15 40 23q12 13 19 36l-4 38l10 3v30q0 6 11 6v11q-11 0 -11 6v17q-10 0 -10 7q8 0 12 18h27q0 35 29 35zM469 -82h23v-3l-11 -12l-12 12v3zM569 -105h12l15 -12v-12l-18 -18h-6q-19 10 -20 18v12zM192 -132v-23
h-6v14q-6 0 -6 -9l-3 -3h-3l-11 15zM-5 1594l30 -1883q-63 -153 -30 -61l371 22q102 14 715 36l34 217l-5 1757q-31 2 -950 -78q-148 -13 -165 -10z" />
    <glyph glyph-name="Z" unicode="Z" horiz-adv-x="970" 
d="M61 99l2 47l-1 133l-2 60q-18 94 26 106q2 25 58 72q14 26 50 38q6 34 27 35q101 112 136 131q0 23 59 62q8 19 46 42l15 25l-30 4l9 -9h-394q0 -12 -6 22l4 100l-2 47l-3 93q0 41 19 67l793 2l-3 -2l1 -167v17q14 -158 11 -241q-1 -18 -50 -41q0 -19 -55 -62
q0 -16 -55 -48q-22 -47 -53 -48q0 -26 -55 -56q0 -24 -53 -55q0 -11 -55 -49l-4 -6v-7q9 -20 -18 -26l-22 7l146 2l254 12l15 -33l-2 -80v-80l3 -73q-3 -80 -17 -81l-16 13l-16 -7l-129 -5l-19 -7l-31 6l-589 -9q8 2 8 49h-2zM930 1074h42l10 -9v-297h-5q-42 0 -42 146
q-21 0 -33 151zM23 1617l-18 -1884q-57 -150 -26 -60l316 1q87 8 611 -6l33 214l36 1757q-26 4 -811 -22q-126 -4 -141 0z" />
    <glyph glyph-name="bracketleft" unicode="[" horiz-adv-x="673" 
d="M105 1590h415v-229h-194v-1289h194v-228h-415v1746zM35 1751l-80 -1989q-44 -156 -20 -61l219 -17q60 3 422 -40l31 224l88 1854q-18 6 -562 21q-87 3 -98 8z" />
    <glyph glyph-name="backslash" unicode="\" horiz-adv-x="710" 
d="M580 -110l-163 -55l-305 1522l163 54zM21 1631l18 -1880q-39 -148 -18 -59l229 -8q62 6 441 -22l21 213l-3 1754q-19 4 -586 -1q-91 -1 -102 3z" />
    <glyph glyph-name="bracketright" unicode="]" horiz-adv-x="550" 
d="M91 1532l410 -16l-61 -1723l-410 16l8 215l219 -8l45 1291l-219 9zM31 1702l-67 -1962q-37 -153 -17 -60l183 -17q50 3 352 -39l26 221l73 1828q-15 6 -468 21q-73 3 -82 8z" />
    <glyph glyph-name="asciicircum" unicode="^" horiz-adv-x="568" 
d="M308 1216zM206 1375q16 -4 16 -7l-3 -2l-14 1l-4 5zM346 1190l4 -3l-1 -2l-7 -4l-3 2l1 2zM21 1457l-69 -1709q-39 -133 -18 -53l190 -14q52 3 366 -34l27 192l76 1593q-16 5 -487 19q-76 2 -85 6zM473 1374q12 -1 9 -20l7 -114l11 -172q-1 -9 10 -177v-2q-4 -4 -10 -3
l-102 13q-9 2 -7 22q-1 38 -2 48l1 1v2q-3 121 -6 113l-65 11q3 10 -33 -124l-17 -53l-9 -2l-102 14q-6 1 -7 4v4l154 443l3 8l4 4l2 1zM379 1271q-30 -100 -55 -174l3 -6h9l47 -7l5 5q-2 12 -6 119l-1 63h-2z" />
    <glyph glyph-name="underscore" unicode="_" horiz-adv-x="967" 
d="M63 -11l812 -115l-16 -185l-813 115zM784 379zM1049 -24q-40 8 -40 17l6 6l36 -3l9 -11zM688 445l-8 6l2 6l16 10l8 -5l-2 -6zM99 1360l-115 -1675q-65 -131 -30 -52l315 -14q87 3 607 -33l45 189l126 1561q-26 4 -808 18q-126 2 -140 6z" />
    <glyph glyph-name="grave" unicode="`" horiz-adv-x="535" 
d="M480 883l-67 19l-260 286q-24 28 -33.5 51.5t-3.5 44.5q9 30 34 43.5t57 4.5q19 -6 35.5 -23t40.5 -61zM863 379zM1128 -24q-40 8 -40 17l6 6l36 -3l9 -11zM767 445l-8 6l2 6l16 10l8 -5l-2 -6zM15 1450l-40 -1726q-34 -137 -16 -54l176 -4q48 6 338 -14l22 196l48 1610
q-14 3 -449 -9q-71 -2 -79 1z" />
    <glyph glyph-name="a" unicode="a" horiz-adv-x="952" 
d="M660 1248q26 -1 24 -51l38 -290l61 -439q-1 -24 57 -453v-5q-6 -12 -22 -11l-237 12q-23 1 -21 55q-8 96 -14 123l2 2v4q-6 55 -14 55l-199 11q-14 0 -28 -87l-29 -142l-18 -6l-238 13q-15 0 -17 9v9l267 1174l4 21l9 12l3 3zM463 962q-49 -264 -93 -459l9 -15l21 1
l109 -6l11 13q-8 32 -36 306l-16 160h-5zM60 1758l-114 -2003q-64 -156 -29 -62l312 -18q86 4 600 -39l44 226l126 1867q-25 6 -800 22q-125 2 -139 7z" />
    <glyph glyph-name="b" unicode="b" horiz-adv-x="1224" 
d="M1140 1388l6 -1l-13 -1331l-23 1q-18 -1 -37 74q-15 1 -28 74q-18 1 -29 57v48q-4 50 -18 81v129l-7 19v50q30 60 30 135l8 30q17 8 34 80l43 85l31 7zM63 1279l610 -9q29 0 69 -68q89 -10 89 -62q59 -81 58 -229l-70 -148q-28 1 -43 -30q1 -25 31 -56q1 -9 80 -50
l46 -136l12 -13v-6l3 -161q0 -14 -43 -85q-15 -67 -58 -92q-9 1 -42 -67h-32l-5 7q-22 1 -85 -80l-11 1l1 -5l-27 5l-516 8l-22 -5l-4 5l-27 -5l-5 1q-52 27 -53 80l6 1133q0 38 38 67zM346 1011v-43l21 -57q0 -43 -22 -42v-43q0 -13 43 -32l3 7l38 -1l22 -7l5 6l26 -6
q42 -1 79 110v6q1 46 -68 118h-5l-74 -5l-22 6zM343 536l1 -55h10l-1 -155l-11 -18v-31q10 -25 37 -25l79 -2l85 -6q23 0 47 97q8 -1 16 25l-4 25l16 49q-48 106 -85 106l-74 -6l-63 8l-27 -6v6zM29 1837l-71 -2039q-102 -169 -36 -64l355 -34q105 1 728 -54l58 230
l186 1913q-31 7 -969 41q-151 4 -251 7z" />
    <glyph glyph-name="c" unicode="c" horiz-adv-x="952" 
d="M1177 737q-12 1 -26 16q-11 0 -55 66q-39 82 -36 149l2 17l-1 27q2 48 26 114q4 0 13 27q4 1 15 23q53 61 80 66q0 9 -9 -254t-9 -251zM476 1280q204 -8 301 -160q29 -39 43 -143l5 -37l-5 -15l-2 -59l3 -24q0 -14 -43 -14l-8 2l-4 -2l-18 3h-44l-24 3l-22 -2l-36 4
l-30 -1q-6 0 -20 16l3 13l-2 31l4 29l-2 22l3 10q2 58 -49 114q-38 17 -63 18q-81 3 -109 -60q-11 -39 -13 -89l-24 -615q-3 -94 56 -127l29 -6l46 -1q63 -3 92 51q9 33 11 77l3 82l-1 43q1 13 34 18l15 -1l44 -4h51h7l48 -4l8 2q43 -4 43 -17l-6 -41l-5 -127
q-14 -85 -44 -128q-102 -154 -323 -145q-239 9 -329 194q-24 73 -23 111l27 695q1 34 24 102q29 61 86 106q57 49 143 65q49 11 120 11zM-243 1305l228 -9l5 -6l-33 -873l-5 -5l-7 5l33 853l-222 8l-5 5l1 16zM1128 992q-2 -89 8 -90q0 -19 23 -67q26 -36 37 -40
q-1 -6 1 190t-23 158q-9 -8 -20 -37l-14 -32q-8 -2 -12 -82zM-118 498l30 -1q24 -13 23 -25l-10 -6l-2 1q-11 0 -24 11l-8 1l-10 -7v-6q0 -5 51 -18l8 -22v-8l-7 -5l-18 1l-2 2h-4l4 3v8q-66 17 -66 32l1 10q1 23 34 29zM73 1743l-108 -2040q-60 -159 -27 -63l295 -18
q82 4 569 -40l42 230l119 1901q-25 6 -758 23q-118 2 -132 7z" />
    <glyph glyph-name="d" unicode="d" horiz-adv-x="1007" 
d="M131 1363q0 -6 10 -6l2 -4v-24q-1 -10 -48 -12h-16q-20 1 -39 -52l-1 -41q-2 -57 -8 -57l2 -10l-25 -733l1 -41q-6 -21 -16 -23h-8l-6 6l30 987l6 7zM996 1340l17 -1l4 -4h4q-11 -28 -19 -28h-11l-7 8v14zM995 760h4q36 -2 81 -115l8 -65l-24 -804q-3 -99 -94 -173l-10 1
zM15 1322l-1 -33l-7 1l-3 28l4 4h7zM147 1282l51 -6l15 4l76 -6l54 -2l68 2l40 -9l51 2q120 -11 202 -34l77 -46q57 -54 59 -99q21 -27 18 -105l-22 -746q-3 -79 -66 -160q-59 -48 -114 -59l-19 5q-28 1 -80 -19l-79 6l-343 10q-62 2 -60 52l4 19l1 162l18 455l-2 62l5 44
l-2 53l5 47l-1 84l9 169l-4 15q11 101 39 100zM2273 1123q15 -7 24 -21l-3 -71l-7 -44l9 -34q-1 -18 -28 -27l-4 4l6 186l3 3v4zM423 1036l-19 -619l1 -87l-4 -29l3 -15l-5 -32l-1 -21l17 -19q88 5 89 33l24 94l5 249l6 203l5 104v80l1 15q-18 69 -49 70l-55 9h-4
q-10 0 -14 -35zM2242 187h9q32 -1 30 -52l-4 -118q-2 -67 -39 -66l-3 4zM650 -61h11l10 -11v-7l-4 -4v-3q-29 4 -29 15zM62 1743l-119 -1993q-67 -155 -31 -62l327 -16q90 3 630 -40l46 225l131 1857q-27 6 -838 22q-131 2 -146 7z" />
    <glyph glyph-name="e" unicode="e" horiz-adv-x="966" 
d="M65 1283l57 -6h678l57 6l17 -26v-210l-5 -27l5 -19l-40 -20l-125 13l-216 -6l-6 6v7l-6 -7l-29 7l-26 -13h-22l-17 13l-23 -26v-34l17 -19q-6 -49 -17 -66v-46l23 -13l11 13l6 -7l28 7l27 -13l39 13l63 -7l131 7l39 -7l69 7h11q35 -17 35 -66l5 -6l-12 -20v-40l7 -25
l-7 -20l7 -53l-12 -19l12 -34l-17 -12h-454l-11 -13v-34l11 -19v-13l-11 -21v-32l5 -72l-5 -40l5 -6h534l11 -13v-230l12 -19q-41 -10 -41 -21l-67 13h-764l-5 8h-7l7 32v1222zM926 232h5l12 -13v-131l-12 -13l-5 6v151zM-32 67q11 0 17 -58h6l6 7q11 -66 29 -66l34 -27
l136 6h114l11 -13l-5 -6h-154l-80 -7l-22 7l-18 -7l-11 13h-28v-19h-12l-11 13l5 6q-28 0 -28 145l5 6h6zM961 -299l-14 1938q56 156 26 62l-322 -14q-89 -13 -622 -23l-31 -221l-7 -1807q27 -4 825 59q129 10 145 6z" />
    <glyph glyph-name="f" unicode="f" horiz-adv-x="916" 
d="M173 1147l577 -26v-7l43 -2v7h6v-7l7 -1v7h4v-7l26 -1q-1 -8 8 -9q0 -7 18 -18l7 -14l-2 -37l-5 -13l4 -15l-1 -15l-5 -20l4 -4v-4q-11 -60 -49 -58l-403 18l-3 3q-44 -4 -45 -33l-2 -56l2 -15l-4 -26l-7 -141q-3 -69 32 -70q20 -1 34 9l202 -9q164 -7 163 -29
q18 -12 16 -46l-5 -43l2 -29q-5 -71 -38 -69l-4 -4l-368 16l-3 5q-47 -4 -49 -45v-3l2 -39l-4 -4l3 -25l-14 -304v-60q-7 0 -12 -28q-20 -15 -53 -19q-65 3 -82 11l-50 -5q-57 12 -55 56l-3 3l29 631l21 556q11 24 23 32l32 -1zM821 88h3q13 0 15 -79l-11 -7h-7l-6 7v71z
M871 80h7l4 -18v-10l-4 -4l4 -3v-8l-11 -11l-7 8l7 22v24zM879 -337l7 1962q52 157 24 63l-295 -2q-82 -10 -571 0l-30 -223l-24 -1832q25 -3 758 31q118 4 131 1z" />
    <glyph glyph-name="g" unicode="g" horiz-adv-x="1627" 
d="M858 1584l71 -10l70 -6l24 4q56 -19 219 -44q39 -28 149 -52l12 -1l6 5q39 -8 35 -51h6l-17 -115l-9 -100l-2 -89h-6q-44 4 -101 49q-39 35 -217 70l-48 4q-81 6 -207 -17l-45 -32q-169 -65 -179 -168q-50 -23 -55 -74q-33 -105 -45 -229l-2 -16q-3 -228 45 -231l21 -75
l52 -74l65 -51q77 -38 116 -41l70 -5q135 -3 137 21q12 -1 14 21l-1 111l7 15l-3 96l16 40l-6 5l7 5l-33 35h-6q-59 -17 -206 -11q-22 30 -20 50l6 62l-1 48l6 5l1 6l-1 57l3 32l8 26l18 -1l41 -14l83 10l158 -17l52 6l30 -2l47 -9h199q28 -3 32 -49l-9 -32l-4 -37l-6 -3
l5 -6l-20 -212l-18 -326l-8 -24l1 -54l-9 -31l8 -42q-4 -39 -71 -49q-56 -31 -114 -27q-1 -14 -163 -41q-54 -23 -184 -24l-17 7l-196 4q-109 24 -158 49q-103 35 -240 151q-16 1 -30 65q-45 3 -88 123q-42 40 -59 201q-41 110 -19 343l-3 38q13 12 27 98l10 42
q25 11 89 205q119 145 121 159q89 63 188 113q3 30 142 64q124 32 209 42v5zM1186 1381l-2 -22q18 -1 17 -12l30 3l1 6q-12 1 -10 17l-6 5zM1231 1345l-1 -5l48 -9l1 10zM-49 1334l-130 -1508q-24 2 -21 28h-5l31 92l-2 23v4l11 183l5 4v5l-4 4l1 5l16 84q-7 23 -3 179
l17 83q-5 54 7 197l12 139l3 84l5 4v5l-2 35l16 129v46l5 11l3 135q1 23 35 29zM818 91l-12 -8l5 -6l-6 -5l-2 -16q18 -1 28 -18q25 6 26 14q-26 2 -27 38zM23 1870l-62 -2250q-100 -178 -47 -70l537 20q148 15 1035 33l62 249l96 2011q-44 2 -1382 16q-215 -12 -239 -9z
" />
    <glyph glyph-name="h" unicode="h" horiz-adv-x="1114" 
d="M412 1794q12 0 12 -32q-20 -172 -89 -172h-88q-73 139 -73 193l7 11h231zM887 1794h208l5 -11h7q-33 -193 -54 -193h-100q-78 0 -78 130v53zM172 1146l5 -7h6l6 5l7 -1l21 -8l8 6l28 -10l64 -1q62 -17 58 -55l-10 -46l-7 -123l-8 -60l-9 -36q-5 -92 32 -94l39 -11v-7
l29 3l216 -22q51 -5 60 79l22 206l1 66q5 44 65 49l39 -10l42 1l29 -10l34 3q99 -10 92 -65l-98 -938v-53q-22 -42 -57 -38l-209 23q-41 4 -37 47l37 344q-5 25 -48 30l-269 28q-49 5 -60 -30l-4 -91l-17 -146l-10 -53v-43v-6q-19 -35 -50 -32l-163 18q-56 6 -78 39l15 90
l90 840l1 66q22 53 59 51zM68 1850l-133 -1869q-75 -146 -34 -57l364 -16q101 3 703 -37l51 211l147 1741q-30 5 -935 21q-146 2 -163 6z" />
    <glyph glyph-name="i" unicode="i" horiz-adv-x="507" 
d="M152 1408l6 -3l19 -9l22 -3l10 1l14 -4l8 3l11 -7l11 4l-2 -5l18 6l40 -12h22q15 -10 36 -14l45 3q31 -19 32 -35l-6 -36l-1 -74l-9 -36l-2 -58l-11 -69l-18 -244l-6 -22l-7 -81l-19 -188l2 -40l-4 -34l-4 -51l-8 -63l-15 -142v-20l-2 2l1 -10q-14 -140 -47 -136h-26
l-55 8l-41 16l-106 22l-24 -6q-18 8 -35 41l4 9l-3 31h3l-3 4l1 4l3 3l-3 4v4l4 13l4 57l50 494l-3 31l20 171l-3 30l21 176q9 94 1 108l11 30l-3 34l4 13l-3 4v3l5 9l-1 22q23 43 42 42zM16 966l-80 -608q1 0 0 -16q-25 -221 -23 -221q-6 -53 -6 -67l-3 -18q-5 -20 -6 -20
l-2 5h-3l4 26h-3v5l22 167q1 5 2 5l97 743l1 3v-4zM122 836l17 -1v-6l-17 1v6zM3 1793l-62 -2097q-34 -165 -15 -66l169 -18q47 5 327 -41l24 236l68 1956q-14 5 -435 23q-68 2 -76 7z" />
    <glyph glyph-name="j" unicode="j" horiz-adv-x="901" 
d="M19 1276h517l4 -4h4l-8 4q0 -7 12 -7l4 -12h-4l4 -4l-4 -66l-4 -109l-271 2q-28 14 -118 14v-6h-4l-115 6h-17l-8 27v140q8 0 8 15zM841 930v-818h-12v11q-20 0 -53 52l-7 9h-4v31h-9q0 28 -24 57l-8 20q0 16 -7 16v103h-9v31h-8v153h8v42h9v93l24 45q20 77 64 134
q10 21 36 21zM279 1082l271 -9l-4 13l4 -5l-4 -96l4 -252l-4 -358l8 -19q-8 -17 -8 -50v-28q-12 0 -12 -19h-8v-23q-2 -50 -37 -74v-23h-8v9h-4q1 -21 -46 -61l-12 -4l-4 4q0 -8 -20 -8l4 -6l-21 -22v-6l-47 -14l-24 -15q-22 3 -153 -20l-138 1l3 10q0 4 -4 36h8v18h-8v10
l1 157l3 -1l3 -4q5 16 5 4l4 4h4v-9h28l5 5l4 -5h-29l16 5l16 -5l33 9l8 -9h20q55 -4 95 56l24 34l12 50v626q-14 5 -4 5l-13 4h-5l52 -4h-18l-6 19v65q6 0 6 5zM34 1831l-108 -2072q-61 -161 -28 -64l295 -18q82 4 569 -41l42 233l119 1932q-24 6 -758 23q-118 2 -131 7z
" />
    <glyph glyph-name="k" unicode="k" horiz-adv-x="1152" 
d="M131 1305l230 -18l-41 -542l481 509l299 -23l-443 -459l370 -808l-283 22l-262 610l-188 -200l-29 -374l-230 17zM90 1640l-134 -1902q-75 -148 -34 -59l366 -16q102 3 707 -38l52 214l147 1773q-30 6 -940 21q-147 3 -164 7z" />
    <glyph glyph-name="l" unicode="l" horiz-adv-x="630" 
d="M216 1257l114 -10q39 -3 36 -44l-62 -809l-12 -82l14 -23l50 1l97 -13l94 -2q18 -23 17 -43l-9 -114q-3 -37 -37 -34l-415 34q-33 17 -31 44l-5 1l32 348l43 559v73l7 25l-3 27l7 15l-4 21q27 29 67 26zM36 1823l-76 -1969q-42 -154 -19 -61l207 -17q57 4 398 -39l30 221
l83 1836q-17 6 -531 22q-83 3 -92 7z" />
    <glyph glyph-name="m" unicode="m" horiz-adv-x="945" 
d="M812 1251l44 -7l18 -2q25 -5 24 -19l-23 -301l3 -3v-3l-4 -3l1 -30l-10 -117l-7 -132l-5 -2v-5l3 -18l-8 -89l-5 -3l4 -3l-9 -105l-8 -48l3 -15q-9 -17 -29 -16l-9 3l-41 -1l-25 5l-3 -3h-2q-25 4 -24 8l-31 -3l-29 8l-8 1l-12 -2q-31 6 -29 26v7h4l-2 21l23 260v43l4 3
l-2 14l5 61l-2 15l-10 1l-82 -131q-9 -10 -41 -82q-41 -60 -54 -67h-4q-51 76 -61 101q1 9 -61 120q1 16 -41 62l-8 1l-3 -30l-7 -60v-21l-3 -15l1 -13l-3 -8l-2 -46l-10 -117l-2 -57l-8 -33l2 -2v-4q-2 -16 -31 -18l-14 4l-34 -3l-26 5h-35l-39 10l-11 -2v3l-4 -3l-23 2
q-19 13 -17 38l23 262q3 30 -4 30l5 21l14 225l3 11l-7 34l4 3l-2 15l4 51l12 174l5 22l-2 11q17 14 38 12l14 -1l12 -4l51 1l18 -4l40 2l23 -7l31 -1q17 -1 49 -94q15 -3 48 -104l40 -85q6 -33 32 -54q-1 -17 11 -43l16 -2q35 52 85 165q10 -1 24 41l56 100q14 13 26 43
l2 3l3 -1zM1 1809l-32 -2078q-59 -167 -27 -67l322 2q89 9 622 -4l36 237l50 1938q-27 5 -827 -27q-129 -6 -144 -1z" />
    <glyph glyph-name="n" unicode="n" horiz-adv-x="1118" 
d="M99 1276l26 -5l119 -5l38 1l35 -5l46 -3q23 -1 21 -34q39 -105 59 -124q8 -10 9 -52q19 -34 37 -98q30 -1 75 -184l23 -1l13 18h-4l4 4l1 25l-5 41v19l3 125l3 4l2 4l-4 3l6 62l4 70l4 4l-4 3l1 22l5 23l-6 41q1 14 32 13v4l4 -4l114 -5l138 -3l19 -17l-6 -43l-19 -379
l-4 -144l-4 -22l3 -15l-5 -18v-81l-9 -104l1 -40l-11 -173l-11 -195q0 -11 -15 -10q-50 4 -50 9h-65l-134 6l-55 -1q-19 1 -34 79q-8 5 -27 72q-25 19 -47 116q-5 0 -20 52q-34 52 -41 110h4q-2 10 -30 34h-4l-7 -8l5 -43l-4 -11l1 -53l-9 -6v-4l13 -45l-11 -84l1 -48
l-5 -22l4 -4v-4l-4 -3l2 -18l-2 -67l2 -3q-1 -34 -28 -32v-4l-34 9l-61 -1l-35 1l-30 5l-31 -1l-50 2l-3 -4q-27 5 -26 19l10 63l8 150l-4 4l4 4v4l-1 48l1 7h4l-4 15l16 402l6 110v63l5 40q10 302 3 302q2 15 29 14v4zM2005 1021l7 -4l-18 -1052q-4 0 -9 13l3 60v28l1 13
q0 157 8 635l-1 25l2 35l1 53l-2 51l1 72l2 19l-3 44q5 9 8 8zM-947 712v-9l7 6l-3 3h-4zM-859 689l-4 -3v-3l3 -3h3l4 3l3 -4l3 3v7h-3l-3 -3h-3zM-682 586l-3 -9l15 -13v6h6v-7l7 6v10q-12 0 -12 7h-13zM-715 550v-6l6 -1v-3l-6 1l-1 -10l22 -1l13 6v6l-24 11zM-842 537
v-12l12 -1l4 12l-3 4h-3zM-731 478v-9l12 -1l1 10h-13zM-469 365l-3 -3v-10q11 -13 11 -22l9 -1l5 22v3zM-523 349l-1 -26h6q16 -1 19 9q-8 0 -8 16l-3 3h-3zM-574 338v-3l19 -1v10h-12zM-539 289v-6h13l-6 6h-7zM-516 235v-3l12 -1l1 3zM-523 216l9 -10l3 10l-2 9zM-186 63
h18l-12 -112q-24 0 -43 6l9 53l-3 7l8 11l-8 19q2 15 31 16zM-534 132v-7h13v6zM-484 114v-7l2 -16h3l1 7l3 -1l-1 -6h4l3 12l-2 10l-4 -3l-3 3zM-707 71v-3l9 -10l10 -1l1 19h-4zM48 1808l-135 -2051q-76 -160 -35 -63l370 -18q102 4 713 -40l52 231l149 1911
q-31 6 -949 23q-148 2 -165 7z" />
    <glyph glyph-name="o" unicode="o" horiz-adv-x="2002" 
d="M960 1544h103q353 -52 353 -92q81 0 239 -167q83 -85 133 -241q66 -164 66 -308v-25q0 -246 -160 -549q-163 -182 -203 -182q-58 -58 -180 -101q0 -15 -314 -76q-170 0 -437 76q0 18 -113 58q-197 154 -230 241q-123 182 -123 475q0 213 76 367q40 137 220 307
q143 110 285 159zM523 776v-198q45 -257 104 -257q52 -89 241 -146l103 -6h34q149 0 266 89q138 118 138 281l11 39v121q-54 306 -116 306q0 79 -218 154l-102 7q-202 0 -345 -128q-76 -98 -116 -262zM140 1828l-291 -2013l8 1l748 -226q973 -110 1086 -157l79 316l291 1814
q-52 6 -1664 236q-228 25 -257 29z" />
    <glyph glyph-name="p" unicode="p" horiz-adv-x="1222" 
d="M1060 1348v-189h-45q-48 0 -48 79v11l5 4l-5 5v51q0 28 93 39zM1026 69h34v-189q-93 0 -93 45v26l5 19l-5 20v15q0 64 59 64zM493 1269q123 -11 191 -29q21 -17 85 -37l82 -70l59 -103q50 -119 50 -207q-5 -101 -42 -168q0 -44 -105 -167l-61 -45l-95 -46
q-110 -14 -165 -32l-78 5q-37 0 -42 -78v-98l5 -5l-5 -4l-1 -28q0 -89 -5 -89l-3 -77h-309v84q-8 -1 -2 69l5 872q-3 78 -28 78q38 -1 26 171l395 -1zM395 954l-7 -265q-1 -78 48 -78l5 1q56 0 143 45l47 53q10 0 20 118q4 116 -95 172q-71 33 -122 32q-36 0 -39 -78z
M74 1700l-106 -2027q-78 -159 -36 -64l376 -16q105 3 727 -41l53 229l151 1898q-30 5 -966 22q-150 2 -199 -1z" />
    <glyph glyph-name="q" unicode="q" horiz-adv-x="1298" 
d="M645 1285l110 -6q157 -25 269 -94q238 -207 217 -584q-23 -388 -338 -554q-32 -1 -33 -21v-8q-6 -103 142 -126l125 9l25 -1q37 -3 60 -43q-10 -165 -96 -160h-125l-24 2q-261 15 -315 229q4 79 -51 82h-8q-172 10 -270 70q-116 76 -199 216q-68 183 -60 325l7 124
q15 261 230 450q174 100 334 90zM417 689q-19 -326 175 -390l65 -22q76 -5 185 74q85 106 92 229l2 48q15 251 -143 327q-58 34 -102 36q-104 -8 -191 -90q-54 -56 -78 -207zM1360 -374l-1 1955q76 165 36 68l-454 43q-122 -15 -849 -39l-42 -232l-12 -1767q36 -2 1293 -54
q8 30 29 26z" />
    <glyph glyph-name="r" unicode="r" horiz-adv-x="883" 
d="M173 1345q6 -1 5 -9q-5 -11 -10 -11h-3l-4 6zM224 1338l17 -2l-1 -6l-16 2v6zM188 1318l57 -8l226 -20q74 -6 159 -48q87 -59 108 -160q4 -53 8 -60l-10 -124q-27 -95 -73 -144q-61 -47 -73 -46l15 -39h-3l73 -291l19 -84q4 0 12 -35q3 0 6 -12l-21 -13l-42 7l-14 -2
l-25 5l-101 9q-12 1 -29 101l-38 160q-30 157 -38 163l-73 7l-4 -4l-3 1l1 -29l-31 -358q-1 -21 -10 -22l-140 12l-40 1l-19 16l5 20l81 969q2 20 17 28zM142 1287l3 -1l5 -6l-3 -3l-3 1l-3 2zM701 1201l11 -2v-9l-3 1l-9 4zM722 1173h8l11 -14v-3l-7 -5l-12 19v3zM775 1114
l3 -27h-6q-6 0 -7 22zM365 1137v-6h-3l1 -20l-22 -263l3 -3v-3l20 1l51 -4q108 -10 119 111l4 50q8 92 -50 117q0 9 -97 18zM481 1109l3 -3l-1 -9l-12 2l-5 6v3zM491 1091h5l5 -7h-5zM493 884h4v-3l-7 -4h-3v3zM463 863l3 -3v-2l-3 -4l-15 2v6zM725 812l3 -3v-3l-6 -5l-2 3
v2zM702 770l6 -5l-1 -9l-7 -5l-5 6l1 8zM389 662l5 -1l-2 -15l-5 -6l-3 1l-8 9zM679 465l6 -7l-2 -14l-8 1l-2 14zM433 468l3 -3l-2 -11l-9 1l1 9zM693 388h2v-7l-8 1zM415 398l5 -7v-6h-6l-6 7zM708 326l6 -1l-1 -13l-5 1v13zM38 357h6l2 -16l-1 -7l-3 -4l2 -3v-6l-9 -8
l-6 7l7 17zM735 268l5 -9v-6h-6l-5 6v4zM55 1483l-108 -1822q-61 -142 -28 -56l295 -16q82 3 569 -36l42 205l119 1699q-24 5 -758 20q-118 2 -131 6z" />
    <glyph glyph-name="s" unicode="s" horiz-adv-x="1116" 
d="M555 1280q228 -26 227 -52q49 -2 157 -73q21 -8 67 -58v-10q-1 -16 -80 -108q-18 -44 -78 -86q-15 1 -55 35q-16 0 -82 50l-166 54q-76 3 -147 -44q-22 -28 -30 -66q-3 -66 112 -121l151 -53q49 -2 152 -53q32 -2 141 -85q85 -91 82 -158q21 -63 20 -85l-1 -18
q-2 -51 -44 -167q-70 -125 -175 -161l-57 -26q-11 -8 -207 -23l-55 2q-50 16 -181 36q-145 62 -165 81q-132 78 -130 119q1 14 118 139q14 30 33 36l28 -1q20 -1 60 -49q21 -1 68 -41l118 -52q21 -9 75 -12l70 -3q96 -4 144 88l1 23q4 96 -194 148q-35 25 -172 49
q0 18 -109 52l-108 93q0 12 -36 53l-31 146l2 52q44 180 68 179q126 182 409 170zM-125 1187q31 0 69 -80v-5q-43 -90 -50 -135l-11 -19h-10v229l2 5v5zM66 1770l-132 -2014q-74 -158 -34 -63l361 -17q101 3 697 -40l51 227l146 1878q-30 6 -928 22q-144 2 -161 7z" />
    <glyph glyph-name="t" unicode="t" horiz-adv-x="1025" 
d="M573 1276q15 0 21 -50v-203l-5 -30q7 -20 16 -20h185q28 0 36 -20v-187q0 -35 -26 -50l-78 4l-71 -4l-32 9q-25 -6 -25 -34v-333q22 -93 67 -93l67 -10l62 10h10q17 -3 41 -65l-5 -49l5 -46l-5 -4v-5l5 -30q0 -50 -119 -64h-180l-129 30q-55 4 -144 108q-19 66 -36 70
l-5 174v282q0 54 -16 54h-20l-26 -4l-31 4l-57 -4q-46 0 -46 50v173q0 34 36 34h149l16 11l5 144v30q0 114 41 114q252 4 294 4zM911 966h8v-8v-786v-9h-9l-1 26v42v718q0 17 2 17zM250 -40h42l8 -8v-42l-12 -13h-34l-17 17v21q3 25 13 25zM453 -40q12 -2 12 -34v-16
l-12 -13h-34q-51 41 -51 55v4l4 4h81zM554 -40l30 -34h33l30 34h51v-4q0 -23 -55 -63h-68q-30 0 -51 29q-21 11 -21 34l5 4h46zM774 -40h80q9 0 9 -12q0 -8 -47 -51h-34q-17 7 -17 29v26zM985 -40q13 -2 13 -34q0 -22 -17 -29h-34q-46 39 -46 59l4 4h80zM1116 -40l30 -34h34
l29 34h47l4 -4h4q0 -13 -38 -46q-6 -17 -29 -17h-60l-29 4v-64l-9 -8h-38l-8 8v5q5 74 38 80q-28 22 -30 38l5 4h50zM-27 1739l68 -2029q-54 -163 -26 -64l338 15q93 14 653 26l26 231l-43 1893q-28 3 -865 -65q-135 -10 -151 -7z" />
    <glyph glyph-name="u" unicode="u" horiz-adv-x="1087" 
d="M-170 1377l21 -4v-1217q-13 0 -29 15l8 69l-4 32l4 16q-8 182 -12 733l-4 30l4 39v62l-6 59v83l2 22l-10 51q13 10 26 10zM1199 1298v-1233q-18 0 -18 22h-3l18 77l-4 18v3l-4 149l4 4v4l-4 3v4l8 69q-8 18 -15 145l7 69q-7 43 -7 160v113l-3 69l3 4v4l-3 28l3 106l-3 36
l3 11l-7 109q0 18 25 26zM600 1276q23 -2 44 -11l28 7h150l79 4l4 -4l-4 -77l8 -838l-26 -99q-49 -94 -142 -146q-96 -32 -112 -32q-22 -25 -117 -25l-10 3l-12 -3q-104 0 -160 25q-24 0 -109 36q-24 0 -32 30q-16 0 -43 39q-30 9 -30 55q-17 0 -39 102q-9 0 -18 21l2 18v15
l4 84l-4 101v59l4 75l-6 30l2 4v3l-2 44l2 26l-2 211v133l-4 23l4 3v3l-8 52q1 10 26 21l18 -3h76l196 3q12 0 12 -14h2q0 -15 -14 -15l-4 -22l4 -25q5 -240 12 -240l-4 -10q1 -49 6 -49l-2 -2v-59l2 -65l-2 -11l2 -69l4 -273q26 -67 33 -69q44 -29 76 -29q95 18 95 69
q8 0 14 59l-3 134l-4 32l7 40l-10 225l3 37l-3 135l3 36q-7 16 -7 59v61q0 26 -8 40q3 33 19 33zM782 774v-14h7v14h-7zM717 338l-4 -11h10v11h-6zM763 308h19v19q-19 -3 -19 -19zM723 269q0 -18 -6 -18h-12v-8l26 -7v4l4 14zM346 229v-4h29v4h-29zM676 229l-4 -12l4 -2h4
l7 10v4h-11zM310 207l-8 -8v-6h14v14h-6zM549 199v-6h14v6h-14zM-9 1749l19 -2028q-60 -163 -28 -65l350 8q97 11 676 7l33 232l4 1892q-30 4 -898 -42q-140 -8 -156 -4z" />
    <glyph glyph-name="v" unicode="v" horiz-adv-x="1164" 
d="M733 379zM998 -24q-40 8 -40 17l6 6l36 -3l9 -11zM637 445l-8 6l2 6l16 10l8 -5l-2 -6zM74 1739l-135 -1975q-75 -154 -34 -61l368 -17q102 3 709 -39l52 222l148 1841q-30 6 -944 22q-147 2 -164 7zM336 -40q-28 3 -23 53l-24 293l-40 443q1 22 -37 456l1 6q8 10 24 8
l252 -28q24 -3 19 -57q4 -96 10 -123l-3 -3l-1 -4q15 -312 22 -291l162 -24q-7 -26 74 321l38 140l21 4l254 -29q15 -1 17 -10l-1 -9l-350 -1155l-4 -21l-12 -10l-3 -4zM563 232q66 262 124 452l-9 16l-22 1l-117 13l-11 -11q5 -32 22 -308l8 -162z" />
    <glyph glyph-name="w" unicode="w" horiz-adv-x="1444" 
d="M811 5l348 -21l19 18l-5 6l159 1223l-22 27l-89 -1l-119 14l-23 -42l-143 -1057q-14 -28 -28 -29l-24 1q-18 1 -22 63l3 56l-29 644q-7 375 -27 376h-13l-26 -4l-5 7h-7l-44 -4l-44 9q-41 -18 -66 -351q-19 1 -68 -364q-20 -81 -54 -359q-22 -78 -48 -77l-31 27l-10 1092
q3 33 -23 46l-57 2l-63 -2l-56 10l-31 -4v6l-27 -17l8 -1242l11 -14l366 -22q38 -2 40 29l-6 7v6q21 29 25 80l2 43q96 649 136 646h6q18 -1 14 -69l-4 -56q-6 -103 13 -320q-6 -103 20 -381h13v-6zM1515 -418l-11 1l2 33l10 -2zM1458 -13h-11l8 130l10 -1zM1534 -13l-6 1
l-10 11l6 108l12 10l5 -6zM2446 66q-10 1 -12 50h-6l-7 -5q-7 55 -22 55l-32 24l-130 2l-107 8l-10 11l6 4l145 -8l76 1l20 -7l17 5l11 -12l26 -2l2 16h11l9 -12l-6 -5q28 -1 21 -120l-6 -5h-6zM1474 164l-5 6l1 15h5l11 -12zM1553 224l-5 6l2 15l10 11l28 -2q11 -11 36 -13
v-11zM1491 1301q-26 8 -25 18q20 14 38 13h5l37 -13v-5zM1731 218q-42 8 -42 19l12 10l31 -2l16 -18zM1360 241l-16 12l-43 -9l-33 3l-9 10l4 6l2 5l4 -6l27 -1l12 10l26 -6l11 -2q11 -1 12 27l6 5l11 -1q11 0 8 -27q70 -17 70 -26l-6 -5zM1024 56q-42 8 -42 18l6 6l39 -3
l9 -12zM1667 233l-21 2l1 10l20 -1v-11zM1540 262h-6q-16 5 -13 45l11 9h10l11 -12l-2 -32zM1058 335v5v-5zM1398 1372l-4 4v6l12 10l5 -5l-2 -6zM1176 318l-5 4v6l6 5h5l4 -6v-5l-6 -6zM1375 310h-11l2 17l10 -1zM1645 300l-17 1l1 9h16v-10zM677 1772l752 37l17 -1
q-18 -278 -15.5 -661.5t-3.5 -573.5l-20 -674q-467 -18 -820.5 -39.5t-599.5 -43.5q2 143 -1 207q0 21 26 714.5t25 1018.5z" />
    <glyph glyph-name="x" unicode="x" horiz-adv-x="776" 
d="M211 1045q7 -1 114 -283l12 -18l159 284l104 -7l44 -4l13 -1l-249 -434l186 -464l-4 -19l-150 10q-123 308 -123 306l-159 -289l-159 18l-5 3q242 456 238 455l-184 450h34zM67 1630l-90 -1927q-50 -150 -23 -59l246 -17q68 4 474 -38l35 217l99 1796q-21 6 -631 21
q-98 2 -110 7z" />
    <glyph glyph-name="y" unicode="y" horiz-adv-x="975" 
d="M231 1272l20 -4l52 4h77q34 0 34 -70q6 0 21 -83l10 -6h4q12 0 17 109q0 50 60 50h219l39 -4l2 4q67 -4 67 -21q-12 -70 -42 -128q0 -20 -62 -216q-14 -17 -31 -108q-24 -35 -50 -159q-16 -25 -51 -171q20 -53 20 -110l-3 -44l7 -86l-10 -66l3 -62q-17 -87 -53 -87v-4
l-82 6l-50 -6q-69 18 -187 24q-11 13 -11 26l-10 277l4 18q0 159 -40 236q0 44 -37 142q0 41 -32 122q-7 5 -13 86q-21 37 -36 132q-28 57 -28 81q0 43 -27 87q0 27 114 27zM119 1171q15 -74 41 -118q15 -93 40 -146q0 -25 41 -149q0 -24 35 -129l34 -136q7 -15 7 -56v-45
q0 -153 -10 -300q3 -27 29 -27h13l106 -5l36 1l35 -1q60 10 60 31l-9 118l4 41q-10 18 -10 34l6 31l-1 44l1 33l-6 86q12 70 52 185q0 33 31 111l35 136l60 223q11 15 17 38q-6 29 -27 29l-50 -5l-76 5h-25q-56 0 -56 -50l-20 -77q0 -31 -27 -191q-10 0 -26 -372l-14 -20
q-17 0 -45 315q-10 187 -33 258q-20 137 -31 137h-131l-55 2q-21 0 -31 -31zM949 981l4 -4v-67q-51 -28 -51 -87q-21 -10 -31 -295l1 -24l-1 -67l1 -49l-1 -46q30 -179 65 -179q17 0 17 -7v-65l-5 -9q-9 0 -50 56q-31 0 -48 25v20q0 36 -29 77h-10q-10 0 -21 -46l-6 -5
q7 -37 20 -50v-7l-4 -1l4 -5v-4q-8 -27 -24 -27q-20 0 -21 36l3 44l-7 38q0 48 56 48l10 14v32q-10 12 -10 32q15 17 15 29v4l-5 40l10 45l-5 51q17 48 17 67l-3 72q0 227 78 293q14 21 31 21zM708 319h5l7 -5v-13q0 -6 -11 -6l-14 10v5zM-24 1599l41 -1871
q-55 -151 -26 -60l328 11q91 11 634 15l28 213l-18 1746q-27 3 -841 -49q-131 -8 -146 -5z" />
    <glyph glyph-name="z" unicode="z" horiz-adv-x="1058" 
d="M-200 199l1 7l14 18l3 31l-11 21v6l14 12l19 -2l12 -14l-7 -83l-28 -23zM-176 474l14 11l6 -7l-1 -6l-14 -12l-6 7zM-127 894l8 83l14 11h6l12 -14l-8 -83l-14 -12l-6 1zM1166 10l14 11l6 -7l-1 -12l-14 -12l-6 7zM1183 201l14 12l5 -7l-4 -51l-14 -12l-6 7zM1195 341
l14 12h6l12 -14l-20 -11zM1205 456v7l14 11l17 -27l-7 -6l-12 1zM1222 648l1 19l14 12l6 -1l12 -14l-2 -19l-13 -12l-7 1zM1233 775l7 6l12 -1l12 -14l-7 -6l-13 2zM1247 935l13 12l6 -7l-3 -39l-14 -11l-6 7zM1224 532l7 6l7 -1l5 -7v-6l-7 -6h-6l-6 7v7zM1210 224l28 24
l6 -7l-2 -26l-14 -11zM1208 45l14 11l5 -7l-1 -12l-14 -12l-5 7zM1234 345v6l14 12l6 -7l-1 -13zM1294 886v6l14 12l19 -2l29 -34l-1 -13l-12 1zM1276 540l14 12l18 -21l-7 -6l-13 1zM1252 111l7 6h6l6 -7v-7l-7 -5h-7l-5 7v6zM1309 769l1 6l14 12l19 -2l31 -15l-2 -20
l-51 5zM1269 161l7 6l13 -1l23 -28l-7 -5h-6zM1338 946l6 6h7l6 -7l-1 -7l-7 -6l-6 1l-6 7zM1297 333l14 11h6l12 -14l-20 -11zM1324 639l7 6l25 -2l12 -14l-7 -6l-26 2zM1295 18l40 16l26 -3l-2 -19l-33 -10l-19 2zM1353 533l1 7l38 -3l-1 -7l-14 -12l-12 2zM1387 775l7 6
l19 -2l-2 -19l-12 1zM1347 90l2 32l14 12l18 -21q-10 -38 -23 -36zM1364 217l2 20l6 -1l12 -14l-7 -6zM1418 836l7 6l19 -1l12 -14l-7 -6l-19 2zM1404 529l1 6l12 -1l12 -14l-7 -5h-6zM1412 618l2 20l12 -2l12 -13l-7 -6zM1402 426l13 12l6 -7v-6l-14 -12l-6 7zM1386 177
l2 19l12 -14l-7 -6zM39 365l10 147l18 22l30 -3l5 69l18 22l53 -6l5 -9l38 35l5 -1l5 -8l83 92l6 -1l17 -10q8 24 60 40q39 63 100 83l48 25q50 80 92 76l70 85l1 15l-598 70l-16 25l8 108l44 50l348 -40l524 -54l9 -24l-12 -186l-19 -22l-5 9l-5 1l-82 -85q-32 4 -49 -25
q-31 3 -68 -55q-17 2 -18 -21l-6 -7l-35 4q-3 -31 -20 -29l-29 3q-2 -18 -70 -85l-5 9h-7l-37 -34l-5 8h-5l-83 -84q-23 3 -48 -25l-29 3q-2 -32 -51 -57l-1 -23l128 -14l2 37l20 22l23 -2q12 -1 13 -65l197 -23l48 3l45 -14l53 -6l50 57l6 -1q11 -1 14 -63l5 -1
q10 62 22 59h5l12 -17l-16 -224l-13 -15l-864 101zM-393 66l5 58l14 12l402 -35l-1 -7q-5 -57 -202 -40q-3 -30 -209 -27zM81 1630l-130 -1814q-72 -141 -33 -56l353 -15q98 3 682 -36l50 204l142 1691q-29 5 -907 19q-141 3 -157 7z" />
    <glyph glyph-name="braceleft" unicode="{" horiz-adv-x="406" 
d="M-13 661q110 4 142.5 59t32.5 111v391q0 61 49.5 117.5t117.5 56.5h70v-42h-58q-38 0 -67.5 -27.5t-30.5 -76.5v-417q0 -70 -38.5 -133t-91.5 -64v-1q53 -1 92 -63.5t39 -132.5l-1 -417q1 -49 30.5 -76.5t67.5 -27.5h58v-42h-70q-68 0 -117.5 56.5t-49.5 117.5v391
q0 56 -32.5 110.5t-142.5 59.5v50zM-3 1630l-57 -1787q-32 -140 -15 -55l156 -16q44 4 301 -35l22 201l63 1666q-13 5 -400 20q-63 2 -70 6z" />
    <glyph glyph-name="bar" unicode="|" horiz-adv-x="624" 
d="M253 1341l267 -9l-203 -1753l-267 9zM13 1630l-77 -1984q-43 -155 -20 -62l210 -17q58 4 404 -39l30 224l84 1850q-17 5 -538 21q-84 2 -93 7z" />
    <glyph glyph-name="braceright" unicode="}" horiz-adv-x="628" 
d="M454 608q-120 -4 -155.5 -54.5t-35.5 -102.5v-361q-1 -57 -54 -109t-128 -52h-75v38h63q42 0 74 26t32 71v386q0 64 42.5 121.5t100.5 58.5v2q-58 1 -100.5 59t-42.5 122v386q0 45 -32 71t-74 26h-63v38h75q75 0 128.5 -52t53.5 -109v-361q0 -52 35.5 -102.5t155.5 -55.5
v-46zM5 1445l-31 -1805q-40 -141 -19 -56l211 -10q59 5 407 -26l25 205l42 1682q-18 5 -541 6q-84 0 -94 4z" />
    <glyph glyph-name="asciitilde" unicode="~" horiz-adv-x="881" 
d="M783 639l-39 -150q-67 -57 -119 -69.5t-97 -1.5q-47 12 -126.5 82.5t-125.5 81.5q-39 11 -90 -5t-129 -82l39 150q68 58 120 71t95 2q50 -13 129.5 -84t122.5 -82q40 -11 91 5t129 82zM71 1471l-98 -1787q-54 -140 -24 -55l265 -16q74 4 512 -35l37 201l107 1666
q-22 5 -681 20q-106 2 -118 6z" />
    <glyph glyph-name="exclamdown" unicode="&#xa1;" horiz-adv-x="628" 
d="M-708 -27l-3 8l4 13l1362 8l1 -7l-4 -14zM80 -298v53q5 875 33 875l232 1q52 0 52 -38l-8 -7l9 -37l20 -800l6 -38l-6 -8zM367 713l-254 -1l-15 14l-1 262q0 22 30 22l22 -6l37 6l23 -6l52 8l52 -7l45 7q30 -11 30 -22l1 -255zM37 1446l-76 -1787q-42 -140 -19 -55
l207 -16q57 4 398 -35l30 201l83 1666q-17 5 -531 20q-83 2 -92 6z" />
    <glyph glyph-name="cent" unicode="&#xa2;" horiz-adv-x="908" 
d="M670 1234l64 -32l-66 -138l-62 37zM178 98l-51 37l67 126l51 -42zM488 882l63 -33l-187 -400l-45 91zM417 1132h46q147 0 227 -83q62 -63 89 -131q27 -55 27 -88v-6q0 -71 4 -65l-216 -6q-12 63 -55 101l-85 41q-122 -37 -138 -148q-8 -31 -8 -88v-30q35 -207 94 -207
l42 -11q113 15 131 139q6 3 43 3l183 -4q11 4 15 -27q-4 -60 -65 -199q-105 -122 -179 -136q-21 -24 -118 -27l-89 3q-126 46 -174 106q-75 71 -91 122q-54 129 -51 185q-8 0 -9 60v11q0 51 28 206q20 56 48 106q118 136 201 148q0 17 100 25zM70 1627l-105 -1814
q-59 -141 -27 -56l287 -15q80 3 554 -36l40 204l116 1691q-24 5 -737 19q-115 3 -128 7z" />
    <glyph glyph-name="sterling" unicode="&#xa3;" horiz-adv-x="620" 
d="M280 904l53 -8q155 -26 171 -303l-119 -44l-7 12l9 9l3 52q8 109 -97 143q-66 10 -117 -119q31 -163 50 -166l107 -17l14 -24l-5 -62l-17 -19l-83 14l3 -54l-1 -21l-13 -71l111 -61l8 -1l58 64l16 -2q56 -55 63 -84q-61 -138 -147 -124l-23 4l-186 93q-25 4 -66 -53
q-87 70 -86 88q77 125 147 114l7 104l-13 24l-92 14l-13 24l4 62l17 19l53 -9l-20 151l2 32q14 192 209 219zM18 1630l-76 -1787q-42 -140 -19 -55l207 -16q57 4 398 -35l30 201l83 1666q-17 5 -531 20q-83 2 -92 6z" />
    <glyph glyph-name="currency" unicode="&#xa4;" horiz-adv-x="9180" 
d="M3354 663l18 -1l61 -10l-5 -141l9 -9l-9 -9l-2 -61l16 -27l-1 -27l-20 -69l18 -1l38 69h17q18 -1 16 -45l27 -1v9l-7 44l9 9l43 -19q24 5 45 42l1 18h-18l1 9l72 42l35 -1l43 -10v-9l-19 -35l8 -27l-8 1l-45 -8l-26 10l-99 -67l9 -9l-1 -9l-28 -61l16 -35l9 8l36 -1
l57 -116h-8l8 -27l61 -2l26 -27q-71 -15 -186 -12l-16 27l36 26v17q2 68 -101 144q-68 3 -91 -102l8 -27l53 -2l17 -18l-2 -53l-168 -12l-26 10l1 35l73 59v9l-2 203l10 26l-6 97l3 97l-61 10l1 27zM4329 613q61 -2 69 -46l-15 -184v-27l26 -1l108 76l61 -20l27 17
q44 -15 41 -89l-8 -238l17 -18l71 7l-2 -53q-1 -27 -97 -23l-62 2q-32 1 -52 28q1 37 81 50l-6 71l12 114q4 105 -67 107q-88 3 -146 -153l-4 -132q79 -3 77 -64l-203 -20l-17 27q21 61 55 60l26 -10l9 9v8l-2 203l17 228l-71 3l-25 27q1 26 80 41zM5824 564q48 -2 60 -46
l-23 -184l8 -27l26 -1l108 76l18 -1l26 -18l61 7q25 -44 23 -116l-5 -158l-10 -35l17 -27l79 6l-2 -61l-106 -14l-53 2q-46 1 -52 28v8q1 23 72 42l7 202q2 68 -41 90q-105 3 -163 -136l-5 -149q68 -2 78 -47q-1 -30 -213 -28l-7 27q1 48 80 50l5 132l-9 9l10 26l18 272
l-88 3l-8 36q38 33 89 32zM2210 674q43 -15 42 -63q-34 -95 -47 -95h-9q-88 18 -86 74q47 86 100 84zM8783 316l68 -55h18l63 42l35 -1l68 -64q-20 -92 -27 -290q52 -20 52 -37q-17 -52 -107 -49q-36 13 -52 46q45 21 47 68l4 150l-5 106h-17q-72 -41 -75 -120l-4 -132
q-1 -32 33 -72l-1 -17l-62 -16l-18 1q-49 1 -60 46q35 -2 41 165l4 115q1 44 -16 44q-73 3 -105 -234q11 -79 50 -81l-1 -26q0 -22 -98 -32q-35 13 -51 46v8q1 20 45 25l9 255q0 14 -35 28l-8 9l1 26l18 26l122 -30zM3990 466q227 -64 222 -219l-2 -44q-4 -126 -190 -169
q-227 70 -222 218q5 152 192 214zM7288 357q226 -66 221 -219l-1 -44q-4 -126 -191 -169q-226 64 -221 236q46 141 138 180zM8334 322q129 -4 205 -174l16 -71q-5 -135 -182 -187h-18q-151 5 -222 210v9q67 218 201 213zM6417 377q183 -50 179 -182l-2 -35h-17v-8l-44 10
l-35 1l-80 -6l-52 10q-36 -12 -36 -25q22 -61 59 -81l70 -2l81 59l9 -1q13 0 25 -36q-50 -130 -101 -128q-137 30 -215 156l-7 53q6 164 157 215h9zM2073 512q122 -4 164 -76l-11 -61l-6 -194l8 -35q-7 -189 -105 -235l-62 -15q-149 30 -147 93l1 17q2 74 65 113
q44 -14 42 -63l-9 -26q4 -36 69 -38l26 -1l27 26l1 17l-1 247l13 114l-114 4q-48 1 -61 37l1 17q5 26 99 59zM2802 488l88 -3q35 -19 34 -54l17 -1q64 51 125 49l27 -1q68 -52 67 -99l-8 -229q79 -2 78 -46q-7 -23 -46 -43l-114 4q-46 2 -52 28l1 35l72 42l-8 9l7 211
l-17 18l-27 1q-132 4 -137 -171l8 -9v-9l-10 -35l-1 -27q79 -2 77 -55q-1 -44 -107 -40q-57 1 -113 39l2 44l27 25l53 -2l8 238l-53 1l-26 28q7 52 28 52zM5247 407l88 -3l42 -54q70 50 151 48l9 -1q69 -52 67 -99l-7 -228q79 -3 78 -38q-14 -36 -46 -52l-114 4
q-46 2 -60 46q11 44 71 42l8 229l-26 27l-35 1q-99 3 -120 -172l-3 -79q79 -14 78 -47q-10 -52 -90 -50l-8 1q-74 2 -131 48l1 26l19 35l61 -2l8 237l-44 2l-25 27l1 26zM6795 356q28 -54 51 -55q83 50 124 49q114 -36 111 -118q-22 -52 -63 -51q-31 1 -51 72h9l-8 27h-17
q-32 1 -58 -148l24 -53l-19 -52l53 -2q31 -18 42 -54q-72 -51 -204 -46q-8 -44 -28 -44l-17 1q-26 10 -25 54l-35 1l-9 -9q-52 23 -51 64q1 29 125 48l8 238h-18v9l-53 -16l-43 37q2 53 152 48zM7753 324l9 -9l-1 -18l-26 1v9zM7955 317q141 -16 137 -110v-9
q-17 -31 -54 -42q-51 2 -59 73l-79 2q-36 -16 -55 -51l-3 -79q9 -97 59 -99q80 -2 152 83l35 -1l8 -44q-4 -113 -172 -144q-96 3 -178 226q50 201 209 195zM533 554l43 -37l-46 -51q-1 -60 -30 -131l-3 -88l8 -9q-38 -78 -90 -76q-53 1 -50 80q-15 1 -24 72h-9l-28 -43
l8 -27l-9 -8v-9l7 -36q-26 -43 -72 -41q-44 1 -69 301q-40 37 -87 38l-25 28v8q13 35 80 33h9q97 -3 96 -30v-9l-28 -34l29 -186v-17l17 -1l1 9q23 166 67 165l17 -1q29 -1 57 -142l9 -1q23 0 49 157l-25 45q1 31 98 41zM1096 535l43 -36l-46 -52q-2 -60 -30 -131l-3 -88
l8 -9q-38 -78 -90 -76q-62 2 -59 99q-11 0 -16 53q-35 -13 -37 -60l7 -71q-44 -34 -72 -33q-47 2 -69 302q-40 36 -87 38l-25 27v9q13 35 80 32h9q97 -3 96 -29v-9l-28 -35l29 -185v-9l17 -1q23 167 67 165h18q29 -1 57 -143h9q23 -1 49 157l-25 44q1 31 98 41zM1650 517
q40 -18 43 -37l-1 -17q0 -18 -27 -17l-50 -192l6 -79q-45 -52 -81 -51q-61 2 -58 99q-11 0 -16 53l-17 1l-20 -61l-2 -44l9 -9q-20 -52 -72 -50q-52 1 -62 266q2 61 -103 74l-17 27l1 8q15 35 62 33h27q96 -4 96 -30l-1 -9l-28 -43l30 -186h17q23 166 67 165l18 -1
q28 -1 57 -143h8q21 -1 50 157l-25 45q1 28 89 41zM4939 408h9q167 -6 162 -164l-23 -149l8 -26l17 -1l79 -20l-1 -18q0 -19 -63 -42q-78 23 -77 64q-127 -48 -195 -46l-35 1q-57 47 -76 91l1 26q4 132 277 123l9 9q17 -1 18 25q-11 37 -42 55l-97 3q-17 0 -19 -44l-53 -16
q-54 20 -60 46v18q43 69 161 65zM2345 485l34 -10l27 8l7 -44l-10 -53l-1 -26l9 -9l-1 -9l45 16l8 -9l-9 -26l6 -79l-12 -79l9 -9l17 -1q86 -3 120 146l3 105l-25 28l-44 1v9q1 35 107 32q68 -61 67 -100l-10 -34h-18q2 53 -16 54h-8l-1 -27l-14 -149h9q17 -1 28 52l18 -1
l-9 -8l-4 -97q0 -16 68 -73q0 -14 -53 -24l-105 30h-9l-97 -15q-113 4 -128 110l7 238l-70 2l1 26q0 15 54 25zM6360 247l-1 -18l62 -2l88 6l1 26l-78 38l-9 1q-63 -35 -63 -51zM3931 292l-4 -123l34 -37l53 -1q89 10 92 111l2 62q-18 44 -87 46l-44 2q-44 -16 -46 -60z
M7229 183l-4 -123l34 -37l53 -1q88 10 91 111l2 62q-18 44 -86 47l-44 1q-45 -16 -46 -60zM8267 149l-4 -97q-1 -47 34 -63l52 -2q89 11 92 112l2 61q-18 45 -86 47l-44 2q-45 -16 -46 -60zM4887 181l-44 1l-36 -34l-2 -52l34 -37l44 -1q151 37 154 109l-17 18zM1827 282
q78 -46 76 -99q-44 -78 -99 -76q-78 52 -76 90q2 62 99 85zM7631 90q78 -46 76 -99q-44 -78 -100 -76q-77 52 -76 91q2 61 100 84zM84 278l44 -1v-18l-19 -17h-8l-17 19v17zM647 260l44 -2l-1 -18l-18 -17l-9 1l-17 18zM1210 241l44 -2l-1 -17l-18 -17h-9l-17 18zM7107 -33
q40 -19 43 -37v-17q-10 -26 -54 -25q-26 7 -34 36q1 35 45 34v9zM-69 169l17 -1l26 -27l-18 -17h-9l-17 18zM494 150h17l17 -19l-1 -26l-17 1l-17 18zM1056 132l18 -1l17 -18l-1 -27l-17 1l-17 18v27zM2038 1506h35l26 -27l-1 -106l-19 -52l34 -115l-18 -17v-35l26 -1
q10 70 28 70h26q-1 -35 17 -36h9l9 53l9 -9l44 -1l27 35l-8 36v8l88 34q53 -12 53 -27q-1 -61 -36 -61l-1 -9l-8 9l-27 1q-66 1 -124 -122l-1 -35l17 -18h9l9 9h9q69 -77 69 -125l-1 -26l71 -1l17 -18v-9l-159 -15l-35 9l1 27q26 -1 26 17l1 26q0 66 -95 134h-9
q-79 1 -81 -105v-17l9 -9l-9 -9l-1 -26l27 -1q0 35 18 35h9l26 -27l-1 -17q0 -35 -167 -42q-35 14 -35 27v9q34 61 80 60q2 157 -15 203l9 44l-7 123l10 70q-70 7 -70 28v8q36 44 80 43zM2979 1485q66 -14 88 -46l-21 -193l9 -26l17 -1l107 78h26l27 -18l61 8
q26 -43 25 -115v-35l-12 -176l97 -1v-44q-1 -30 -177 -33q-35 14 -35 27l1 17q0 20 70 35l3 202q1 68 -43 89h-8q-102 1 -152 -139l-2 -150q68 -1 79 -45q-1 -30 -221 -32l1 18h-9q23 56 45 61l44 -1v9l-6 246l19 97l-9 9l1 9l9 35v35l-44 1q-45 0 -52 27v9zM4466 1464
q79 -20 79 -36l-12 -220l9 -9h17l107 78h26l35 -18l27 17q40 -1 51 -115l-11 -176l-1 -44l79 -1l18 -18q-1 -62 -142 -60l-44 1l-26 9v35q1 20 71 34v18l-8 62l10 79l1 35q-12 97 -43 97l-26 1q-86 1 -134 -139l-2 -150q58 -1 70 -36l-1 -26l-211 -15v18h-9q19 54 45 61
l44 -1l-5 229l11 185l9 -1l-9 27l-44 1l-44 9l1 26q0 16 62 43zM6393 1438h8l26 -27q-142 -115 -143 -218l-2 -123q-2 -109 129 -222v-17l-18 -17h-9q-174 139 -172 319l1 17q2 153 180 288zM7756 1420l62 -1q136 -2 207 -285l-1 -52q-1 -125 -126 -227l-150 -25
q-154 2 -217 241l1 44q3 244 224 305zM8354 1412q150 -2 216 -303v-44q-60 -228 -188 -226q0 -17 -88 -16q-168 2 -226 249l1 27q3 250 233 313h52zM6841 1423h9q139 -125 137 -283l-1 -27q-2 -204 -136 -306l-26 27v9q125 77 128 297q2 155 -138 249zM868 1496
q39 -18 43 -36v-9l-19 -105h-26q-64 1 -96 54q0 56 98 96zM7298 1408q150 -2 182 -205q-1 -108 -302 -215l-27 -53v-26l281 -4q53 -6 53 -27v-18q-13 -35 -80 -34l-238 3q-105 2 -104 55q2 176 329 285q36 47 36 79q-67 98 -157 99q-41 1 -115 -69l-35 10v26q81 96 177 94z
M8785 1388q167 -41 165 -143q0 -45 -80 -122q104 -63 103 -169q-2 -134 -187 -164q-141 2 -182 178q15 80 98 148l1 18q-61 62 -61 98v8q29 150 143 148zM7665 1192l-2 -167q-1 -51 77 -115l27 -1q115 -1 153 271q-66 168 -112 169h-9q-71 1 -134 -157zM8201 1158l-1 -114
q-2 -113 103 -142h27q124 77 127 271q-49 167 -130 169q-124 -85 -126 -184zM8731 1310l-1 -71q-1 -68 43 -88l18 -1q71 37 71 96l1 18l-44 44zM2669 1322q219 -63 217 -223v-18q-32 -184 -188 -182v-9q-228 63 -225 223q46 211 196 209zM5968 1277q219 -65 217 -223v-26
q-2 -130 -188 -183q-228 63 -225 223q46 211 196 209zM1481 1329q115 -8 114 -54l17 -1q45 32 124 52q88 -36 87 -98l-3 -238h35q44 -1 52 -36q0 -47 -88 -52l-53 1q-79 1 -79 54q1 35 71 34l3 202q1 48 -34 62q-150 2 -153 -253q75 -25 78 -45q-1 -53 -53 -52l-88 1
q-79 17 -79 63l36 43l9 -8l35 -1l3 238h-44l-26 27l1 26zM3918 1296l44 -9l9 -1l9 9q52 -1 52 -62h17q51 46 133 59q88 -36 87 -98l-4 -237l53 -1q20 0 26 -44q-17 -44 -71 -43l-62 1q-79 1 -78 53q0 21 71 52l-9 9l3 211l-26 27q-149 2 -153 -253q76 -25 79 -45
q-1 -53 -54 -52l-79 1q-68 1 -87 45q6 53 27 53l53 -1l3 237l-44 1l-35 36zM5088 1280q184 -44 182 -187l-9 -27l-70 10l-132 -7l-35 1l-18 -18q-1 -71 78 -89h44l89 60h8l26 -36q-46 -110 -98 -130q-131 32 -201 126l-34 79q50 220 170 218zM751 1330q111 -1 149 -63
l-10 -62v-17l8 -80l-10 -88l-1 -35l9 -9l-9 -8l-2 -124q-1 -67 -134 -130h-8q-158 25 -157 108q25 114 72 114q35 -1 33 -107l70 -18l54 17l-7 176l3 220h-35l-79 -7q-53 18 -53 35l1 18q41 61 106 60zM3610 1291q167 -2 165 -169l-11 -167q105 -15 105 -37q-23 -43 -71 -43
q-50 1 -87 54h-9q-93 -51 -186 -50q-105 40 -103 142q1 101 292 111l9 8v35l-35 36l-114 2q-1 -53 -53 -52h-27l-43 45q1 59 168 85zM5440 1266h18l52 -53q80 51 132 51q106 -23 104 -107q0 -41 -53 -61q-53 19 -52 71v35h-8q-53 -20 -54 -52l8 -35l-27 -70l35 -45l-19 -52
v-9l53 -1q35 -14 34 -62q-60 -34 -176 -33l-54 -60q-35 9 -34 62h-62q-31 17 -43 54q1 33 98 43l26 26l3 193l9 9l-9 26l-88 -7l-17 26v18q1 26 124 33zM6416 1253h27v-9l-18 -17l-9 9v17zM6645 1250q132 -14 131 -107v-9q-15 -35 -62 -34q-21 0 -61 62l-53 9l-9 1
q-41 -20 -62 -61l-1 -71q-1 -96 69 -97q85 -1 151 86q35 -10 34 -54v-8q-1 -93 -160 -139q-97 1 -191 223q3 166 214 199zM1023 1309l36 -1l17 -17l-1 -80l8 -44l27 18l17 -18l-2 -176l26 -9q115 55 116 148l2 105l-26 27l-44 1v17q6 26 71 26q72 -1 95 -99v-44l-10 -43h-17
l1 105l-18 1l-11 -167l18 -1q0 27 18 27l9 -1l-10 -96q47 -45 69 -45v-27l-44 -8l-132 28l-79 -25q-141 2 -139 160l3 185h-27l-44 10l1 17q6 27 70 26zM5034 1158l-1 -18l150 -2v9q-30 53 -78 54h-18zM2596 1164l-1 -105q-1 -48 34 -62l88 -2q62 32 64 140q1 74 -122 81
q-40 -14 -63 -52zM5895 1119l-1 -105q-1 -47 34 -62l62 -1q67 -1 80 87l1 61q1 71 -113 72q-40 -14 -63 -52zM8701 1028l-1 -96q10 -24 78 -63h35q36 14 72 69l1 70q0 44 -114 81q-48 -19 -71 -61zM3474 985q12 -36 43 -53h18q90 -2 177 94v9l-26 26l-9 1l-70 -8l-62 9
q-70 1 -71 -78zM5787 883l43 -35q-15 -44 -53 -44l-35 27v27q1 15 45 25zM8540 718h26v-26l-18 -18l-26 27zM8161 622l8 -1q97 -3 96 -29l-26 -8q-79 8 -79 29z" />
    <glyph glyph-name="yen" unicode="&#xa5;" horiz-adv-x="825" 
d="M217 1048l16 -6l47 -1l67 -6q30 -4 24 -61q6 0 12 -71l8 -6h5q9 -1 23 88q5 42 57 37l192 -20l34 -7l1 3q59 -9 58 -23q-16 -57 -196 -461q90 5 65 -78q-6 0 -80 -1q-44 4 -64 -91q-11 -33 136 -26q20 -61 -17 -114l-115 15l-1 -71l-14 -53l-3 -52q-22 -71 -53 -67l-1 -4
l-71 12h-44q-59 21 -163 36q-8 12 16 230l-128 23l20 87q100 -13 126 16q-6 116 -127 107q-1 44 1 69q110 -13 91 38q-60 226 -65 306q-20 49 -18 69q4 36 -16 75q2 22 101 11zM109 974q9 -63 27 -100q6 -79 23 -125q-3 -22 23 -128q-2 -20 20 -109l23 -183q-24 -18 -144 1
l-9 -37q-36 3 135 -25q-7 -27 -27 -215l39 -15l93 -14l31 -1l31 -5q53 3 55 20l2 99l12 123q23 -9 82 -8l56 -8l8 34l-143 11l3 72q16 56 61 148q2 26 37 89l42 109l71 179q11 12 17 31q-2 24 -21 26h-43l-68 11l-21 2q-49 5 -54 -37l-24 -61q-2 -26 -39 -157q-9 2 -54 -305
l-14 -15q-15 2 -13 265q7 156 -7 217q-6 114 -16 115l-115 12l-48 7q-19 3 -31 -23zM1083 408l1 -1l-2 -24q-19 -7 -22 -27q-7 -3 -20 -100l-1 -8l-2 -24l-1 -16l-3 -16q5 -62 17 -63q6 -1 6 -4l-3 -22l-2 -3q-4 0 -15 22q-11 0 -16 9v7q1 13 -7 27l-3 1q-3 0 -9 -15l-2 -1
q1 -13 5 -18v-3h-1l1 -1v-2q-4 -9 -10 -9q-7 1 -6 13l3 15l-1 13q2 17 21 16l3 4l2 11q-3 5 -3 10q6 6 6 10v2v13l6 16l-1 17q8 17 8 23l2 24q7 78 37 98q6 7 12 6zM917 20h4l6 -6l-1 -10q-1 -5 -11 -4l-11 10v3zM69 1710l-96 -1863q-54 -145 -25 -57l264 -16q73 3 508 -37
l37 210l106 1736q-22 5 -676 20q-106 3 -118 7z" />
    <glyph glyph-name="brokenbar" unicode="&#xa6;" horiz-adv-x="605" 
d="M130 493l111 -12l-62 -553l-112 12zM119 1005l120 -10l-35 -420l-119 10zM-10 1492l-76 -1787q-42 -140 -19 -55l207 -16q57 4 398 -35l30 201l83 1666q-17 5 -531 20q-83 2 -92 6z" />
    <glyph glyph-name="section" unicode="&#xa7;" horiz-adv-x="963" 
d="M522 1437q177 -28 176 -48q38 -3 120 -62q16 -7 50 -48v-8q-1 -12 -66 -81q-15 -34 -64 -65q-11 1 -42 29q-12 1 -62 42l-128 47q-59 5 -116 -29q-19 -21 -26 -51q-5 -51 84 -98l116 -46q38 -4 117 -47q25 -2 108 -71q63 -74 58 -126q15 -50 13 -67l-1 -14
q-3 -40 -40 -129q-59 -96 -66 -95l-241 129l-180 -176l94 -5q-38 14 -140 34q-112 53 -127 69q-100 65 -97 97q1 11 94 -95l192 -86l169 169q66 1 106 71l-9 43l-269 141q1 14 -83 44l-82 76q1 10 -26 43l-20 115l3 41q41 139 59 137q105 139 326 120zM-13 1386
q24 -1 51 -64v-4q-36 -69 -43 -104l-9 -15l-8 1l7 179l2 4v3zM446 1029q177 -28 176 -48q38 -3 120 -62q16 -7 51 -48l-1 -8q-1 -12 -48 57q-338 215 -553 51q180 -131 166 -132q-61 -54 -69 -84l84 -98q154 -50 132 -50l245 -139q27 -49 23 -101q14 -50 13 -67l-2 -14
q-3 -40 -40 -129q-58 -96 -142 -121l-45 -18q-9 -6 -163 -11l-43 3q-38 14 -140 34q-111 53 -126 69q-101 65 -98 97q1 11 97 105q12 23 27 27l22 -2q15 -1 45 -40q16 -1 52 -34l90 -45q16 -7 58 -12l55 -4q75 -6 116 64l1 18q6 75 -147 122q-26 21 -133 44q1 14 -83 44
l-82 76q1 10 -26 43l-20 115l4 41q40 139 59 137q104 139 325 120zM-89 978q25 -1 52 -64v-4q-37 -69 -44 -104l-9 -15l-8 1l7 179l2 4v3zM61 1630l-113 -1882q-63 -147 -29 -59l309 -16q86 4 595 -37l44 212l125 1755q-26 5 -793 20q-124 3 -138 7z" />
    <glyph glyph-name="dieresis" unicode="&#xa8;" horiz-adv-x="851" 
d="M260 1270q30 -8 57 -27q19 -17 23 -18l23 -37q15 -32 14 -46q6 -2 1 -65l-7 -27q-9 -34 -24 -55q-2 -8 -27 -35q-30 -28 -68 -39l-31 -5l-29 2l-15 1l-27 8q-57 25 -55 32q-10 3 -17 15q-8 2 -31 51q-17 58 -6 101l4 10l3 17q8 30 34 67q4 0 14 16q4 0 13 11q48 30 69 28
q1 6 56 2zM186 1105q-3 -12 -2 -13q0 -2 2 -10q3 -6 5 -7q0 -1 5 -3q1 -2 8 -4t11 -1q6 0 13 6l3 4q1 0 3 4q1 0 3 3h-1l1 2l2 8q2 5 1 14q-1 0 -1 4q-5 9 -8 10q-2 3 -9 5l-4 1q-7 1 -9 0q-5 0 -11 -4q-2 -1 -4 -4l-3 -4q-2 0 -5 -11zM640 1212q31 -8 58 -26q18 -18 22 -18
l23 -37q15 -33 14 -47q6 -1 2 -65l-8 -26q-9 -34 -24 -55q-2 -9 -26 -35q-31 -28 -69 -40l-31 -4l-29 2l-15 1l-26 7q-58 26 -56 33q-9 2 -17 14q-8 2 -31 51q-17 59 -5 101l3 11l4 16q8 31 33 68q4 0 14 15q4 0 14 12q48 30 68 28q1 6 57 1zM566 1048q-3 -12 -1 -13
q-1 -3 1 -10q4 -6 5 -7q0 -1 5 -4q1 -1 8 -3t12 -1q5 0 12 6q0 -1 4 3q1 0 2 4q1 0 3 4v0v1l2 9q2 5 1 13q-1 1 -1 4q-5 10 -8 11q-2 3 -9 5l-4 1q-7 1 -9 0q-5 0 -11 -4l-4 -4l-3 -4q-2 0 -5 -11zM43 1540l-100 -1688q-55 -132 -25 -52l271 -15q75 4 521 -33l39 190
l109 1574q-23 4 -695 18q-108 2 -120 6z" />
    <glyph glyph-name="copyright" unicode="&#xa9;" horiz-adv-x="1383" 
d="M656 213q-93 0 -173.5 49t-122.5 133t-42 175t43 176t123.5 133t167.5 48q25 0 49 -4.5t50 -15.5h6q12 0 17 21h27l48 -142h-29q-34 67 -86 89q-48 19 -97 19h-10q-56 -6 -109 -51.5t-80 -127.5q-22 -65 -22 -133q0 -18 1 -36q8 -87 46.5 -161t97.5 -110q48 -28 110 -30
q81 0 127 40.5t46 90.5h35v-72q0 -33 -63.5 -62t-159.5 -29zM717 1266q117 -10 228 -62q79 -52 93 -53l111 -121q73 -110 79 -162q24 -2 47 -238l-10 -104q-11 -130 -55 -218q-2 -31 -75 -144q-95 -124 -228 -190l-111 -35l-109 -13l-54 -4l-103 10q-227 57 -225 84
q-37 4 -73 44q-31 2 -146 168q-99 205 -84 369l8 40l1 64q10 117 82 271q13 0 41 65q13 2 42 51q158 140 233 147q1 22 209 41zM241 627q-15 -185 10 -188q0 -40 52 -141q61 -80 90 -90q-3 -14 77 -43q13 -20 121 -29q111 -10 171 16q82 16 164 111q8 -1 46 66q15 -1 27 65
q9 -1 29 54l-3 4l5 20l12 132q7 69 -30 191q-11 8 -23 57q-94 128 -137 133q-36 37 -146 48l-63 9q-101 -1 -122 -20q-82 -14 -151 -90q-22 -14 -54 -72l-34 -64q-21 -4 -41 -169zM1300 -423l93 1955q89 156 41 62l-465 1q-128 -8 -897 8l-57 -222l-115 -1823q39 -4 1193 19
q186 4 207 0z" />
    <glyph glyph-name="ordfeminine" unicode="&#xaa;" horiz-adv-x="525" 
d="M339 1214q10 -1 8 -19l6 -106l12 -162q-1 -9 9 -167v-2q-3 -4 -9 -3l-94 12q-9 1 -7 20q-1 35 -2 45l1 1v2q-1 20 -4 20l-80 10q-5 1 -13 -31l-16 -50l-7 -2l-95 12q-7 1 -7 4v3l142 419l2 8l4 4l1 1zM251 1116q-27 -94 -51 -164l4 -6h8l44 -5l4 4q-2 12 -5 113l-1 58h-3
zM11 1626l-63 -1975q-35 -154 -16 -61l172 -17q48 4 331 -39l25 222l69 1842q-15 5 -441 21q-69 2 -77 7z" />
    <glyph glyph-name="guillemotleft" unicode="&#xab;" horiz-adv-x="627" 
d="M3 1630l-76 -1787q-42 -140 -19 -55l207 -16q57 4 398 -35l30 201l83 1666q-17 5 -531 20q-83 2 -92 6z" />
    <glyph glyph-name="logicalnot" unicode="&#xac;" horiz-adv-x="641" 
d="M6 957l541 -37l-23 -298l-1 -1l-63 5l19 237l-478 33zM11 1630l-76 -1787q-42 -140 -19 -55l207 -16q57 4 398 -35l30 201l83 1666q-17 5 -531 20q-83 2 -92 6z" />
    <glyph glyph-name="registered" unicode="&#xae;" horiz-adv-x="1484" 
d="M730 1273q127 -13 240 -74t195 -161q80 -97 117.5 -221.5t25.5 -252.5q-13 -128 -74 -241t-163 -196q-101 -82 -222.5 -118t-252.5 -23q-127 12 -237.5 72t-194.5 161q-83 100 -120 221.5t-24 251.5q13 129 73 242.5t160 193.5q98 83 222 120.5t255 24.5zM286 1088
q-91 -75 -146.5 -178.5t-67.5 -222.5q-12 -120 22 -231t111 -204q77 -92 178.5 -147t219.5 -67q119 -12 230.5 21.5t204.5 108.5q93 77 149 180.5t68 220.5q12 118 -22.5 232t-107.5 204q-76 92 -180 148t-221 67q-119 12 -233 -22t-205 -110zM383 1116l403 -39
q97 -10 209 -88q76 -93 69 -154q5 -1 7 -46l-4 -44q-30 -130 -46 -128q-29 -55 -82 -81l-70 -33l-5 -15q26 -31 62 -113q11 -1 60 -106q42 -62 40 -77l-1 -8l-11 -10l-18 2l-25 6h-34l-40 4l-36 7h-34l-7 1q-51 59 -145 250q-27 47 -36 48l-37 7l-58 6q-37 4 -41 -40l-1 -52
l-5 -54l-10 -51l3 -19l-6 -14l3 -16q-11 -31 -37 -29l-106 11l-3 4l-4 -3l-37 3q-17 12 -15 31l77 783v33q9 22 21 24zM544 882l-2 -70l-4 -33l-5 -14l3 -11l-10 -58q-2 -19 31 -22l161 -16q78 -8 131 53l16 54q8 74 -48 108q-83 31 -115 35l-106 10q-48 5 -52 -36zM1 1495
l-46 -1866q-92 -150 -43 -60l500 13q138 11 965 18l55 213l74 1741q-42 3 -1282 -53q-200 -9 -223 -6z" />
    <glyph glyph-name="macron" unicode="&#xaf;" horiz-adv-x="1021" 
d="M115 1435l812 -115l-16 -185l-813 115zM65 1700l-119 -2011q-67 -157 -31 -62l325 -17q91 4 628 -40l46 227l131 1874q-27 6 -835 22q-130 2 -145 7z" />
    <glyph glyph-name="degree" unicode="&#xb0;" horiz-adv-x="660" 
d="M358 1368q49 -3 96 -23q35 -20 40 -21l47 -45q32 -42 35 -62q9 0 19 -89l-4 -40q-5 -49 -23 -82q-1 -12 -33 -55q-40 -47 -96 -71l-48 -14l-46 -5l-23 -1l-43 4q-98 22 -96 32q-16 1 -32 16q-13 1 -62 63q-42 78 -36 140l4 15v25q4 44 35 102q6 0 18 24q5 1 18 20
q66 53 98 55q2 9 90 16zM169 1128q-7 -65 4 -67q0 -13 20 -50q23 -28 35 -32q0 -4 30 -15q5 -7 48 -9q43 -4 66 4q32 7 66 40q2 0 18 24q5 -1 10 22q4 0 11 20l-1 1l3 8l3 46q3 25 -11 68q-4 2 -9 19q-37 46 -54 48q-14 14 -57 18l-25 2q-40 0 -47 -6q-32 -6 -60 -32
q-8 -6 -21 -26l-14 -23q-8 -1 -15 -60zM11 1630l-76 -1787q-42 -140 -19 -55l207 -16q57 4 398 -35l30 201l83 1666q-17 5 -531 20q-83 2 -92 6z" />
    <glyph glyph-name="plusminus" unicode="&#xb1;" horiz-adv-x="1090" 
d="M32 320l879 -132l-18 -212l-879 132zM451 711l-366 69l30 153l365 -68l75 407h2l147 -27l-77 -407l365 -68l2 -2l-29 -152l-367 69l-76 -407l-146 26zM87 1630l-124 -1957q-69 -153 -31 -61l338 -17q94 4 653 -38l49 220l136 1825q-28 5 -870 21q-135 2 -151 7z" />
    <glyph glyph-name="uni00B2" unicode="&#xb2;" horiz-adv-x="665" 
d="M337 1255q172 -49 165 -177l-3 -45q-7 -117 -264 -249q-62 -56 -67 -111l296 -18l12 -13l-4 -58l-13 -12l-371 22l-12 13l6 96q7 122 222 219q106 73 110 142q5 81 -109 109q-70 4 -106 -84h-6q-61 16 -79 31q61 145 183 137zM41 1486l-76 -1787q-42 -140 -19 -55
l207 -16q57 4 398 -35l30 201l83 1666q-17 5 -531 20q-83 2 -92 6z" />
    <glyph glyph-name="uni00B3" unicode="&#xb3;" horiz-adv-x="639" 
d="M276 1283q113 -11 153 -140l-4 -40q-6 -53 -77 -93l-1 -6q36 -4 86 -88v-58l-1 -11q-47 -171 -222 -153l-20 2q-142 14 -186 149l1 6l81 14q35 -89 124 -98q129 7 138 106q-24 105 -162 119l7 66l13 -1q120 -6 126 56l2 23q6 53 -79 76q-52 5 -111 -46q-73 16 -72 30
q60 102 170 91zM29 1630l-76 -1787q-42 -140 -19 -55l207 -16q57 4 398 -35l30 201l83 1666q-17 5 -531 20q-83 2 -92 6z" />
    <glyph glyph-name="acute" unicode="&#xb4;" horiz-adv-x="490" 
d="M308 1529l94 -64v-37l-103 -209q-144 -205 -184 -209l-54 37l137 204l-7 5q-27 18 -13 46l103 209zM22 1616l-57 -1774q-32 -138 -15 -55l156 -15q44 3 301 -35l22 200l63 1654q-13 4 -400 19q-63 2 -70 6z" />
    <glyph glyph-name="mu" unicode="&#xb5;" horiz-adv-x="1496" 
d="M-324 1772h4l3 -10l-103 -1741l-4 -7h-3l-4 7l103 1743zM-175 1764l243 -16q55 -43 55 -66q9 -14 20 -16v-19h-15l-53 18v-3l-8 -40q11 -52 36 -54l43 -60q-1 -25 -22 -39l-49 55q-11 0 -33 34q-28 1 -49 43q-57 14 -83 54q1 14 -34 21q-33 49 -48 50l-13 21v6zM136 1595
h3l11 -9l-5 -6h-9v15zM320 1437h8l12 -10v-11l-13 -8l-8 9zM174 1441l22 -1q9 -2 24 -37v-8l-10 -11q-42 17 -54 43zM252 1392q19 -1 86 -82l21 -7q22 -1 56 28h5q17 -28 39 -28v-7l6 6l34 -1l6 -7l6 5q45 -3 57 -69l-16 -45l20 -15l14 25l-4 46q18 -2 20 44l56 11l25 -1
q20 -15 45 -17l20 -1q25 -2 30 18l-2 15l16 7h8l17 -15l-7 -6v-2q4 -21 30 -23l106 -5q43 -3 39 -70l5 -5q5 -32 10 -32l-7 -25l-1 -30q-3 -37 11 -41l14 34l5 101q27 55 32 55l27 -7l37 11l55 -16q72 9 72 21l-4 26l5 3h7l13 -10l7 6l35 -3l-2 -6l-35 -18v-5l34 -12h19
l86 -16l32 18l3 -7l-32 -536h-3l-47 76h-5q-50 -67 -52 -98l4 -23q-72 -347 -91 -528l-6 -5l-1 -6l4 -43l-80 -15l-47 11l-61 -6l-152 19l-58 -12q-70 31 -63 158q-1 114 -16 115l-42 -185q-18 -64 -31 -64l-100 -3l-32 4l-60 -4l-45 11l-49 3h-57l-35 11l-32 -4
q-19 2 -22 298l-17 157l6 6l1 5q-15 90 -15 326l-14 107l5 58l-18 167l2 26q1 35 62 45l10 26q-22 13 -19 53l2 6zM1177 1312l12 -21q-18 -16 -34 -16l-14 19q0 9 36 18zM632 1192l2 -32q-30 -99 -40 -263q-18 -44 -36 -172q-38 -433 -46 -433l6 -35l-14 -8l-14 15l8 41
q-12 83 10 450v16l-2 25h3l-1 7l1 25q2 417 -19 418l-23 4l-19 2l-83 1l-81 9l-25 1q-21 -4 -22 -33l-2 -21l38 -718q11 -64 16 -260q10 -72 28 -74l14 -1l27 4l25 -7l54 3q35 -6 35 -14l25 4l107 -5q60 -5 71 187q25 71 79 465l7 14h5q14 -2 14 -245q14 -58 17 -270
q18 -32 17 -61l-2 -22l-7 -3q10 -78 28 -79l49 2l71 -9l192 -11q39 23 68 274q40 187 61 353q24 57 47 268q28 64 34 171q-10 30 -32 31l-27 -4h-8v5l-51 -2l-46 2l-73 10q-59 4 -76 -274q-20 1 -74 -580q-14 -79 -25 -79l-5 4l1 17q-3 201 14 577l-14 211l6 100
q2 35 -27 37l-32 -5h-8v7l-63 -2l-110 7l-30 6q-21 2 -43 -51zM556 1150l5 -26l14 -2l1 13l6 -1l-5 15zM1370 990l4 -32v-2l-22 -31l4 -35l-10 -57q10 -29 19 -30h5q10 0 22 33l-4 32l10 49v5l-10 35l34 29v7l-25 15h-9q-8 2 -18 -18zM1410 694h3l-7 -118l-8 1l-8 66l1 9
q1 37 19 42zM1397 562h8l-25 -427h-8l-6 6l-6 1l24 217l-6 81l16 71zM1369 86h8v-7l-10 -9zM60 1764l-177 -2074q-99 -162 -45 -64l483 -18q135 4 934 -41l68 234l195 1933q-40 6 -1242 22q-194 3 -216 8z" />
    <glyph glyph-name="paragraph" unicode="&#xb6;" horiz-adv-x="1318" 
d="M436 1278l268 -9q-14 -132 12 -133q-18 1 -23 -59l-41 -949q2 -54 -4 -54l-3 -64l-224 8l1 60q-3 0 0 69v21l-3 4l4 3l14 352q0 61 -26 62l-53 -2q-23 15 -97 29l-63 37l-40 37q-66 98 -65 131q-22 54 -21 131q3 68 42 159l44 78l58 51q45 14 60 26q47 12 131 17z
M707 1276l541 -20l14 -22l-1 -13l-10 -21l-4 -124l8 -22q0 -13 -40 -41h-19l-13 16h-11l-14 -14l-28 1l-15 15l-29 -27l9 -22l-1 -28l-16 -21l5 -9l-8 -218l-6 -37q14 0 14 -14l-1 -8l-15 -27l-1 -22q15 -1 14 -15l-7 -206l-11 -22l9 -15l-2 -78l-16 -21l5 -7l-6 -182l-6 -7
v-8l9 -14l-1 -15l-29 -27h-10l-14 14l-14 1l-15 -13h-4l-14 14l-91 3l-15 -13l-5 1l-28 29l37 1021l-144 6l-18 29l7 190zM73 1627l-155 -1965q-86 -153 -39 -60l421 -17q117 3 814 -39l59 221l170 1832q-35 5 -1082 21q-169 2 -188 7z" />
    <glyph glyph-name="periodcentered" unicode="&#xb7;" horiz-adv-x="589" 
d="M55 795h345l23 -23v-356q0 -30 -42 -30l-30 11l-53 -11l-31 11l-68 -11l-72 11l-60 -11q-42 15 -42 30v349zM8 1630l-73 -1961q-41 -153 -19 -60l199 -17q56 3 385 -39l28 221l80 1828q-16 5 -511 21q-80 2 -89 7z" />
    <glyph glyph-name="periodcentered" unicode="&#x2219;" horiz-adv-x="589" 
d="M55 795h345l23 -23v-356q0 -30 -42 -30l-30 11l-53 -11l-31 11l-68 -11l-72 11l-60 -11q-42 15 -42 30v349zM8 1630l-73 -1961q-41 -153 -19 -60l199 -17q56 3 385 -39l28 221l80 1828q-16 5 -511 21q-80 2 -89 7z" />
    <glyph glyph-name="cedilla" unicode="&#xb8;" horiz-adv-x="776" 
d="M330 163l-39 -130v-2h9q0 10 59 10h111q18 0 46 -25q31 0 92 -56q13 -23 38 -52l6 -44v-24q0 -83 -26 -98l-27 -42q-13 0 -29 -29q-16 0 -41 -28l-23 -2v2q-24 0 -45 -27l-14 -2h-171q-15 0 -40 25q-49 0 -62 21q-71 39 -71 71l-26 39v20l15 11h146q15 0 33 -38
q54 -44 79 -44h11q58 0 83 33q17 0 26 38v86q0 17 -62 54q-14 7 -38 7h-20q-44 0 -71 -27q-5 0 -41 -28h-8l-15 2l-21 -2q-79 0 -79 19q-7 6 18 23v11l7 23v25q11 38 55 188q11 4 81 1t54 -9zM28 147l-33 -612q-44 -53 -20 -21l240 17q65 7 462 30l28 71l44 572
q-20 0 -614 -49q-96 -9 -107 -8z" />
    <glyph glyph-name="uni00B9" unicode="&#xb9;" horiz-adv-x="687" 
d="M413 1264q54 0 54 -52v-149l-6 -97l6 -6v-5l-6 -20l6 -6v-5l-6 -5l6 -51v-46l-6 -21l6 -21v-62l-6 -4l6 -6v-25q-13 -26 -60 -26h-119l-25 10v391q0 27 -17 31q-22 -15 -42 -15h-48q-19 2 -30 67l-6 -6h-12v88h12v-11h6l174 42zM45 1435l-76 -1787q-42 -140 -19 -55
l207 -16q57 4 398 -35l30 201l83 1666q-17 5 -531 20q-83 2 -92 6z" />
    <glyph glyph-name="ordmasculine" unicode="&#xba;" horiz-adv-x="668" 
d="M303 1257q139 0 210 -169q14 -25 14 -97q0 -212 -208 -259h-30q-121 0 -194 157q-21 51 -21 102q0 178 164 254zM176 998v-12q0 -101 97 -136h51q97 34 97 102l5 34v26q-23 127 -128 127q-102 0 -122 -141zM40 1608l-76 -1787q-42 -140 -19 -55l207 -16q57 4 398 -35
l30 201l83 1666q-17 5 -531 20q-83 2 -92 6z" />
    <glyph glyph-name="guillemotright" unicode="&#xbb;" 
 />
    <glyph glyph-name="onequarter" unicode="&#xbc;" horiz-adv-x="1081" 
d="M667 965q40 -43 48 -67l-563 -525q-15 -5 -50 64q550 523 565 528zM353 1265q42 0 42 -41v-119l-4 -79l4 -4v-4l-4 -17l4 -4v-4l-4 -4l4 -41v-37l-4 -17l4 -16v-50l-4 -4l4 -4v-20q-10 -21 -47 -21h-96l-19 8v313q0 22 -14 25q-17 -12 -33 -12h-39q-15 2 -24 53l-4 -4
h-10v70h10v-8h4l139 33zM663 760l68 -8h116q14 -2 28 -34l-8 -60v-14h8l-8 -34v-279q4 -41 21 -41h13l35 7q26 -37 26 -61v-102q0 -26 -87 -34l-8 -7v-21l8 -27l-8 -20l8 -34q-10 -34 -49 -34h-170q-20 7 -20 41v47l7 41l-7 20h-354q-40 14 -47 170l360 429q14 0 14 28
q24 19 54 19v8zM507 297l7 -7h6l55 7l54 -7l7 7v164h-7l-122 -157v-7zM89 1630l-125 -1995q-71 -156 -33 -62l344 -17q95 4 663 -39l49 225l138 1859q-28 6 -882 22q-138 2 -154 7z" />
    <glyph glyph-name="onehalf" unicode="&#xbd;" horiz-adv-x="933" 
d="M569 637q191 -36 191 -157v-42q0 -109 -272 -246q-63 -57 -66 -109h323l15 -12v-54l-15 -12h-404l-14 12v90q0 114 227 217q110 74 110 138q0 77 -124 97q-77 0 -111 -85h-7q-67 11 -88 24q58 139 191 139h44zM631 911q35 -35 42 -54l-498 -422q-14 -4 -45 52
q487 420 501 424zM298 1287q36 0 36 -47v-136l-3 -89l3 -5v-4l-3 -19l3 -5v-4l-3 -5l3 -47v-42l-3 -19l3 -19v-56l-3 -4l3 -5v-24q-9 -23 -40 -23h-82l-16 10v355q0 25 -12 29q-15 -14 -29 -14h-32q-13 2 -21 61l-4 -5h-8v79h8v-9h4l118 38zM87 1638l-102 -1999
q-57 -156 -26 -61l277 -18q78 4 536 -39l39 225l112 1863q-23 6 -713 22q-111 2 -123 7z" />
    <glyph glyph-name="threequarters" unicode="&#xbe;" horiz-adv-x="1054" 
d="M780 1031q42 -46 50 -72l-595 -555q-16 -5 -53 68q582 554 598 559zM692 715l63 -7h107q13 -2 25 -33l-6 -59v-13h6l-6 -32v-270q3 -39 19 -39h12l32 6q24 -35 24 -59v-98q0 -25 -81 -33l-6 -7v-20l6 -26l-6 -20l6 -33q-8 -32 -44 -32h-157q-19 6 -19 39v46l6 40l-6 19
h-327q-37 14 -43 164l333 414q12 0 12 27q23 19 50 19v7zM548 268l6 -6h6l51 6l50 -6l6 6v158h-6l-113 -151v-7zM251 1291q113 0 164 -128v-41q0 -56 -66 -105v-6q36 0 93 -82l6 -58v-12q-30 -181 -204 -181h-20q-140 0 -197 135v5l79 24q42 -88 132 -88q125 20 125 123
q-35 105 -171 105v70h13q118 6 118 70v23q0 56 -85 70q-52 0 -106 -58q-72 9 -72 23q48 111 158 111h33zM34 1540l-31 -1885q-63 -150 -29 -60l345 2q95 8 666 -4l38 214l49 1758q-28 4 -884 -24q-138 -5 -154 -1z" />
    <glyph glyph-name="questiondown" unicode="&#xbf;" horiz-adv-x="976" 
d="M489 -132q-51 -11 -226 8l-125 81q-51 58 -65 112l-2 10q-13 51 -11 70l-4 2l-1 3q5 105 45 142q11 39 79 100q93 101 127 116q102 132 93 165q8 19 17 21l-1 6q-12 45 82 72q2 -8 58 -1l29 10q19 -3 22 -13q12 -77 2 -96q-1 -82 -35 -123q-19 -62 -25 -64
q-39 -61 -87 -108l-115 -113q-34 -60 -25 -95l4 -18q18 -40 42 -53q24 -22 62 -14q1 -6 26 -3l23 5q62 20 103 78q20 38 54 45q30 -29 62 -32q3 -10 90 -64l2 -7q-25 -69 -113 -155q-57 -40 -187 -87zM520 810l-20 -4q-72 26 -75 39l-21 23l-14 54q7 108 90 125
q64 14 90 -13q30 7 56 -57l8 -33q8 -30 -42 -103q-39 -24 -72 -31zM62 1630l-113 -1954q-64 -153 -29 -61l309 -17q86 4 598 -38l44 220l125 1822q-26 5 -796 21q-124 2 -138 7z" />
    <glyph glyph-name="Agrave" unicode="&#xc0;" horiz-adv-x="1070" 
d="M524 1355l3 -6l-4 -11h-1158l-1 5l3 12h1157zM265 1515l19 -12q312 -205 307 -216l-49 -92q-10 -21 -24 -12l-1 5l-15 5l-291 178l-15 5l-2 5zM633 1160q25 -1 24 -48l42 -274l68 -416q0 -22 64 -427v-6q-5 -11 -21 -10l-232 7q-23 1 -22 52q-10 91 -16 116l2 2v4
q-7 52 -14 52l-197 6q-13 0 -25 -83l-25 -135l-18 -5l-234 7q-14 0 -17 9v8l241 1118l3 20l9 11l2 3zM445 886q-44 -252 -84 -437l10 -15l20 2l108 -4l10 12q-8 30 -41 290l-18 152h-5zM61 1615l-118 -1955q-66 -153 -30 -61l321 -17q89 4 620 -38l46 220l129 1823
q-27 5 -825 21q-128 2 -143 7z" />
    <glyph glyph-name="Aacute" unicode="&#xc1;" horiz-adv-x="1003" 
d="M1248 92l4 -11l-1 -5l-1115 -11l-3 10l2 6zM845 1411l-2 -4l-15 -3l-303 -112l-15 -3l-2 -4q-14 -5 -21 15l-33 89q-3 11 323 144l20 8zM745 1236l1 -3l7 -12l1 -18l64 -1033l-1 -7q-3 -8 -17 -5l-223 29l-16 8l-5 124q1 76 -12 78l-187 25q-7 1 -21 -44l-1 -3l2 -2
q-10 -22 -33 -101q-6 -46 -28 -43l-221 30q-15 2 -19 12l1 5q120 351 124 371l125 359l80 238q6 42 30 39zM529 1010l-39 -132q-69 -226 -81 -252l8 -12l102 -14l19 -4l12 11q-11 171 -15 402zM845 -394l227 1908q71 149 32 59l-302 18q-84 -3 -582 41l-56 -215l-230 -1778
q25 -6 777 -25q121 -3 134 -8z" />
    <glyph glyph-name="Acircumflex" unicode="&#xc2;" horiz-adv-x="1000" 
d="M1198 278l4 -1l-6 -3h-2116l-3 2l6 2h2115zM700 1244q28 -1 27 -52l46 -294l74 -445q0 -23 71 -457v-7q-6 -11 -23 -10l-256 8q-24 1 -23 55q-11 97 -19 125l3 2v4q-8 56 -15 56l-216 6q-15 0 -28 -89l-28 -144l-20 -6l-257 8q-16 0 -18 9v9l264 1197l3 22l10 11l3 4z
M493 950q-48 -270 -91 -468l10 -15l23 1l118 -3l10 12q-8 32 -44 310l-21 163h-5zM266 1355l217 297l28 31l218 -353l-115 -60l-112 192l-119 -176zM1025 -331l-62 2040q53 167 25 67l-332 -28q-92 -17 -642 -49l-26 -234l38 -1905q28 -2 851 96q133 16 148 13z" />
    <glyph glyph-name="Atilde" unicode="&#xc3;" horiz-adv-x="874" 
d="M240 242q-23 1 -22 41l-35 235l-56 355q1 18 -53 365v5q5 9 19 7l211 -8q20 -2 18 -45q8 -77 14 -99l-2 -2v-3q6 -45 12 -45l177 -7q13 0 24 70l25 115l17 5l211 -10q13 0 15 -7v-7l-230 -950l-4 -17l-8 -9l-2 -3zM413 474q43 214 80 371l-8 12l-18 -1l-98 4l-8 -10
q6 -25 33 -246l15 -130h4zM80 45l31 110q51 41 89.5 50t72.5 0q35 -9 93.5 -61.5t92.5 -61.5q29 -8 67 3t97 59l-31 -110q-51 -42 -90 -51t-71 0q-37 10 -95.5 63t-90.5 61q-29 9 -67.5 -2.5t-97.5 -59.5zM862 -354l25 1921q55 155 26 62l-302 -14q-84 -12 -584 -20
l-33 -220l-42 -1793q25 -3 775 57q121 10 135 7z" />
    <glyph glyph-name="Adieresis" unicode="&#xc4;" horiz-adv-x="1090" 
d="M454 1604l69 -7l41 -1q46 -7 51 -11l-20 -253q-1 -9 -29 -7l-133 10q-76 5 -75 21l13 4l-12 7l17 230q13 12 78 7zM777 1583l13 -2l12 -1l63 -5q70 -5 68 -20l-1 -6l-11 -9l10 -18l-15 -186l-12 -13l10 -10q-11 -12 -41 -9l-117 9q-74 5 -78 13l19 255q2 7 80 2z
M818 1238q29 -3 24 -52l28 -291l46 -442q-1 -22 42 -453l-1 -5q-5 -12 -24 -11l-263 24q-25 2 -20 55q-4 97 -10 124l2 3l2 2q-6 57 -15 57l-220 19q-16 2 -34 -85l-39 -140l-21 -4l-264 22q-17 2 -18 12l1 8l353 1158l5 21l11 11l2 4zM586 962q-68 -261 -127 -454l12 -16
h22l122 -10l10 12q-6 33 -23 308l-9 160h-7zM1064 -395l49 2048q65 163 30 65l-349 -13q-96 -12 -700 26l-13 -274l-111 -1724q29 -3 943 -107q139 9 151 -21z" />
    <glyph glyph-name="Aring" unicode="&#xc5;" horiz-adv-x="1129" 
d="M768 1247q29 -2 24 -52l29 -293l46 -445q-2 -23 42 -457l-1 -5q-6 -12 -24 -11l-265 24q-25 2 -20 55q-4 98 -11 126l3 2l1 3q-5 57 -14 57l-222 20q-16 1 -34 -86l-40 -142l-21 -4l-266 23q-17 1 -18 12l1 8l355 1167l6 21l10 10l3 4zM534 969q-69 -263 -128 -457
l12 -16h22l123 -10l11 12q-7 33 -24 310l-9 161h-7zM591 1790h29q98 -16 98 -27q21 0 66 -49q23 -25 36 -71q19 -48 19 -91v-8q0 -71 -45 -160q-44 -54 -56 -54q-16 -17 -51 -30q0 -5 -86 -22q-48 0 -122 22q0 5 -31 17q-55 45 -64 72q-35 52 -35 139q0 62 22 108
q10 40 61 91q39 31 79 46zM513 1543v-37q8 -50 20 -50q9 -18 44 -29l20 -1h6q28 0 50 18q27 22 27 54l1 8v23q-9 59 -21 59q0 16 -41 29l-20 1q-37 0 -64 -24q-15 -18 -22 -51zM954 -386l277 2130q87 166 39 65l-368 21q-104 -4 -734 82l-46 -277l-251 -1819
q30 -6 1070 -223q-4 27 13 21z" />
    <glyph glyph-name="AE" unicode="&#xc6;" horiz-adv-x="1698" 
d="M839 1194q24 -6 13 -53l-15 -279l-21 -424q-5 -22 -27 -436l-1 -5q-7 -10 -22 -6l-234 49q-21 5 -10 55q9 92 8 119l3 2l1 3q4 21 -4 22l-136 27q-13 18 -41 -30l-52 -130l-18 -2l-251 51q-14 2 -14 11l2 8l455 1064l7 19l11 10l3 3zM584 867q-81 -195 -147 -337l6 -13
l17 -2l88 -18l10 8q-1 25 18 237l12 124zM932 1198l49 -10l598 -43l51 3l14 -26l-10 -197l-7 -25l5 -19l-37 -15l-110 19l-191 7l107 7v6l-5 -6l-24 8l-47 -9l-19 1l-15 14l-21 -22l-2 -32l14 -20q-7 -46 -18 -60l-2 -43l20 -14l10 12l5 -7l25 5l44 -16l37 10l-57 -10
l116 -2l35 -9l60 2l11 -1q28 -18 26 -65l5 -6l-11 -17l-2 -38l4 -25l-6 -17l2 -51l-11 -17l9 -32l-16 -11l-310 30l-11 -12l-1 -30l9 -20l-1 -12l-11 -18l-1 -30l1 -70l-6 -36l4 -7l381 -35l9 -13l-11 -216l10 -19q-35 -5 -36 -17l-59 17l-674 48l-5 7h-5l7 31l57 1149z
M1734 1198l-1686 207q-131 61 -52 27l-19 -250q2 -70 -42 -482l-65 -1084l1754 -33q77 880 102 1503q4 101 8 112z" />
    <glyph glyph-name="Ccedilla" unicode="&#xc7;" horiz-adv-x="964" 
d="M418 161l-25 -81v-2h5q0 7 38 7h71q11 0 30 -17q20 0 58 -34q9 -15 25 -33l3 -27v-16q0 -51 -16 -61l-18 -26q-7 0 -18 -18q-10 0 -26 -18l-15 -1v1q-16 0 -29 -17l-9 -1h-108q-10 0 -27 15q-30 0 -39 14q-45 24 -45 44l-17 25v12l10 7h93q10 0 21 -23q35 -28 51 -28h7
q37 0 53 21q10 0 16 23v54q0 11 -39 34q-9 4 -24 4h-13q-28 0 -46 -16q-3 0 -26 -18h-5l-10 1l-13 -1q-50 0 -50 12q-5 4 12 14v7l4 15v15q6 24 35 118q6 3 51 1t35 -6zM478 1316q242 0 363 -134q36 -34 57 -126l8 -34l-5 -13v-53l5 -22q0 -12 -51 -14l-9 2l-5 -2l-21 2
l-52 -2l-29 2l-25 -2l-43 2l-35 -2q-8 0 -26 14l3 12l-3 27l3 26l-3 20l3 10q0 52 -63 100q-46 14 -75 14q-97 0 -127 -58q-11 -35 -11 -80v-554q0 -85 71 -112l35 -4h54q75 0 107 49q9 30 9 70v74l-3 38q0 12 40 17h18l52 -2l60 2h8l58 -2l9 2q51 -2 51 -14l-5 -37v-114
q-12 -77 -46 -117q-114 -141 -377 -141q-283 0 -397 163q-32 65 -32 99v626q0 31 24 93q32 55 97 98q65 45 167 63q57 12 141 14zM980 -366l-3 1938q58 158 27 63l-331 -18q-91 -14 -639 -29l-33 -222l-18 -1809q28 -2 849 69q132 11 148 8z" />
    <glyph glyph-name="Egrave" unicode="&#xc8;" horiz-adv-x="1015" 
d="M647 1608h17l7 -6v-7l-7 -6q0 5 -13 10l-4 3v6zM664 1552h7v-23l-7 -7v30zM90 1531h6l24 -2v2q11 -1 26 -23l-7 -6h-49l-7 6v17zM183 1502l7 -7v-19l-7 -8l-6 8l6 6v3l-6 10zM624 1502h40l7 -7l-7 -6h-40l-7 6zM837 1395l8 -7v-14q0 -6 -15 -6v-20l-6 -6h-20
q0 -12 -23 -34v-7q13 0 40 -33q21 -13 39 -13l11 -13v-54l-7 -10v-23l4 2q16 -4 16 -9v-4q-8 0 -9 -17l-4 -2h-3l3 -4v-20l-7 -10v-17q20 0 20 -19v-15h10v-2l-6 -7q-20 0 -20 24l-14 2q-9 0 -9 -17h-4l6 -26l-2 -4l-17 4q-48 -27 -83 -34v-6l2 -4v-3q-15 -16 -23 -16l-3 3
v3l3 4h-53v-4h6v-10h-6v-3q18 -30 27 -34l19 11h13l15 -13v-4l-8 -11h70l27 17q30 -11 30 -34v-15l-19 -23v-8q0 -9 26 -9l6 -11l-6 -6v-47l6 -10v-64l4 -13l-10 -17v-26q13 0 13 -7v-7l-13 -13h-13v6h-13l2 -2v-4h-2l2 -3v-8q0 -5 -23 -15h-3l-17 2l-20 -2h-7
q0 -15 -13 -15l7 -13l17 4h6q43 -11 43 -17v-6l-7 6l-26 -20l26 -43v-4h-6v-3q-34 4 -34 13l8 7q-14 5 -14 10l14 20v4l-17 6l-13 -4v4l-34 -10q0 -20 24 -20l-7 -6h-27v56q13 0 13 14h4l-4 9h-26l-4 -3l-3 3h-46q-22 -13 -38 -13l-3 4h-4q-19 -4 -19 -17l-17 -4l-4 4h-9
v-17q0 -6 -27 -6l-7 -11v-19h28l6 -7v-4l-17 4h-6l-11 -10v-13l11 -11h19l11 7l6 -20q13 0 13 -7l-6 -10v-10l23 -6h6q6 6 38 6l-8 10q24 17 34 17l4 -4l-4 -16v-7h21v13l-10 14q16 0 16 7q8 26 13 26q7 0 7 -24l13 -9h21l30 20q10 -12 13 -51q9 -9 27 -9q0 -19 19 -27h17
v10h4l9 -10v-13h-6v-4l6 -9v-8h-6v-6q13 0 13 -7v-23h-3l-10 4v-51l13 -24q0 -6 -13 -6v-26l4 3h2l7 -11l-7 -9l7 -10q-13 -15 -16 -28l-4 -2v-24l4 3h3l6 -9v-4l-2 -3l2 -3v-4l-13 -13h-4l-9 6h-6l-4 -13l4 -10l-21 -9h-7l-16 9l3 4v2q0 8 -20 11l-26 -20l-7 7l-6 -7h-51
q0 -14 -13 -17l-10 3l-7 -7h-67l-10 11l3 4q-16 0 -23 6l-9 -6h-15l-9 6h-23q0 -14 -8 -14h-47l4 -3v-4l-10 -6h-20v6h-21l-9 11l3 4h-36q0 7 -17 9l-3 4l-4 -4l-4 4v-4l-2 4h-7v-13l-10 6h-4q-13 -6 -13 -14q-7 0 -7 21l-23 10q-23 -5 -23 -14h-7v6h-6q-81 8 -81 41
q-17 25 -17 44v2l17 -2l7 9v4q0 14 -10 27l-10 -4l-6 20v10q-15 0 -15 6l8 11v30l7 10v50q-21 0 -21 6l-17 -3h-9l-7 7v19q-14 0 -14 8v9l6 7h55l7 -7v-19h2l4 2h3l4 -2l3 43l-16 23v7l6 7l3 -4h4v20h-7v40l-6 11v33l6 10v97l7 10v7l-13 23v57l6 10v29q-6 8 -6 24h-4l-3 -3
h-4l-4 3h-2l-4 -3h-3l-4 3h-2l-11 -3v3q0 6 -10 6l-3 4v30l7 7h26l6 -7v-13q0 -10 -13 -10l4 -3v-4l-4 -4h28v44l2 13l-2 13v32q9 11 9 23q0 10 -9 23v7l6 9v21l-6 17h-4l-24 -11v17l7 7h21v130l6 27l-6 26v44q0 5 32 13q0 12 51 20q0 7 10 7l9 -7l31 7v7q0 12 -14 26v14
l7 7h17q20 0 20 -24l-4 -10h4l37 -13h36l10 6h13q7 0 7 -13h51l10 7h33l33 -4l30 4h11l19 13h21l32 4l4 -4l7 6h10l20 -19h10l10 6h13l11 -6h17l23 9l9 -3v11q-26 13 -26 30h-4l-2 -4h-4l-4 4v13l8 6h2v-6l4 4h3l21 -4l15 10l-2 3v6l6 8h36q0 13 7 13zM347 1391h3v-9l-7 -8
l-6 11zM254 1388l2 -3v-11l-6 -6l-3 4v10zM420 1361l10 -13l-6 -6h-21q0 -15 -7 -15h-19q0 15 -10 15v6zM163 1359q20 -6 20 -11q0 -6 -27 -10l-3 -3q-9 0 -16 -23v-38l-7 -6q-1 10 -47 23v4l7 6h19v7h-19l-7 6v4h54v17q9 24 26 24zM517 1344h13v-2l-13 -15l-6 8v3z
M594 1342h17l6 -7v-10q-23 4 -23 13v4zM688 1338h13l6 -13v-11q-30 3 -30 11v2zM1018 1308h6q0 -16 21 -27v-26l-21 -20h-13l-19 24l9 2v20q17 19 17 27zM320 1244l-26 4l-31 -4h-43l-13 4q-9 0 -21 -21l6 -213l-2 -13l2 -27v-43l-2 -14l2 -13v-41l4 -36l-4 -10l4 -17
l-4 -24l8 -340l-4 -3l4 -23v-268q0 -23 24 -23l53 4l9 -4l40 4h334l30 -4l17 4l23 -4l45 4l15 -4q9 0 17 17l-3 26l3 67v3l-3 57l3 47l-26 17l-36 -7l-17 3l-194 -3l-40 -10h-7l-16 17v2l6 64v100l-10 57q0 26 20 41l107 -7l73 3h121q16 0 16 20h3l-3 3v74l3 11l-3 16v73
l3 20q0 19 -26 23l-67 -3v3l-3 -3h-187l-27 -6h-17l-13 9l4 51v36l-4 24l6 6v8l-9 47q5 14 23 26l56 -7l117 4l24 -4l53 4q25 0 38 -8q18 0 32 17l-3 40v115l3 19q0 13 -30 24q-57 -11 -457 -11zM643 1208h21l34 -11q4 -16 23 -16l3 -13l4 3h2l4 -3l7 6h4l6 -13v-13
q-6 0 -14 -17q0 -10 14 -10v-13l-10 -11l-4 4l-7 -6h-19q0 -11 -17 -11q-25 20 -57 20l-3 4v2l17 17q-21 0 -21 7v21q-13 0 -13 6v13q0 7 20 7zM90 1201l6 -13l3 3h4l6 -7v-6l-13 -27v-24q17 0 17 -6v-73h3v77l4 2h2l4 -2v-81l-6 -10l-4 4h-3q-9 0 -10 -13l-4 -4h-33
q-10 4 -10 19v28q0 6 13 6v47q0 6 14 6l-4 47q3 27 11 27zM290 1195h19q19 -14 30 -14h34v-7q-6 0 -6 -9l-24 -14l-4 4q-14 -7 -15 -13v-8l15 -7h21l13 11h10l3 -4h4l4 4v4l2 -4h7v17q0 6 38 10l2 3h7q13 -13 27 -13l13 26l13 3l17 -3h23q3 14 11 14h4l23 -14h16v-7h-7v-30
l4 -17h-27l-30 -26h-7l-10 7h-7l-10 -7h-6l-10 9l3 4l-3 4l10 9h-3l-4 -2l-3 2h-10v-6h-13l-8 6h8v4h-4l-19 -13h-4v-21h19v-17q-14 -10 -32 -42v-4l6 -9v-149l3 -13l-13 -33l10 -24h34q7 0 7 15l2 2h4l10 -6l10 4v-4l3 4h3l8 -7v-10l-24 10l-14 -10q7 -24 14 -24h24v20h19
q3 -13 24 -13q0 -8 13 -13q0 -13 -17 -13v-8h40l7 -6v-41l-7 -6h-26v-13h13l64 -7l13 3v-3l17 7v13h-47l-7 6v51q25 27 58 27l23 22h19v-9h-6v-4h19l-2 4v9h17l6 -6v-39q-11 -34 -21 -34v-21l-6 -6h-20v-7l3 -2l30 -11v-4l-20 -19q-11 0 -23 10h-17l-10 -8h-7l-2 4l-4 -4h-3
l-17 4l-47 -4h-3l-30 4q-15 -6 -54 -6l-3 2l-37 -15l-10 2q-30 -49 -30 -80l4 -3v-4l-7 -40l7 -6l-7 -7v-30q-11 -17 -27 -17v-23l-4 -3v-4h17v-19q18 -20 23 -55l-2 -9l6 -6l-6 -8v-3l19 -36l24 -21h40l10 7q7 -7 30 -7l13 -17l-2 -2q6 0 6 -17h3l50 -4l20 14v7l-7 10v3
l21 21l9 -8l17 14h13l17 -14h4l23 10q17 -4 17 -10v-16l-4 -10l4 -17v-37l-14 -23v-4l4 -2v-4l-27 -7l-7 7l-6 -7h-41l-23 7v4l6 9v10l-23 30h-3v-7h-20l-10 -6h-23q0 -17 -34 -21q0 -9 30 -13v-6h-147l-27 -7h-19l-28 7h-49q-7 0 -7 13q-15 0 -27 14v13l21 6v7h-17l3 4v19
h-7v24l-6 10v43q0 7 20 7q0 14 13 14v9l-6 10h6v30q-13 0 -13 11l13 29v4h-20l-7 7v43q7 8 7 23h7v30l-7 10v37h-7v4l7 10v96h7v7l-3 -3h-4l-3 3v4q0 6 10 6v7q-7 0 -7 17q-8 0 -20 27v6l11 24l-11 30v36l-6 10v41l10 32l3 4l-3 3v4l3 10l-7 6v154l11 10l2 -4v7q-8 0 -9 17
l-4 4zM413 1114l-4 -13h15l-7 13h-4zM877 1110h7v-13h-7v13zM992 1097h6v-26h-6v26zM363 1084l4 -10h6l10 10l-10 3zM330 1021q0 -28 -27 -34q-20 0 -20 -9v-21q12 -19 17 -53q16 -9 16 -24h8v11h2l4 -4h3q0 10 6 10l11 -4v4l4 11l-4 15v38q0 6 13 6v17l-7 26v11h-26z
M83 991h7v-70l-7 -7h-8l-6 7v40q0 6 14 6v24zM868 991h7v-21h-7v21zM877 984h7v-30h-7v30zM350 834v-7h13v7h-13zM333 774l4 -13h2q0 9 11 15q0 17 10 17v13h-6q-21 -15 -21 -32zM403 806l-7 -13l7 -6q-9 0 -9 -7h9q0 9 17 11l4 2v13h-21zM537 761v-8h10l-6 8h-4zM90 740
l6 -10v-24l-6 -6h-7v34zM1228 730l4 -3v-130l-6 -8l-4 4v130zM945 714l6 -10v-24l-6 -6h-24l-10 9v8l7 13h20q0 10 7 10zM66 700h17v-17h-4l-13 14v3zM864 593h13l7 -6l-7 -7h-13l-6 7zM403 559l-3 -9l-4 3h-2l-11 -3v-10h26l-2 19h-4zM837 559l4 -2v-4l-7 -7l-4 4v3z
M624 550l4 -4v-6h-4l-7 6l3 4h4zM858 540h6l7 -7l-11 -6h-9v6zM403 523v-17h4v17h-4zM971 504h50l11 -11l-8 -6h-32q0 -17 -7 -17h-14q-7 0 -7 13h-26v6h26q0 15 7 15zM841 470l4 -4v-3l-4 -4h-4l-7 7zM854 419q0 -5 14 -9l-4 -4v-6h7v-4q0 -7 -30 -9l-7 9zM386 376h-3v-10
h7v-17l4 -3v-4l13 4v3l-17 21v2zM69 326h21l6 -7v-13q0 -6 -10 -6l-3 2h-4l-13 -2h-4l-6 6v3zM92 287l7 -8l8 8l2 -4v-4q0 -7 -19 -7v-47l-7 -6v57zM611 272l6 -6l-4 -3h-16l-7 7l4 2h17zM471 240v-8l16 -3l-3 -4v-6h6v6l-3 4v3l3 4q-10 0 -10 6zM66 219h17v-17h-4l-13 14v3
zM503 193v-8l4 -2v-4l-4 -3h4l4 3h2l11 -3l-4 3v4l4 2l-11 8h-10zM898 166h7l6 -7l-4 -4l-9 4v7zM945 166q6 0 6 -11q24 0 24 -30v-6q-4 -10 -21 -10h-9q-7 0 -11 29l-6 8h-4v3q0 6 14 6q0 11 7 11zM992 89h6v-36h-30v6h24v30zM347 45h3v-9l-7 -7h-4v9zM730 45h4l3 -3l4 3
h10v-7l-17 -13h-13q3 20 9 20zM968 -15h20v-6h-20v6zM1045 -75l6 -6v-15l-6 -6l-7 6v15zM377 1692l16 -9q263 -136 259 -145l-31 -79q-6 -19 -18 -13l-1 4l-13 3l-243 116l-13 3l-1 4zM1058 -356l-66 2083q56 171 27 68l-345 -29q-95 -17 -666 -49l-27 -240l41 -1944
q28 -2 883 98q137 16 153 13z" />
    <glyph glyph-name="Eacute" unicode="&#xc9;" horiz-adv-x="1103" 
d="M105 1273l61 -6h725l61 6l18 -24v-195l-6 -24l6 -19l-43 -17l-134 11l-231 -6l-6 6v6l-6 -6l-30 6l-56 -12h-23l-19 12l-25 -24v-30l19 -19q-6 -46 -19 -61v-42l25 -12l12 12l7 -6l29 6l55 -12l43 12l67 -6l140 6l43 -6l73 6h12q36 -16 36 -62l7 -6l-13 -17v-37l6 -25
l-6 -17l6 -50l-12 -17l12 -31l-18 -12h-511l-13 -13v-29l13 -19v-12l-13 -19v-30l7 -68l-7 -36l7 -6h596l12 -12v-213l13 -19q-42 -7 -42 -18l-73 12h-817l-6 6h-6l6 31v1133zM1 146q12 0 19 -54h6l6 6q13 -61 30 -61l37 -25l146 7h121l13 -13l-6 -6h-164l-85 -6l-25 6
l-18 -6l-13 12h-30v-18h-12l-12 12l6 6q-31 0 -31 134l6 6h6zM818 25q48 -6 48 -19l-12 -12h-36l-18 18zM891 12h25v-12h-25v12zM223 -28h131v-2h-135v-2l7 -1h257l12 -2h3h117l8 -1v-4h7v-1l4 1h49q6 0 11 -5h125q7 0 7 -2l4 -1h56q8 0 8 -3h129q6 0 10 -5h129v-1h-1071
l-8 1v24l8 1q7 0 7 -2l23 -1l11 1l26 -1l23 1v1l-30 1v2l45 -1zM921 -61h18v-12h-18v12zM832 1511l-27 -12q-429 -200 -435 -187l-53 113q-13 26 6 35l6 -2l16 13l387 194l16 13l6 -3zM1119 -362l-27 2063q64 168 30 67l-375 -22q-103 -16 -723 -38l-35 -236l2 -1927
q31 -2 960 82q150 14 168 11z" />
    <glyph glyph-name="Ecircumflex" unicode="&#xca;" horiz-adv-x="1101" 
d="M124 1276l60 -6h727l61 6l18 -25v-195l-6 -24l6 -19l-43 -17l-134 11l-232 -6l-6 6v6l-6 -6l-30 6l-56 -12h-23l-19 12l-25 -23v-31l19 -19q-6 -46 -19 -61v-42l25 -12l12 12l7 -6l29 6l55 -12l43 12l67 -6l140 6l44 -6l73 6h12q36 -16 36 -62l6 -6l-12 -18v-37l6 -25
l-6 -17l6 -49l-12 -18l12 -31l-18 -12h-512l-13 -13v-29l13 -19v-12l-13 -19v-30l6 -68l-6 -36l6 -6h598l12 -12v-214l13 -18q-42 -8 -42 -19l-74 12h-818l-6 7h-6l6 31v1134zM19 146q12 0 19 -54h6l6 6q13 -61 30 -61l37 -24l147 6h121l13 -13l-7 -6h-163l-86 -6l-25 6
l-18 -6l-13 12h-29v-18h-13l-12 12l6 6q-31 0 -31 134l6 6h6zM838 25q48 -6 48 -19l-12 -12h-36l-19 19zM911 13h25v-13h-25v13zM241 -28h132v-2h-136v-2l8 -1h257l12 -2h3h117l8 -1v-4h7v-1l4 1h49q7 0 11 -5h125q8 0 8 -2l4 -1h56q8 0 8 -3h129q6 0 10 -5h129v-1h-1073
l-8 1v24l8 1q8 0 8 -2l22 -1l11 1l26 -1l24 1v1l-30 1v2l45 -1zM941 -61h18v-12h-18v12zM333 1435l215 259l27 27l156 -348l-105 -47l-78 189l-119 -155zM1169 -338l-87 2069q59 170 28 68l-374 -31q-103 -17 -722 -53l-28 -238l58 -1932q32 -1 958 103q150 17 167 14z" />
    <glyph glyph-name="Edieresis" unicode="&#xcb;" horiz-adv-x="1029" 
d="M329 1637l66 -6l38 -2q43 -6 48 -10l-19 -238q-1 -8 -27 -7l-126 10q-71 5 -70 20l12 3l-11 6l16 218q13 11 73 6zM634 1617l12 -1l11 -1l60 -5q65 -5 64 -19l-1 -6l-10 -9l8 -16l-13 -175l-11 -12l8 -10q-10 -11 -38 -9l-110 9q-70 5 -74 12l19 241q1 6 75 1zM434 1318
l85 -11l132 -10l201 -20l11 -14l-15 -36l8 -56l-10 -131l-18 -12l-365 28l-19 6q-23 -5 -37 -34l-6 -140l-4 -50q-2 -31 37 -34l345 -27q46 -3 44 -36l-5 -4l3 -22l-14 -186q-1 -13 -53 -9v-4l-24 6l-93 7h-50l-46 8l-46 3l-20 -3l-24 6q-88 7 -91 -30l-6 -76l-16 -140
q-2 -24 50 -30l127 -10l14 -5l25 2l198 -15q27 -2 36 -22l-9 -44l4 -20l-9 -47l-8 -105q-9 -17 -48 -14l-95 7l-94 3l-14 6l-132 5l-130 10q-88 5 -89 -4l-24 9l-71 5q-17 1 -40 21l8 39l1 83l13 107l-6 51l12 27l28 365l20 167l-1 82l10 28l-2 72l17 221l-3 29q11 16 19 16
l5 -1l29 -6h51l128 -10zM-109 305h5q7 -1 15 -21l-15 -38l-2 -24l9 -41l-8 -19l5 -31l-15 -32l1 -48l-5 -4l-10 1l1 8l12 94l-5 5l1 4l5 4v7l1 72l9 48zM545 141l-1 -13l13 8l-7 5h-5zM262 -85l-46 7q-38 7 -63 10v1h46l4 -1l46 -7h8h2q13 7 22 8h41l-48 -19zM112 -84h-158
q-36 0 -36 2v2l5 1h18h36h14h7v1l-29 10h3l2 1h39q10 0 24 -8q6 -5 29 -5h28q47 0 47 -3q0 -1 -19 -1h-10zM407 -82q4 2 19 2h58h17q0 3 -7 3l-22 8v2h41q9 -1 15 -3q15 -10 39 -10h24l5 -1v-3h-5h-160q-24 0 -24 2zM875 -390l220 2094q78 164 35 65l-344 14q-96 -5 -664 34
l-59 -237l-226 -1952q28 -6 884 -12q138 -1 154 -6z" />
    <glyph glyph-name="Igrave" unicode="&#xcc;" horiz-adv-x="782" 
d="M308 1225l192 -10q67 -2 64 -48l-56 -886l-14 -90l24 -25l-43 8q31 -26 30 -47l-8 -125q-3 -40 -61 -38l-249 13q-57 18 -55 48h-8l33 382l38 612l-3 81l10 28l-7 29l10 15l-7 24q42 33 110 29zM370 1646l109 -64l66 -35q71 -43 78 -51l-135 -207q-5 -7 -50 17l-212 120
q-121 67 -112 80l22 -7l-16 15l122 190q26 -1 128 -58zM735 -159l-3 1921q43 157 20 63l-249 -19q-69 -13 -481 -29l-25 -220l-12 -1793q21 -3 639 69q99 11 111 8z" />
    <glyph glyph-name="Iacute" unicode="&#xcd;" horiz-adv-x="962" 
d="M-337 155q11 0 19 -57h7l6 6q13 -63 31 -63l38 -25l152 6h126l13 -13l-6 -6h-170l-89 -7l-26 7l-19 -7l-13 13h-31v-19h-12l-13 13l6 6q-32 0 -32 139l6 7h7zM512 29q50 -7 50 -20l-13 -13h-37l-20 20zM588 16h25v-13h-25v13zM-107 -27h137v-2h-141v-1l8 -2h267l12 -2
l3 1h122l8 -1v-5h8v-1l3 1h51q7 0 12 -4h129q8 0 8 -3l4 -1h59q8 0 8 -4h133q7 0 12 -4h133v-1h-1113l-8 1v25l8 1q8 0 8 -2l23 -1h12h27h24v2l-31 1v2l47 -2zM619 -60h19v-13h-19v13zM404 1627l21 11l19 10l102 51q113 57 117 46v-6l-12 -16l21 -4l56 -149l-13 -20l19 1
q-12 -18 -60 -43l-189 -96q-121 -61 -130 -59l-77 203q-1 6 126 71zM260 1267l224 -4q77 0 75 -47l-38 -919l-14 -93l29 -25l-50 7q37 -26 37 -48l-6 -130q-2 -41 -70 -41l-289 5q-68 17 -66 48h-10l27 396l25 634l-5 83l11 30l-10 30l12 16l-10 25q49 35 128 33zM983 -302
l-48 2096q52 171 24 68l-318 -27q-88 -17 -615 -46l-27 -241l25 -1956q27 -2 816 93q128 15 143 13z" />
    <glyph glyph-name="Icircumflex" unicode="&#xce;" horiz-adv-x="800" 
d="M-252 185q13 0 21 -64h8l7 7q15 -71 35 -71l44 -29l172 7h143l15 -15l-8 -7h-192l-101 -7l-29 7l-22 -7l-15 14h-35v-22h-14l-15 15l7 7q-36 0 -36 158l7 7h8zM710 42q57 -7 57 -22l-14 -14h-43l-21 22zM797 28h29v-15h-29v15zM8 -20h156v-3h-160v-2l9 -1h302l14 -2h4
h138l9 -1v-5h9v-1l4 1h58q8 0 13 -5h147q9 0 9 -3l5 -1h66q9 0 9 -5h152q7 0 12 -5h152v-1h-1263l-9 1v28l9 2q9 0 9 -3l26 -1l14 1l30 -1l28 1v1l-36 2v2l54 -2zM832 -58h21v-15h-21v15zM291 1192l150 -4q52 0 51 -44l-26 -854l-9 -87l19 -23l-34 6q25 -24 25 -44l-4 -121
q-1 -39 -46 -39l-194 5q-46 16 -44 44h-7l18 369l17 590l-4 77l8 28l-7 27l8 16l-6 23q32 32 85 31zM137 1354l252 305l33 32l183 -410l-124 -56l-92 224l-140 -183zM785 -336l10 2052q47 167 22 67l-262 -17q-73 -14 -506 -27l-28 -235l-25 -1915q22 -2 672 67
q105 12 117 8z" />
    <glyph glyph-name="Idieresis" unicode="&#xcf;" horiz-adv-x="867" 
d="M313 1265l217 -10q75 -2 71 -48l-63 -898l-16 -91l28 -25l-49 7q35 -26 34 -47l-9 -127q-3 -40 -69 -38l-280 13q-65 18 -62 48h-10l38 387l42 620l-3 82l12 29l-9 29l12 16l-8 24q47 33 124 29zM234 1679l81 -10l48 -2q53 -10 59 -15l-31 -295q-2 -11 -34 -8l-157 16
q-88 9 -86 28l15 4l-13 8l27 269q16 14 91 5zM613 1644l15 -2l14 -2l73 -8q81 -9 79 -26l-1 -7l-13 -11l10 -20l-23 -217l-14 -15l10 -13q-13 -13 -48 -9l-136 14q-87 9 -92 18l32 299q2 8 94 -1zM771 -421l79 2169q55 173 25 69l-276 -5q-76 -11 -531 -2l-37 -247
l-90 -2023q22 -4 707 37q110 6 123 2z" />
    <glyph glyph-name="Eth" unicode="&#xd0;" horiz-adv-x="977" 
d="M225 1298h385q132 0 261 -106q64 -90 67 -132v-808q0 -86 -122 -184q-110 -61 -206 -61h-329l-34 -5l-44 17l6 61v1144l-6 61zM448 1077v-840q0 -32 44 -32h34q124 0 162 55l11 32v727q0 90 -211 90q-34 0 -40 -32zM19 688h187v-113l-1 -1h-21v-3h-165v117zM1005 -374
l-2 2059q60 167 28 67l-342 -19q-94 -15 -659 -31l-34 -237l-18 -1921q28 -3 875 73q137 12 152 9zM452 691h185v-119l-1 -1h-21v-3h-163v123z" />
    <glyph glyph-name="Ntilde" unicode="&#xd1;" horiz-adv-x="1015" 
d="M227 1373l40 144q66 54 117 65.5t95 0.5q46 -12 122.5 -81t121.5 -80q37 -11 87 3.5t127 77.5l-40 -144q-67 -55 -118 -67t-92 -1q-49 13 -125.5 82.5t-118.5 80.5q-39 11 -89 -3.5t-127 -77.5zM75 1288l27 -5l119 -6l39 2l35 -5l46 -3q23 -1 22 -35q38 -105 59 -125
q8 -10 9 -52q19 -35 37 -100q31 -1 76 -185l23 -1l13 18h-4l4 4l2 25l-6 42v19l3 126l4 4l1 4l-4 4l7 61l4 71l3 4l-3 4l1 22l5 23l-6 41q1 14 32 13v4l4 -4l115 -5l139 -3l20 -16l-7 -44l-19 -382l-4 -146l-4 -22l3 -15l-5 -18v-83l-9 -104l1 -41l-12 -174l-10 -197
q0 -11 -15 -10q-50 4 -50 9h-66l-135 6l-56 -1q-19 1 -34 80q-8 5 -27 72q-26 19 -48 117q-5 0 -21 53q-33 53 -41 111h4q-1 10 -30 34h-3l-8 -7l5 -44l-4 -12l1 -52l-9 -7v-4l13 -45l-11 -85l1 -49l-5 -22l4 -3v-4l-4 -4l2 -18l-2 -67l2 -4q-1 -33 -28 -32v-4l-35 9l-61 -1
l-35 1l-31 5l-31 -1l-50 2l-4 -3q-27 5 -26 19l11 63l7 152l-4 4l4 4v3l-1 49l1 7h4l-4 15l17 406l5 110v65l5 40q11 305 4 305q1 15 29 14v4zM450 1552v-12l9 8l-4 4h-5zM564 1522l-6 -4v-4l4 -4h4l5 4l4 -5l4 4v9h-4l-4 -4h-4zM791 1389l-3 -11l19 -17v8h8v-9l9 7v13
q-16 0 -16 9h-17zM749 1343v-8l8 -1v-4l-8 1l-1 -12l28 -2l17 8v8l-31 14zM585 1326v-15l16 -1l5 15l-4 5h-4zM728 1250v-11l16 -2l1 13h-17zM1066 1105l-4 -4v-13q14 -17 14 -28l11 -1l7 28v4zM996 1084l-1 -33h7q21 -1 25 11q-10 0 -10 21l-4 4h-4zM930 1070v-4l25 -1v13
h-16zM975 1007v-8h17l-8 8h-9zM1005 938v-4l15 -2l2 4zM996 913l12 -13l3 13l-2 12zM1430 716h23l-15 -144q-31 0 -56 8l12 68l-4 9l10 14l-10 25q2 19 40 20zM982 805v-9h17v8zM1046 782v-9l3 -21h4l1 9l4 -1l-1 -8h5l4 16l-3 13l-5 -4l-4 4zM759 727v-4l12 -13l13 -2l1 25
h-5zM1005 -374l-2 2059q60 167 28 67l-342 -19q-94 -15 -659 -31l-34 -237l-18 -1921q28 -3 875 73q137 12 152 9z" />
    <glyph glyph-name="Ograve" unicode="&#xd2;" horiz-adv-x="1475" 
d="M879 1697l100 -58l59 -31q65 -40 71 -47l-122 -187q-5 -7 -45 15l-193 109q-109 61 -102 73l21 -7l-15 14l110 172q24 -1 116 -53zM817 1355q131 -11 254 -68q89 -57 105 -58l124 -132q82 -122 89 -179q26 -3 52 -261l-11 -115q-13 -143 -62 -239q-2 -34 -84 -158
q-106 -137 -255 -209l-124 -38l-121 -15l-61 -4l-115 11q-254 63 -252 93q-40 4 -81 47q-34 3 -164 185q-110 225 -94 405l10 45l1 69q11 130 91 299q15 0 47 70q13 3 46 56q177 154 260 162q2 25 234 45zM356 660q-13 -169 10 -171q0 -36 47 -129q55 -73 82 -83
q-2 -11 70 -38q12 -18 111 -26q102 -10 156 14q75 14 150 102q7 -2 42 60q13 -2 24 59q9 -1 27 49l-3 4l5 18l11 121q6 63 -28 174q-9 7 -20 52q-86 117 -126 122q-33 33 -133 43l-58 9q-92 -2 -111 -19q-75 -13 -138 -81q-20 -14 -49 -67l-31 -58q-20 -4 -38 -155z
M1473 -434l-4 2102q87 171 41 68l-496 -20q-137 -14 -956 -31l-50 -241l-26 -1962q41 -3 1270 75q198 12 221 9z" />
    <glyph glyph-name="Oacute" unicode="&#xd3;" horiz-adv-x="1270" 
d="M888 1525l122 61l71 37q80 39 90 40l23 -226q0 -9 -48 -34l-233 -119q-133 -68 -134 -53l22 15l-22 -6l-23 206q20 22 132 79zM665 1252q113 -10 219 -59q76 -49 91 -50l106 -114q71 -104 76 -154q23 -2 45 -225l-9 -98q-11 -123 -53 -206q-3 -30 -73 -136
q-91 -118 -219 -180l-107 -33l-104 -12l-53 -4l-98 9q-219 54 -217 80q-35 4 -70 41q-30 2 -141 160q-95 193 -81 348l8 38l1 60q10 111 79 257q13 0 40 61q12 2 40 48q152 132 224 139q1 21 201 39zM312 643q-10 -130 8 -131q0 -28 36 -99q42 -57 63 -64q-2 -9 54 -30
q9 -13 85 -20q78 -8 120 11q58 12 115 78q5 -1 32 47q10 -1 19 45q6 -1 21 38l-3 3l4 13l9 94q4 47 -22 133q-7 5 -15 40q-67 90 -97 94q-25 26 -102 33l-44 7q-71 -2 -86 -14q-58 -11 -106 -64q-16 -10 -38 -50l-24 -45q-15 -3 -29 -119zM1275 -374l-4 2059q76 167 36 67
l-431 -19q-119 -15 -832 -31l-43 -237l-23 -1921q36 -3 1105 73q172 12 192 9z" />
    <glyph glyph-name="Ocircumflex" unicode="&#xd4;" horiz-adv-x="1266" 
d="M665 1250q113 -9 219 -58q76 -50 90 -51l107 -113q70 -104 76 -154q22 -2 45 -224l-10 -99q-10 -123 -52 -206q-3 -29 -73 -136q-91 -117 -219 -179l-107 -33l-104 -12l-52 -4l-99 9q-219 54 -216 80q-36 3 -71 41q-29 2 -140 159q-95 193 -81 348l8 39l1 59
q10 112 79 257q13 0 40 61q11 2 39 48q153 132 224 139q1 21 201 39zM310 634q-10 -131 7 -133q0 -28 37 -100q43 -56 63 -63q-2 -10 54 -30q10 -14 86 -21q79 -7 121 11q58 12 116 79q6 -1 33 47q10 -1 18 45q7 -1 21 39l-2 3l4 14l8 93q5 49 -21 135q-8 5 -16 40
q-67 90 -97 94q-26 26 -103 34l-45 6q-71 -1 -86 -14q-58 -10 -107 -63q-16 -10 -38 -52l-24 -44q-15 -3 -29 -120zM511 1379l203 245l26 25l147 -329l-99 -44l-74 179l-112 -146zM1271 -377l-3 2062q75 168 35 67l-430 -20q-118 -14 -829 -31l-43 -236l-23 -1924
q36 -3 1101 73q172 13 192 9z" />
    <glyph glyph-name="Otilde" unicode="&#xd5;" horiz-adv-x="1429" 
d="M739 1277q115 -9 224 -58q78 -48 93 -49l109 -112q72 -103 78 -152q23 -2 45 -221l-9 -97q-11 -122 -54 -204q-3 -29 -75 -134q-93 -115 -224 -176l-109 -33l-107 -13l-54 -3l-100 9q-224 53 -222 79q-36 3 -72 40q-30 3 -144 157q-97 191 -83 343l9 39l1 58
q10 110 80 253q14 0 41 60q12 3 41 48q156 130 229 137q1 21 206 38zM418 680q-9 -108 6 -110q0 -23 32 -83q37 -47 55 -53q-2 -8 46 -25q8 -12 75 -17q67 -6 104 9q50 10 100 66q5 -1 28 39q9 -1 16 38q6 -1 18 31l-2 3l3 11l8 78q4 41 -19 112q-6 5 -14 34q-57 75 -83 78
q-22 22 -89 28l-39 6q-61 -1 -74 -12q-50 -9 -92 -53q-14 -9 -33 -43l-21 -37q-13 -2 -25 -100zM726 1369l42 189q70 71 124 85.5t99 0.5q49 -17 130 -107t127 -104q41 -15 93.5 5t133.5 101l-42 -188q-70 -72 -124 -88t-98 0q-51 16 -132 107t-125 106q-41 14 -93.5 -5
t-134.5 -102zM-1 1725l7 -2061q-85 -168 -40 -67l485 20q133 14 935 31l48 237l23 1923q-40 3 -1242 -74q-193 -12 -216 -9z" />
    <glyph glyph-name="Odieresis" unicode="&#xd6;" horiz-adv-x="1314" 
d="M521 1608l70 -7l41 -1q46 -7 52 -11l-20 -254q-2 -9 -29 -8l-135 10q-76 6 -75 22l13 3l-12 7l18 232q13 12 77 7zM847 1587l13 -2l12 -1l63 -5q70 -6 69 -20l-1 -7l-11 -9l9 -17l-14 -187l-12 -13l9 -11q-10 -12 -41 -9l-117 9q-75 5 -79 13l20 257q1 7 80 2zM631 1285
h76q259 -39 259 -69q59 0 175 -122q59 -62 96 -177q49 -121 49 -227v-20q0 -180 -117 -403q-120 -134 -148 -134q-42 -43 -133 -74q0 -12 -230 -57q-123 0 -319 57q0 12 -83 42q-143 113 -168 178q-90 133 -90 349q0 157 55 270q31 102 161 227q104 81 208 116zM388 696
v-101q25 -133 57 -133q29 -45 135 -75l58 -3h19q83 0 149 46q77 61 77 145l5 20v62q-29 158 -63 158q0 41 -123 79l-57 3q-112 0 -192 -65q-43 -50 -65 -136zM1301 -374l-4 2059q76 167 36 67l-434 -19q-120 -15 -837 -31l-43 -237l-23 -1921q36 -3 1111 73q173 12 194 9z
" />
    <glyph glyph-name="multiply" unicode="&#xd7;" horiz-adv-x="1065" 
d="M532 454l-321 -354l-129 142l321 354l-321 353l129 141l321 -354l321 354l127 -142l-321 -352l321 -354l-129 -142zM1031 -374l-2 2059q60 167 28 67l-342 -19q-94 -15 -659 -31l-34 -237l-18 -1921q28 -3 875 73q137 12 152 9z" />
    <glyph glyph-name="Oslash" unicode="&#xd8;" horiz-adv-x="1299" 
d="M734 1286q114 -10 223 -60q78 -50 92 -51l109 -116q71 -106 77 -157q23 -2 46 -229l-10 -100q-10 -126 -53 -210q-3 -30 -75 -139q-93 -119 -223 -183l-109 -33l-106 -13l-54 -4l-100 10q-223 55 -221 81q-36 4 -72 42q-29 2 -143 162q-97 197 -82 355l8 39l1 61
q10 114 80 262q13 0 41 62q12 2 41 49q155 135 228 142q1 21 205 39zM298 674q-13 -167 9 -169q0 -36 47 -128q55 -72 81 -81q-2 -12 69 -38q12 -18 110 -27q101 -9 154 15q74 14 149 100q7 -1 41 60q13 -2 24 58q9 -1 27 49l-3 4l5 18l11 119q6 62 -28 172q-9 7 -24 60
q-81 107 -120 112q-33 33 -132 43l-57 8q-91 -1 -110 -18q-74 -13 -136 -81q-20 -13 -49 -65l-31 -58q-19 -3 -37 -153zM1221 1367l93 -85l-179 -202l-88 93zM80 -71l-92 87l184 197l85 -94zM887 982l88 -95l-534 -605l-90 100zM1294 -387l-4 2072q76 168 36 67l-433 -20
q-120 -14 -837 -31l-43 -238l-23 -1933q36 -3 1110 74q173 12 194 9z" />
    <glyph glyph-name="Ugrave" unicode="&#xd9;" horiz-adv-x="1015" 
d="M-108 1368l20 -4v-1208q-12 0 -28 14l8 68l-4 33l4 15q-8 181 -12 728l-4 30l4 39v62l-6 58v82l2 22l-10 51q13 10 26 10zM656 1267q23 -1 44 -10l28 6h149l79 4l3 -4l-3 -76l7 -833l-26 -98q-49 -93 -140 -144q-96 -32 -111 -32q-22 -25 -116 -25l-11 3l-11 -3
q-104 0 -159 25q-25 0 -109 36q-24 0 -32 29q-15 0 -42 39q-30 9 -30 54q-17 0 -39 102q-9 0 -18 21l3 18v14l3 84l-3 101v58l3 75l-6 29l3 4v3l-3 44l3 26l-3 209v133l-4 22l4 4v2l-8 52q2 10 26 20l18 -2h75l195 2q12 0 12 -14h2q0 -14 -14 -14l-4 -22l4 -24
q5 -239 12 -239l-4 -11q1 -47 6 -47l-2 -3v-58l2 -65l-2 -11l2 -69l4 -271q26 -66 32 -68q44 -29 76 -29q95 19 95 69q7 0 14 58l-4 133l-4 32l8 40l-10 224l2 36l-2 134l2 36q-6 16 -6 58v61q0 26 -8 40q3 32 18 32zM837 769v-14h8v14h-8zM772 336l-4 -11h11v11h-7z
M819 307h18v18q-18 -3 -18 -18zM779 268q0 -18 -7 -18h-11v-8l25 -8v4l4 15zM404 228v-4h29v4h-29zM732 228l-4 -12l4 -2h4l7 10v4h-11zM368 206l-8 -8v-6h15v14h-7zM606 198v-6h14v6h-14zM346 1750l26 -15q425 -252 417 -265l-66 -112q-14 -26 -33 -16l-2 7l-20 6l-395 218
l-21 7l-1 6zM1015 -341l-3 2126q60 173 28 69l-341 -20q-94 -15 -657 -32l-34 -244l-18 -1984q28 -3 873 76q136 12 152 9z" />
    <glyph glyph-name="Uacute" unicode="&#xda;" horiz-adv-x="988" 
d="M-171 1372l21 -4v-1212q-13 0 -29 14l8 69l-4 32l4 16q-8 181 -12 730l-4 30l4 39v62l-6 58v83l2 22l-10 51q13 10 26 10zM596 1271q23 -1 44 -10l28 6h149l79 4l4 -4l-4 -76l8 -836l-26 -98q-49 -93 -141 -145q-96 -32 -112 -32q-22 -25 -116 -25l-11 3l-11 -3
q-104 0 -159 25q-25 0 -109 36q-25 0 -33 30q-15 0 -42 39q-30 9 -30 54q-17 0 -39 102q-9 0 -18 21l2 18v14l4 84l-4 102v58l4 75l-6 30l2 4v2l-2 44l2 26l-2 210v133l-4 22l4 4v3l-8 52q1 10 26 20l18 -2h75l196 2q11 0 11 -14h3q0 -14 -14 -14l-4 -22l4 -25
q5 -239 11 -239l-3 -11q1 -48 6 -48l-3 -2v-59l3 -64l-3 -12l3 -69l4 -272q26 -66 32 -68q44 -29 77 -29q94 18 94 69q8 0 14 58l-3 134l-4 32l7 40l-10 224l3 36l-3 135l3 36q-7 16 -7 59v61q0 25 -8 40q3 32 19 32zM777 771v-14h8v14h-8zM712 337l-4 -11h11v11h-7z
M759 308h18v18q-18 -3 -18 -18zM719 269q0 -18 -7 -18h-11v-8l25 -8v4l4 14zM343 229v-4h29v4h-29zM672 229l-4 -12l4 -3h4l6 11v4h-10zM307 207l-8 -8v-7h14v15h-6zM545 199v-7h14v7h-14zM729 1513l-29 -11q-461 -180 -467 -166l-47 122q-12 27 8 36l6 -3l18 12l417 177
l17 13l6 -3zM996 -373l-3 2084q59 169 28 67l-338 -19q-94 -15 -653 -32l-34 -238l-18 -1945q28 -3 867 74q135 13 151 9z" />
    <glyph glyph-name="Ucircumflex" unicode="&#xdb;" horiz-adv-x="1060" 
d="M-507 1844l-7 -76l2 -33v-125l-4 -87v-94l2 -58l-2 -45q-3 -824 -8 -1097l3 -23l-3 -48l5 -104q-10 -21 -18 -21v1820l13 6q9 0 17 -15zM615 1305q24 -1 45 -11l29 7h153l80 4l4 -4l-4 -78l8 -854l-26 -100q-50 -96 -144 -149q-98 -33 -114 -33q-23 -25 -119 -25l-11 3
l-12 -3q-106 0 -163 25q-25 0 -111 37q-25 0 -33 31q-16 0 -44 39q-30 10 -30 56q-17 0 -40 105q-9 0 -18 21l2 18v15l4 86l-4 103v60l4 76l-6 31l2 4v3l-2 45l2 26l-2 214v137l-4 22l4 4v3l-8 53q1 11 26 21l19 -3h77l199 3q12 0 12 -14h3q0 -15 -15 -15l-4 -23l4 -25
q6 -245 12 -245l-4 -10q2 -49 7 -49l-3 -3v-59l3 -67l-3 -11l3 -71l4 -278q26 -67 33 -70q45 -29 78 -29q97 19 97 70q8 0 14 60l-4 136l-4 33l8 41l-10 229l2 37l-2 138l2 37q-6 16 -6 60v62q0 26 -8 41q2 33 18 33zM801 794v-14h8v14h-8zM735 351l-4 -12h10v12h-6z
M782 320h19v19q-19 -3 -19 -19zM741 280q0 -18 -6 -18h-12v-8l26 -8v4l4 15zM357 239v-4h29v4h-29zM693 239l-4 -12l4 -2h4l7 10v4h-11zM320 217l-8 -8v-7h15v15h-7zM564 209v-7h14v7h-14zM184 1469l229 277l29 29l167 -372l-113 -50l-83 202l-127 -165zM1050 -359l-3 2139
q62 174 29 69l-354 -20q-98 -15 -685 -32l-35 -245l-19 -1997q30 -3 909 76q142 13 158 10z" />
    <glyph glyph-name="Udieresis" unicode="&#xdc;" horiz-adv-x="1128" 
d="M762 1241q23 -3 42 -15l29 4l146 -17l78 -5l4 -4l-12 -75l-85 -821l-36 -94q-59 -86 -155 -126q-98 -22 -113 -20q-24 -22 -117 -11l-10 3l-12 -1q-101 12 -153 42q-25 3 -103 48q-24 2 -29 32q-15 2 -37 43q-29 12 -24 57q-16 2 -26 105q-9 1 -16 22l5 18l1 14l13 82
l8 99l6 58l12 73l-3 30l3 3v3l3 44l5 25l21 206l14 131l-1 22l4 3v3l-1 52q2 10 27 17l18 -4l74 -9l192 -19q11 -1 10 -15h2q-1 -14 -15 -13l-7 -21l2 -24q-22 -236 -15 -237l-5 -10q-4 -47 1 -48l-3 -2l-7 -57l-4 -64l-4 -11l-5 -68l-26 -267q18 -68 24 -71q40 -33 72 -37
q95 8 100 57q8 0 21 56l11 131l-1 33l12 38l15 221l7 36l12 132l6 36q-4 16 0 58l7 59q3 26 -3 41q6 31 21 29zM885 730l-1 -13l7 -1l2 14h-8zM774 312l-5 -11l10 -2l1 12zM816 277l18 -2l2 18q-18 -1 -20 -16zM773 243q-2 -17 -9 -17l-11 2l-1 -8l24 -10l1 3l5 14zM399 245
v-3l28 -3v3zM722 209l-5 -11l4 -3h4l7 9l1 4zM361 228l-8 -7l-1 -6l14 -2l2 14zM594 194v-6l14 -2v6zM556 1638l66 -14l40 -6q44 -11 48 -15l-46 -244q-3 -8 -29 -4l-129 25q-73 13 -70 28l13 3l-11 7l42 222q14 10 76 -2zM868 1582l12 -2l11 -3l61 -12q67 -12 64 -26l-2 -7
l-11 -7l7 -18l-34 -179l-13 -11l7 -11q-11 -11 -40 -5l-112 22q-72 13 -75 21l47 246q2 6 78 -8zM892 -396l287 2039q83 157 37 62l-340 29q-96 -1 -657 62l-67 -229l-289 -1900q28 -6 877 -51q137 -7 152 -12z" />
    <glyph glyph-name="Yacute" unicode="&#xdd;" horiz-adv-x="1029" 
d="M270 1267l19 -5l52 5h76q33 0 33 -69q6 0 22 -83l9 -5h5q11 0 16 108q0 49 59 49h216l39 -5l2 5q66 -5 66 -21q-11 -69 -41 -127q0 -19 -62 -213q-14 -17 -30 -106q-24 -35 -50 -157q-15 -26 -50 -170q20 -52 20 -108l-3 -43l7 -86l-10 -65l3 -61q-17 -86 -52 -86v-4
l-81 6l-49 -6q-69 18 -186 24q-11 13 -11 25l-10 274l5 18q0 157 -40 233q0 43 -36 140q0 40 -32 120q-7 6 -13 86q-21 36 -35 130q-28 56 -28 80q0 42 -27 86q0 26 112 26zM159 1167q15 -73 40 -116q16 -93 40 -145q0 -25 40 -147q0 -24 35 -128l34 -134q7 -14 7 -55v-45
q0 -151 -10 -296q3 -26 28 -26h13l105 -6l35 2l35 -2q59 10 59 31l-8 116l4 41q-10 18 -10 34l6 31l-2 43l2 32l-6 86q11 69 51 182q0 32 30 109l36 135l58 220q12 16 17 38q-5 28 -26 28l-49 -4l-76 4h-24q-56 0 -56 -49l-20 -76q0 -31 -26 -189q-10 0 -26 -367l-14 -20
q-16 0 -45 311q-9 185 -32 256q-19 134 -31 134h-129l-54 3q-21 0 -31 -31zM853 267h-10q-10 0 -21 -45l-6 -6q7 -36 20 -49v-7l-4 -1l4 -4v-5q-8 -26 -24 -26q-19 0 -21 35l3 43l-7 38q0 48 56 48l10 14v31q-10 12 -10 32q14 17 14 28v4l-4 40l10 44l-6 51q17 48 17 66
l-3 71q0 225 -18 -402zM741 326h5l7 -6v-12q0 -6 -11 -6l-14 10v4zM769 1574l-28 38l14 -18l16 -22q9 -12 16 -35q6 4 38 -43l9 -15h2q4 -9 0 -13q-23 -9 -39 -20q-6 -4 -137 -91q-11 0 -54 -26q-10 -18 -26 -29l-13 -7l-22 -20l-21 -9l-16 -13q-29 -11 -38 1h-1l-19 30
l-14 17q-12 29 -40 72q1 7 4 9l75 58l6 2q48 26 67 45q12 9 37 31q12 8 123 77q11 8 17 26q8 6 36 -35zM714 1547l-100 -66q-6 -4 -29 -23l-34 -20q-2 -4 -12 -11l-11 -7q-36 -25 -73 -46q-6 -5 -1 -12l2 -4l20 -29l7 -10l6 -9q14 -15 19 -11l27 21l10 6q3 5 7 8l8 3l10 8
l8 5l20 15q19 9 48 24q11 2 25 20l88 55q6 -1 13 1q6 7 1 12l-47 66l-4 8q1 -2 -8 -4zM-216 953l2 -5v-72q-28 -30 -28 -93q-11 -11 -16 -318v-26v-72v-53v-49q16 -193 35 -193q9 0 9 -8v-70l-3 -9q-5 0 -27 60q-17 0 -26 27v22q0 38 -15 82h-5q-6 0 -12 -49l-3 -6
q4 -40 11 -53v-8l-3 -2l3 -4v-5q-5 -29 -13 -29q-11 0 -12 38l2 48l-4 41q0 52 31 52l5 15v34q-5 14 -5 35q7 18 7 31v4l-2 43l5 49l-3 55q9 52 9 72l-1 78q0 244 42 315q7 23 17 23zM-346 240h3l4 -6v-14q0 -6 -6 -6l-8 11v5zM1021 -330l-2 2059q60 167 -9 5l-660 14
q261 14 -351 20l13 -259l-18 -1921q28 -3 875 73q137 12 152 9z" />
    <glyph glyph-name="Thorn" unicode="&#xde;" horiz-adv-x="1021" 
d="M79 -24v1291l283 5l3 -2v-151l6 -4l-1 -1139h-291zM555 1146q145 0 221 -87q131 -191 111 -449h-4q4 -338 -168 -444q-56 -49 -160 -49l-185 -7v1037zM358 886v-500q0 -19 38 -19h29q209 32 194 261l-8 -9l8 35q17 259 -227 250q-28 0 -34 -18zM1023 -330l-2 2059
q60 167 -9 5l-660 14q261 14 -351 20l13 -259l-18 -1921q28 -3 875 73q137 12 152 9z" />
    <glyph glyph-name="germandbls" unicode="&#xdf;" horiz-adv-x="1028" 
d="M1004 -330l-2 2059q60 167 -9 5l-660 14q261 14 -351 20l13 -259l-18 -1921q28 -3 875 73q137 12 152 9z" />
    <glyph glyph-name="agrave" unicode="&#xe0;" horiz-adv-x="1158" 
d="M425 1671l25 -15q402 -238 395 -250l-62 -107q-14 -24 -32 -15l-1 7l-20 6l-374 206l-20 7l-1 6zM899 1259q33 -1 32 -56l53 -320l87 -483q0 -26 83 -497v-7q-7 -12 -26 -11l-300 7q-28 2 -27 62q-14 105 -22 134l4 4v3q-9 60 -20 60l-252 9q-17 0 -33 -97l-33 -158
l-22 -6l-302 9q-19 0 -21 11v9l309 1300l5 23l11 12l3 4zM657 939q-57 -292 -108 -507l13 -17l26 1l138 -4l14 14q-11 35 -54 336l-22 177h-7zM1156 -361l-3 2089q68 170 -10 5l-741 14q293 14 -395 20l14 -262l-20 -1949q32 -3 984 74q153 13 171 9z" />
    <glyph glyph-name="aacute" unicode="&#xe1;" horiz-adv-x="980" 
d="M788 1503l-1 -5l-16 -6l-302 -195l-16 -4l-1 -6q-13 -10 -24 13l-51 100q-6 12 318 236l19 13zM751 1267q27 -1 26 -53l46 -298l74 -454q0 -24 70 -466v-6q-6 -12 -23 -11l-254 7q-24 1 -23 57q-11 99 -18 127l3 2v4q-8 57 -16 57l-214 7q-14 0 -28 -91l-28 -147l-19 -6
l-255 8q-16 0 -18 10v9l262 1219l4 22l10 12l2 3zM545 967q-47 -274 -90 -476l11 -15l21 1l117 -4l11 14q-8 32 -44 315l-20 165h-6zM988 -282l-2 2013q58 164 -9 5l-639 13q253 14 -340 20l13 -253l-18 -1878q28 -2 848 72q132 12 147 8z" />
    <glyph glyph-name="acircumflex" unicode="&#xe2;" horiz-adv-x="801" 
d="M1025 494l3 -1l-5 -2h-1669l-2 1l5 2h1668zM663 1236q22 -3 17 -43l14 -233l24 -355q-2 -19 20 -365v-5q-6 -9 -19 -7l-200 26q-19 2 -14 45q-1 77 -5 99l2 2l1 3q-2 44 -9 45l-168 22q-12 1 -29 -68l-33 -111l-16 -3l-201 26q-13 1 -14 9l1 6l299 920l5 16l8 9l3 3z
M478 1021q-58 -208 -108 -360l8 -13h17l93 -12l9 9q-4 26 -11 247l-3 129h-5zM392 1354l173 209l22 22l126 -281l-85 -38l-63 153l-96 -125zM809 -341l-2 2056q46 167 -7 5l-510 14q202 14 -271 20l10 -258l-14 -1919q22 -3 677 73q105 12 117 9z" />
    <glyph glyph-name="atilde" unicode="&#xe3;" horiz-adv-x="1101" 
d="M884 1211q28 -5 20 -54l8 -294l16 -445q-3 -22 11 -457l-1 -6q-8 -10 -24 -7l-250 42q-24 5 -16 58q1 96 -3 124l3 2l1 4q-1 55 -8 56l-211 36q-15 2 -39 -83l-46 -138l-21 -3l-252 43q-15 2 -16 11l1 9l413 1134l6 20l12 10l3 4zM643 952q-81 -258 -149 -445l8 -16
l22 -2l116 -20l12 11q-4 32 -5 308l1 163zM1103 1461l-52 -154q-66 -51 -114 -56.5t-87 12.5q-40 19 -102.5 105.5t-101.5 104.5q-34 18 -81 8t-125 -69l53 154q67 52 115 58.5t85 -11.5q43 -21 105 -108t99 -105q35 -17 82 -7.5t124 68.5zM921 -442l279 2091q83 161 -9 5
l-660 105q264 -21 -349 69l-22 -263l-281 -1949q28 -6 888 -46q139 -7 154 -12z" />
    <glyph glyph-name="adieresis" unicode="&#xe4;" horiz-adv-x="1075" 
d="M421 1615l69 -7l41 -1q47 -7 52 -11l-20 -254q-1 -10 -29 -8l-135 10q-76 6 -75 21l13 4l-11 7l17 232q13 12 78 7zM746 1594l14 -2l11 -1l64 -5q70 -6 68 -20l-1 -7l-11 -9l10 -17l-15 -187l-12 -14l10 -10q-11 -12 -41 -9l-118 9q-75 5 -79 13l20 257q1 7 80 2z
M787 1247q29 -3 24 -53l29 -293l46 -445q-1 -22 42 -456l-1 -5q-5 -12 -24 -11l-265 24q-25 2 -20 55q-4 98 -10 126l2 2l2 3q-5 57 -15 57l-221 19q-16 2 -35 -85l-39 -142l-21 -4l-266 23q-17 1 -18 12l1 8l355 1166l5 21l11 11l3 4zM554 968q-69 -262 -128 -456l12 -16
h22l123 -11l10 12q-6 33 -23 310l-10 161h-6zM972 -393l230 2117q78 166 -9 6l-652 82q261 -12 -345 56l-17 -266l-250 -1812q28 -5 892 -178q137 -1 151 -5z" />
    <glyph glyph-name="aring" unicode="&#xe5;" horiz-adv-x="1020" 
d="M759 1226q28 -2 23 -52l29 -288l45 -437q-1 -22 42 -449l-2 -6q-5 -11 -23 -10l-261 23q-25 3 -20 55q-3 96 -10 123l3 3l1 2q-5 56 -14 56l-218 20q-16 1 -34 -85l-39 -139l-21 -3l-261 22q-17 1 -18 11l1 8l350 1148l5 20l10 11l3 4zM529 952q-68 -258 -126 -449
l12 -15h22l120 -11l11 12q-7 32 -24 305l-9 158h-6zM674 1830l32 -7q106 -41 103 -53q24 -5 63 -69q20 -33 24 -85q9 -56 -1 -102l-1 -9q-17 -77 -87 -162q-63 -47 -76 -44q-21 -15 -63 -21q-1 -5 -102 -3q-53 12 -130 53q1 5 -31 27q-51 61 -54 92q-27 65 -7 159
q15 66 49 111q21 40 89 83q51 24 99 30h93zM535 1581l-9 -36q-3 -50 10 -52q6 -20 43 -37l22 -6l7 -1q32 -6 61 8q36 15 44 47l4 6l5 23q5 59 -9 61q4 15 -39 37l-22 5q-42 7 -79 -11q-22 -14 -38 -44zM865 -407l310 2185q84 170 -9 7l-652 110q261 -21 -346 73l-26 -276
l-308 -2037q27 -7 880 -50q137 -7 151 -12z" />
    <glyph glyph-name="ae" unicode="&#xe6;" horiz-adv-x="1425" 
d="M742 1211q21 -5 11 -51l-14 -271l-19 -412q-4 -22 -24 -424l-1 -5q-7 -10 -20 -6l-215 48q-19 5 -8 54q8 89 7 115l2 2l1 3q4 20 -3 22l-124 25q-12 18 -38 -29l-47 -126l-16 -2l-230 49q-13 3 -13 12l1 7l417 1034l6 19l10 9l2 3zM518 883q-73 -189 -134 -327l6 -13
l15 -2l80 -18l10 8q-1 25 16 231l11 120zM817 1202l44 -9l422 -41l44 3l13 -25l-9 -187l-6 -24l4 -18l-32 -14l8 18l-168 7l94 6v6l-5 -5l-21 7l-41 -8l-17 1l-13 13l-19 -21l-1 -30l12 -19q-6 -44 -16 -57l-2 -41l18 -13l9 11l4 -6l22 4l39 -15l32 9l-50 -9l102 -2l-74 -8
l54 1h9q25 -18 23 -62l4 -6l-10 -16l-1 -36l3 -24l-5 -16l2 -48l-10 -16l8 -31l-14 -11l-168 29l-10 -12l-1 -28l8 -19v-12l-10 -17l-2 -28l2 -66l-6 -35l4 -6l230 -33l9 -13l-10 -205l8 -18q-30 -5 -31 -16l-52 16l-489 46l-4 6h-5l6 30l51 1090zM1344 -429l100 2179
q91 174 -12 5l-902 40q358 5 -480 35l5 -274l-122 -2032q39 -3 1202 43q188 8 209 4z" />
    <glyph glyph-name="ccedilla" unicode="&#xe7;" horiz-adv-x="1086" 
d="M453 75l-32 -69v-1l5 -1q1 6 37 3l69 -6q11 -1 28 -17q19 -2 53 -35q7 -14 20 -31l1 -24l-1 -14q-5 -45 -22 -52l-19 -21q-8 1 -20 -14q-10 1 -27 -13h-15l1 1q-15 1 -30 -12h-8l-106 9q-9 1 -24 16q-29 2 -36 15q-42 25 -40 42l-14 23l1 11l10 5l91 -8q9 -1 18 -22
q31 -27 46 -29h7q36 -3 53 13q10 -1 18 19l6 47q1 9 -35 33q-9 5 -23 6l-13 1q-27 2 -46 -11q-3 1 -27 -13l-5 1l-9 2h-13q-49 4 -47 15q-5 3 12 11l1 6l5 12l2 14l45 100q7 1 50 -4.5t33 -7.5zM619 1308q263 -26 380 -183q36 -40 49 -142l5 -37l-7 -14l-5 -57l3 -24
q-2 -13 -57 -10l-10 4l-6 -2l-22 4l-57 4l-31 5h-28l-47 7l-38 2q-8 1 -26 18l5 12l-1 30l6 28l-1 21l5 10q5 57 -59 115q-48 20 -80 23q-105 11 -144 -48q-16 -36 -21 -86l-58 -595q-10 -91 65 -128l38 -9l59 -6q81 -8 121 42q13 31 17 74l8 79l1 42q1 13 45 14l19 -2
l57 -8l66 -4l8 -1l62 -8l11 1q55 -8 54 -21l-9 -39l-13 -123q-21 -81 -62 -120q-140 -140 -425 -112q-307 30 -414 218q-28 74 -24 110l66 674q3 33 36 97q40 57 116 95q76 42 188 50q63 7 155 0zM1043 -405l76 2117q69 170 -9 5l-686 39q272 6 -364 34l3 -266l-92 -1975
q30 -3 914 42q142 8 158 4z" />
    <glyph glyph-name="egrave" unicode="&#xe8;" horiz-adv-x="1128" 
d="M197 1288l59 -11l711 -61l60 1l16 -26l-16 -191l-8 -24l4 -18l-44 -14l-130 23l-227 13l-6 7l1 6l-7 -6l-29 9l-55 -8l-23 2l-17 14l-27 -21l-2 -30l16 -20q-10 -45 -23 -58l-4 -41l24 -15l13 12l5 -7l30 3l52 -16l44 8l65 -11l138 -6l42 -10h72l12 -1q34 -19 30 -64
l5 -6l-13 -16l-3 -37l4 -24l-8 -17l2 -49l-14 -16l10 -31l-19 -11l-502 43l-13 -11l-2 -29l10 -19l-1 -12l-13 -18l-3 -29v-67l-9 -35l6 -6l585 -51l11 -13l-18 -208l11 -20q-42 -3 -43 -14l-71 18l-801 69l-5 6l-6 1l8 30l96 1110zM42 143q11 0 18 -54h7l6 6q12 -60 29 -60
l36 -24l144 6h120l12 -12l-6 -6h-161l-84 -6l-25 6l-18 -6l-12 12h-29v-18h-12l-13 12l6 6q-30 0 -30 132l6 6h6zM846 23q48 -6 48 -18l-12 -12h-36l-18 18zM918 11h24v-12h-24v12zM260 -29h130v-2h-134v-2l8 -1h252l12 -2l3 1h115l8 -1v-5h7v0h4h48q6 0 11 -4h123q7 0 7 -2
l4 -1h55q8 0 8 -4h127q6 0 10 -4h127v-1h-1055l-7 1v23l7 1q8 0 8 -1l22 -2l11 1l26 -1l22 1v1l-29 1v2l44 -1zM947 -61h19v-12h-19v12zM656 1557l20 -10l18 -9l97 -48q107 -53 100 -63l-4 -4l-19 1l9 -19l-81 -126l-23 -2l11 -14q-20 -1 -66 22l-180 89q-115 57 -118 65
l110 174q5 4 126 -56zM1059 -400l77 2194q70 176 -9 5l-695 41q276 5 -369 35l4 -275l-94 -2047q30 -3 925 44q145 7 161 3z" />
    <glyph glyph-name="eacute" unicode="&#xe9;" horiz-adv-x="1173" 
d="M169 1343l66 -12l798 -63l67 1l18 -27l-18 -198l-9 -25l5 -19l-49 -14l-146 23l-255 14l-7 7l1 6l-7 -6l-33 9l-62 -8l-26 2l-19 15l-30 -22l-2 -32l18 -20q-11 -47 -26 -61l-4 -43l26 -14l15 11l6 -7l33 4l59 -17l49 8l73 -12l154 -6l47 -10h81l14 -1q38 -20 34 -66
l6 -7l-16 -17l-3 -38l4 -25l-8 -18l2 -51l-15 -16l11 -33l-22 -11l-562 45l-15 -12l-3 -30l12 -20l-1 -13l-15 -17l-3 -31v-70l-10 -36l6 -7l656 -52l13 -14l-20 -217l11 -20q-47 -4 -48 -15l-79 19l-898 71l-6 7l-7 1l10 31l106 1155zM-4 151q12 0 20 -55h7l7 6
q13 -62 33 -62l41 -26l161 7h134l13 -13l-6 -6h-181l-94 -7l-27 7l-21 -7l-14 13h-32v-19h-14l-14 13l7 6q-34 0 -34 137l7 6h7zM897 27q54 -6 54 -19l-14 -13h-40l-20 19zM978 14h27v-12h-27v12zM240 -27h145v-2h-149v-2l8 -1h284l12 -2h4h129l9 -1v-4h8v-1l4 1h54
q7 0 12 -5h138q9 0 9 -2l4 -1h62q8 0 8 -4h142q7 0 12 -4h142v-2h-1183l-8 2v24l8 1q9 0 9 -2l24 -1l13 1l29 -1l25 1v1l-33 1v2l50 -1zM1011 -60h20v-13h-20v13zM604 1599l25 4l22 3l119 21q132 22 132 10l-1 -5l-17 -12l20 -10l13 -156l-19 -15l19 -5q-17 -13 -74 -23
l-221 -38q-142 -25 -151 -20l-17 214q1 5 150 32zM1093 -400l83 2175q74 174 -10 5l-747 40q296 6 -397 35l4 -273l-101 -2029q32 -3 995 44q155 7 173 3z" />
    <glyph glyph-name="ecircumflex" unicode="&#xea;" horiz-adv-x="808" 
d="M322 1333l86 194l12 21l122 -202l-51 -44l-63 111l-46 -115zM303 1280l75 -4h116l176 -5l11 -12l-11 -36l11 -52v-126l-15 -13h-320l-17 4q-20 -6 -30 -35l4 -134v-49q0 -29 34 -29h303q41 0 41 -32l-4 -4l4 -21v-178q0 -13 -45 -13v-4l-21 4h-82l-43 -4l-41 4h-41
l-17 -4l-21 4q-78 0 -78 -35v-74l-4 -134q0 -23 45 -25h112l13 -4l21 4h174q24 0 32 -19l-4 -42l4 -19l-4 -46v-101q-6 -16 -41 -16h-83l-82 -5l-13 5l-116 -5h-114q-77 -2 -77 -10l-22 6h-62q-15 0 -37 17l5 38l-5 79l5 103l-9 48l9 28v350l6 162l-6 77l6 27l-6 70v211
l-5 28q9 17 16 17h4l26 -5l45 5h111zM-103 273h4q7 0 15 -19l-10 -38v-23l10 -38l-6 -18l6 -30l-10 -31l4 -46l-4 -5h-9v9l4 90l-4 4v4l4 5v6l-4 69l4 46zM479 164v-13l11 9l-7 4h-4zM488 -46l54 -32h-46q-10 1 -25 13h-2h-9l-52 -12l-4 -1h-53v1q29 6 71 18l52 12zM316 -48
q21 -1 21 -2q0 -7 -52 -7h-33q-25 0 -32 -8q-16 -13 -27 -13h-44l-3 1h-3l33 17v2l-9 1l-15 -1l-41 1h-20l-6 1v3q0 4 41 4h179zM665 -48h181l6 -1v-5l-6 -1h-27q-27 0 -44 -18q-7 -4 -16 -5h-47v3l25 13q7 0 7 5l-18 2h-66q-17 0 -22 2q0 4 27 5zM754 -397l58 2143
q52 172 -7 5l-522 39q207 6 -277 35l3 -269l-70 -1999q22 -3 694 43q109 7 121 3z" />
    <glyph glyph-name="edieresis" unicode="&#xeb;" horiz-adv-x="1057" 
d="M173 1299l59 -12l710 -65l60 1l16 -28l-17 -203l-8 -25l5 -20l-44 -14l-130 23l-227 15l-6 7l1 6l-7 -6l-28 9l-56 -8l-23 3l-17 14l-26 -22l-3 -32l17 -22q-10 -47 -24 -61l-3 -44l23 -15l13 11l6 -7l29 4l53 -18l43 9l65 -12l138 -6l41 -10h72l13 -2q33 -20 30 -67
l5 -7l-14 -17l-3 -39l4 -27l-7 -17l2 -52l-14 -17l10 -34l-20 -11l-500 46l-13 -12l-3 -31l11 -21l-1 -13l-14 -18l-2 -31v-72l-9 -37l5 -7l585 -53l11 -14l-18 -222l10 -21q-42 -4 -42 -16l-71 20l-800 73l-5 7l-6 1l8 31l95 1184zM491 1644l65 -7l38 -1q42 -7 47 -10
l-18 -251q-1 -9 -27 -8l-124 11q-71 5 -69 20l12 4l-11 7l16 228q12 12 71 7zM792 1623l12 -1l11 -2l58 -5q65 -5 64 -19l-2 -7l-9 -9l8 -17l-13 -184l-11 -13l8 -10q-9 -12 -37 -9l-109 9q-69 5 -73 13l19 253q1 6 74 1zM1004 -378l74 2168q66 174 -9 5l-661 40
q262 5 -351 35l3 -273l-89 -2022q28 -3 880 43q138 8 153 4z" />
    <glyph glyph-name="igrave" unicode="&#xec;" horiz-adv-x="672" 
d="M548 29q51 -6 51 -19l-13 -13h-38l-19 19zM625 16h26v-13h-26v13zM113 -373h138v-2h-142v-2l8 -1h269l12 -2h3h123l8 -1v-5h8v0h4h51q7 0 11 -4h131q8 0 8 -3h4h59q8 0 8 -4h135q6 0 11 -5h135v-1h-1122l-8 1v25l8 1q8 0 8 -2l23 -1l12 1l27 -1l24 1v1l-31 1v2l47 -1z
M656 -60h20v-13h-20v13zM346 1662l21 -11l20 -10l103 -51q113 -57 106 -67l-4 -4l-20 1l9 -20l-86 -135l-24 -1l12 -15q-22 -2 -71 23l-191 95q-123 60 -127 69l119 185q4 4 133 -59zM235 1278l150 -4q52 0 51 -48l-26 -926l-9 -94l19 -25l-34 7q25 -26 25 -48l-4 -131
q-1 -42 -46 -42l-195 5q-45 17 -44 48h-6l18 400l17 639l-4 84l7 30l-6 30l8 16l-7 25q33 35 86 34zM593 -336l45 2137q41 171 -5 5l-411 40q163 5 -218 34l2 -268l-55 -1994q18 -3 547 43q85 7 95 3z" />
    <glyph glyph-name="iacute" unicode="&#xed;" horiz-adv-x="725" 
d="M359 1586l22 11l19 10l104 52q115 59 119 47v-6l-13 -17l23 -4l57 -151l-14 -21l20 1q-12 -18 -62 -43l-192 -98q-123 -63 -133 -61l-79 207q0 6 129 73zM212 1219l229 -4q78 0 76 -49l-39 -936l-14 -96l30 -25l-52 7q38 -27 38 -49l-6 -132q-2 -42 -71 -42l-295 5
q-69 17 -67 48h-10l27 404l26 647l-6 85l12 31l-10 30l12 17l-10 25q49 35 130 34zM677 -375l50 2152q45 173 -6 5l-454 40q180 5 -242 35l3 -270l-61 -2009q19 -3 604 43q95 7 106 4z" />
    <glyph glyph-name="icircumflex" unicode="&#xee;" horiz-adv-x="635" 
d="M145 1263l186 -4q64 0 62 -47l-32 -902l-11 -92l24 -24l-42 6q31 -25 31 -46l-5 -128q-2 -40 -58 -40l-240 5q-56 16 -54 46h-8l22 389l21 623l-5 82l10 29l-8 29l9 17l-8 24q40 34 106 33zM30 1412l216 270l28 29l157 -364l-106 -49l-79 198l-120 -162zM564 -319
l43 2078q39 166 -5 5l-390 38q154 5 -208 33l3 -261l-53 -1938q17 -3 520 42q80 7 90 3z" />
    <glyph glyph-name="idieresis" unicode="&#xef;" horiz-adv-x="778" 
d="M264 1272l160 -4q55 0 54 -47l-28 -908l-10 -93l21 -24l-36 6q26 -25 26 -47l-4 -128q-1 -41 -49 -41l-206 5q-49 17 -47 47h-7l19 392l18 627l-4 83l8 29l-7 29l9 17l-7 24q34 34 90 33zM220 1687l82 -7l48 -2q55 -8 61 -12l-23 -300q-2 -10 -35 -9l-158 12
q-90 7 -88 25l15 5l-14 8l21 273q15 14 91 7zM603 1663l16 -2l14 -1l74 -7q82 -6 81 -23l-2 -8l-12 -11l11 -20l-17 -220l-14 -15l10 -13q-12 -14 -48 -11l-138 11q-88 6 -93 16l24 302q1 8 94 2zM765 -368l55 2060q50 165 -7 5l-496 38q197 5 -264 33l3 -259l-67 -1922
q21 -3 661 41q103 8 115 4z" />
    <glyph glyph-name="eth" unicode="&#xf0;" horiz-adv-x="836" 
d="M754 495l14 -36q78 -203 -153 -374l-55 -31l-89 -14q-249 -5 -324 188l-8 19l-15 67q-3 254 160 334l66 27l82 21q-19 60 -253 312l-41 26l120 34q172 -19 496 -573zM387 538l-33 -25q-104 -42 -75 -207q77 -154 214 -110q167 88 122 230q-34 148 -228 112zM261 872l35 9
l95 -113l157 44q-87 113 -83 116l211 51l40 -41l9 -41l12 -36l-78 -11l27 2q-26 -14 -108 -35l-318 -83q-204 -53 -216 -53l-4 76q58 80 221 115zM0 1714l42 -2086q-45 -170 7 -5l533 -12q-210 -16 284 -20l-16 262l-23 1947q-23 2 -705 -76q-110 -13 -122 -10z" />
    <glyph glyph-name="ntilde" unicode="&#xf1;" horiz-adv-x="907" 
d="M64 1386l45 186q75 70 132 84.5t107 0.5q51 -16 137.5 -105t136.5 -103q43 -15 99 4t143 100l-45 -186q-76 -71 -133 -86.5t-104 -0.5q-55 17 -141.5 106.5t-133.5 104.5q-44 14 -100 -5t-143 -100zM163 1249l21 -4l95 -5l31 1l27 -4l37 -2q18 -1 17 -30q31 -91 47 -108
q6 -8 7 -45q16 -30 30 -85q24 -1 60 -160l18 -1l11 16h-3l3 3l1 22l-4 36v16l2 109l3 3l1 3l-3 4l5 53l3 61l3 3l-3 3l1 19l4 20l-5 36q1 12 25 11v3l3 -3l92 -5l110 -2l15 -14l-5 -38l-15 -329l-3 -125l-3 -19l2 -13l-4 -15v-71l-7 -90l1 -35l-9 -150l-9 -169q0 -10 -12 -9
q-40 3 -40 8h-51l-108 5l-43 -1q-16 1 -28 69q-6 4 -21 62q-21 17 -38 101q-4 0 -16 45q-27 45 -33 95h3q-1 9 -23 30h-3l-6 -7l4 -37l-3 -10l1 -46l-8 -5v-3l11 -39l-10 -73l1 -42l-4 -19l3 -3v-4l-3 -3l2 -15l-2 -58l2 -3q-1 -29 -22 -28v-3l-28 7l-48 -1l-28 1l-24 5
l-25 -1l-40 2l-3 -3q-21 4 -20 16l8 54l6 131l-3 3l3 4v3l-1 42l1 6h3l-3 13l13 348l5 96v55l4 34q8 263 3 263q1 13 22 12v3zM1123 1692l-5 -15l25 -22v10h10v-12l12 10v17q-20 0 -20 12h-22zM697 1297v-7l6 -1v-3l-6 1l-1 -11l23 -2l13 7v7l-25 12zM568 1282v-13l12 -1
l4 13l-3 5h-3zM681 1217v-10l12 -1l1 11h-13zM1479 1322l-5 -5v-16q18 -22 18 -37l15 -2l9 37v5zM893 1074l-1 -29h6q16 -1 19 10q-8 0 -8 18l-3 3h-3zM841 1062v-3l19 -1v11h-12zM877 1008v-7h13l-6 7h-7zM900 948v-3l12 -1l1 3zM893 927l9 -11l3 11l-2 10zM1952 817h30
l-20 -187q-40 0 -72 10l15 89l-5 11l14 19l-14 32q4 25 52 26zM882 834v-8h13v7zM933 814v-8l2 -17h3l1 7l3 -1l-1 -6h4l3 13l-2 11l-4 -3l-3 3zM705 767v-4l10 -11l10 -1l1 21h-4zM-1 1715l46 -2075q-49 -168 8 -4l575 -13q-227 -15 307 -19l-17 260l-25 1936
q-25 2 -762 -76q-118 -12 -132 -9z" />
    <glyph glyph-name="ograve" unicode="&#xf2;" horiz-adv-x="1293" 
d="M851 1300l-113 81l-68 46q-74 54 -80 62l193 130q8 4 54 -27l219 -154q125 -87 113 -95l-24 12l15 -17l-174 -119q-30 7 -135 81zM743 1281q115 -10 224 -60q78 -51 93 -52l109 -116q72 -107 78 -157q23 -3 45 -230l-9 -101q-11 -126 -54 -211q-3 -30 -75 -139
q-93 -120 -224 -184l-109 -33l-107 -13l-54 -4l-100 10q-224 55 -222 81q-36 4 -72 42q-30 2 -144 163q-97 198 -83 356l9 40l1 61q10 114 80 263q13 0 41 62q12 2 41 49q156 136 229 143q1 21 206 39zM306 667q-14 -168 9 -170q0 -36 47 -129q55 -72 81 -81q-2 -12 70 -39
q12 -18 110 -26q101 -10 155 14q74 15 149 101q7 -1 42 60q13 -1 24 59q8 -1 26 49l-2 4l4 18l11 119q6 63 -27 173q-10 7 -21 52q-85 116 -125 121q-32 33 -131 43l-58 8q-91 -1 -110 -18q-75 -13 -137 -81q-20 -13 -49 -66l-31 -58q-19 -3 -37 -153zM-13 1655l68 -2029
q-72 -165 12 -5l853 -12q-337 -15 454 -19l-25 254l-36 1894q-37 2 -1129 -74q-176 -13 -197 -9z" />
    <glyph glyph-name="oacute" unicode="&#xf3;" horiz-adv-x="1310" 
d="M536 1582l123 61l72 38q81 39 91 40l24 -229q-1 -8 -49 -34l-236 -120q-134 -68 -135 -54l22 16l-22 -6l-23 208q20 22 133 80zM704 1259q114 -10 222 -60q77 -49 91 -50l108 -115q71 -106 77 -155q22 -3 45 -228l-10 -99q-10 -125 -53 -209q-2 -29 -73 -137
q-93 -119 -222 -181l-108 -33l-105 -13l-53 -4l-100 9q-221 55 -219 81q-35 4 -71 41q-30 3 -142 161q-96 196 -82 352l8 39l2 61q9 112 79 259q13 0 40 62q12 2 41 48q153 134 226 141q1 21 203 39zM436 649q-7 -94 6 -96q0 -19 26 -72q30 -40 45 -45q-1 -7 39 -21
q7 -11 62 -15q56 -5 86 8q42 8 84 56q4 0 23 34q7 -1 14 33q4 -1 14 27l-1 2l2 10l7 67q3 35 -16 97q-5 4 -12 29q-47 65 -69 67q-18 19 -74 25l-32 4q-51 0 -62 -10q-41 -7 -76 -45q-12 -8 -28 -37l-17 -32q-11 -3 -21 -86zM29 1739l-78 -2101q-83 -170 11 -5l838 -16
q-332 -14 446 -21l-6 263l99 1960q-36 3 -1116 -72q-174 -12 -194 -8z" />
    <glyph glyph-name="ocircumflex" unicode="&#xf4;" horiz-adv-x="1476" 
d="M744 1396q125 -11 244 -66q85 -54 100 -56l119 -126q78 -117 85 -171q25 -3 49 -251l-10 -109q-12 -138 -59 -230q-2 -33 -81 -152q-102 -130 -244 -199l-119 -37l-116 -14l-58 -4l-110 10q-244 60 -241 89q-40 4 -79 46q-32 2 -156 177q-106 216 -90 388l9 43l1 67
q11 123 88 285q14 0 44 68q13 3 44 54q170 147 250 155q1 23 224 43zM267 727q-14 -182 11 -185q0 -39 51 -140q60 -78 88 -88q-2 -13 76 -42q13 -20 120 -29q110 -10 169 16q80 16 161 110q8 -2 46 65q14 -1 26 64q9 -2 29 53l-3 4l5 20l12 130q7 68 -30 188q-10 8 -22 56
q-93 127 -136 132q-35 37 -143 47l-63 9q-99 -1 -120 -19q-81 -15 -149 -89q-22 -14 -53 -72l-34 -63q-21 -3 -41 -167zM440 597l225 273l29 28l164 -366l-110 -50l-83 200l-125 -163zM40 1735l-152 -2074q-96 -166 12 -5l912 -46q-362 -2 484 -37l2 261l171 1934
q-40 4 -1218 -32q-190 -5 -211 -1z" />
    <glyph glyph-name="otilde" unicode="&#xf5;" horiz-adv-x="1322" 
d="M711 1278q114 -10 223 -60q78 -50 92 -51l109 -117q72 -106 78 -156q23 -3 45 -230l-9 -100q-11 -126 -54 -211q-2 -30 -74 -139q-93 -119 -224 -183l-109 -33l-106 -13l-54 -4l-100 10q-224 55 -222 81q-36 4 -72 42q-29 2 -143 162q-97 198 -83 356l9 39l1 61
q9 114 80 262q13 0 41 62q12 3 40 49q156 136 229 143q1 21 206 39zM370 655q-10 -128 7 -130q0 -27 36 -97q42 -55 62 -62q-2 -9 53 -29q9 -14 84 -20q76 -8 117 11q57 11 113 76q6 -1 32 46q10 -1 18 44q7 0 20 38l-2 3l4 13l8 91q5 48 -21 132q-7 5 -15 39q-65 88 -95 92
q-25 25 -100 33l-44 6q-69 -1 -84 -14q-56 -10 -104 -62q-15 -10 -37 -50l-24 -43q-14 -3 -28 -117zM734 1330l32 115q53 43 93.5 52t75.5 0q37 -10 98 -65t97 -64q30 -8 70 3.5t101 61.5l-31 -115q-54 -44 -94.5 -53.5t-74.5 -0.5q-39 11 -100 66t-94 64q-31 9 -71 -2.5
t-102 -61.5zM26 1708l-68 -2091q-81 -171 12 -5l830 -5q-329 -18 442 -16l-7 262l89 1951q-36 3 -1106 -85q-172 -14 -192 -11z" />
    <glyph glyph-name="odieresis" unicode="&#xf6;" horiz-adv-x="1408" 
d="M614 1688l93 -10l53 -2q59 -8 68 -14l-26 -340q0 -10 -38 -10l-179 14q-99 8 -98 28l17 5l-16 9l24 310q18 16 102 10zM1044 1658l18 -1l14 -1l84 -7q91 -7 90 -27v-8l-14 -12l10 -24l-17 -250l-17 -18l13 -15q-15 -14 -54 -11l-154 12q-99 8 -104 18l26 343q0 11 105 1z
M686 1285h77q258 -39 258 -68q59 0 176 -123q60 -63 97 -178q49 -121 49 -226v-19q0 -182 -118 -404q-120 -136 -149 -136q-42 -41 -131 -73q0 -11 -231 -56q-125 0 -321 56q0 13 -82 43q-143 113 -169 177q-90 135 -90 349q0 158 55 271q30 102 162 226q104 82 209 117z
M494 708v-93q21 -121 47 -121q24 -42 111 -68l47 -3h16q67 0 121 41q63 56 63 132l5 19v56q-24 144 -52 144q0 37 -101 72l-46 3q-92 0 -158 -60q-34 -46 -53 -122zM42 1776l-68 -2159q-86 -171 12 -5l876 -5q-347 -18 466 -16l-8 262l94 1951q-37 3 -1159 -2
q-216 -3 -213 -26z" />
    <glyph glyph-name="divide" unicode="&#xf7;" horiz-adv-x="1153" 
d="M-23 687l26 213l1114 -137l2 -2l-27 -211zM447 1304l266 -52l22 -35l-52 -271l-34 -24l-252 48l-34 53l50 256zM311 562l266 -51l22 -36l-52 -270l-34 -25l-266 52l-22 35l52 271zM-10 1770l-58 -2156q-73 -171 10 -5l743 -5q-294 -18 396 -16l-7 261l81 1949
q-33 3 -984 -2q-184 -3 -181 -26z" />
    <glyph glyph-name="oslash" unicode="&#xf8;" horiz-adv-x="1337" 
d="M669 1270q106 -9 207 -56q72 -46 85 -47l101 -108q67 -98 72 -145q21 -2 42 -213l-9 -93q-10 -116 -49 -195q-3 -27 -69 -128q-87 -111 -207 -170l-101 -31l-99 -12l-50 -3l-93 9q-207 50 -205 75q-33 3 -66 39q-28 2 -133 150q-90 183 -77 329l8 37l1 56q9 106 75 243
q12 0 37 58q11 2 38 45q144 125 212 132q1 20 190 37zM264 702q-12 -155 9 -157q0 -33 44 -118q50 -67 75 -76q-2 -11 64 -35q11 -17 102 -25q93 -9 143 14q69 13 137 93q7 -1 39 55q12 -1 22 54q8 -1 25 46l-3 3l5 17l10 111q5 57 -26 159q-8 7 -22 56q-75 99 -112 104
q-30 31 -122 40l-53 7q-84 -1 -102 -16q-68 -12 -126 -76q-19 -12 -45 -61l-29 -53q-18 -3 -35 -142zM1120 1345l88 -79l-167 -187l-81 86zM62 11l-85 81l170 183l80 -88zM811 988l82 -88l-496 -562l-83 94zM13 1776l-66 -2159q-82 -171 11 -5l838 -5q-332 -18 446 -16
l-8 262l90 1951q-36 3 -1108 -2q-206 -3 -203 -26z" />
    <glyph glyph-name="ugrave" unicode="&#xf9;" horiz-adv-x="1239" 
d="M444 1689l7 1l15 -15l393 -251l14 -16l8 2q19 -10 -7 -36l-112 -115q-14 -14 -456 246l-26 16zM-154 996h57l5 -6v-9q-24 -38 -44 -48q-5 -19 -16 -19v-245l8 -3h12l6 3q7 -4 7 -16v-4q-10 -39 -10 -65q-10 -59 -13 -59h-12l-4 5v462zM1422 1307l2 -3v-1078q12 0 12 -8
v-242l-4 -7h-18v-38h-22l-18 -5q-13 0 -27 28v26q7 21 13 98q14 0 46 318q8 23 12 23v881zM1100 1236l66 -9h28q27 -19 27 -42q-11 -35 -15 -90q-12 -15 -19 -93l-43 -124l-33 -120q-9 0 -22 -105q-28 -51 -66 -257l-87 -197q-11 -37 -66 -93q-45 -57 -74 -66
q-7 -13 -105 -43q-76 -43 -177 -43l-74 -8q-21 8 -81 8h-13q-114 17 -121 39q-113 41 -113 73q-23 19 -51 60q-27 0 -38 131v12l-7 11l7 47l-4 15q0 69 49 238l40 120q24 118 94 326q38 186 74 186l4 3h32l3 -3q0 7 157 15q157 0 157 -30v-12l-17 -90q-32 -62 -59 -198
q-7 0 -30 -132q-9 -3 -64 -185l-38 -137q-11 -58 -15 -58l4 -19l-10 -51q32 -69 102 -69q95 24 95 54q15 0 35 81q38 71 81 272q0 32 51 178l36 124q34 112 62 238q0 34 144 34h39zM48 1785l-61 -2168q-77 -171 10 -4l779 -6q-308 -18 415 -16l-7 263l84 1959
q-34 3 -1031 -2q-192 -3 -189 -26z" />
    <glyph glyph-name="uacute" unicode="&#xfa;" horiz-adv-x="1082" 
d="M672 1273q25 -1 48 -11l32 7h164l87 4l4 -4l-4 -85l9 -921l-29 -108q-54 -103 -156 -160q-105 -36 -123 -36q-24 -27 -128 -27l-11 3l-13 -3q-115 0 -176 27q-27 0 -120 40q-27 0 -36 33q-17 0 -47 43q-33 10 -33 60q-18 0 -42 113q-10 0 -20 22l2 20v16l5 93l-5 111v65
l5 82l-7 33l2 5v2l-2 49l2 29l-2 231v147l-5 24l5 5v2l-9 58q1 11 29 22l20 -2h82l216 2q13 0 13 -15h3q0 -16 -16 -16l-4 -24l4 -27q6 -265 13 -265l-4 -11q1 -53 7 -53l-3 -3v-64l3 -71l-3 -13l3 -76l4 -300q29 -73 36 -76q48 -31 84 -31q104 20 104 76q9 0 16 64l-4 147
l-5 36l9 44l-12 247l3 40l-3 149l3 40q-7 17 -7 64v67q0 29 -8 44q2 36 20 36zM872 722v-16h8v16h-8zM800 243l-4 -13h11v13h-7zM852 210h20v20q-20 -2 -20 -20zM807 168q0 -20 -7 -20h-13v-9l29 -9v5l4 15zM393 123v-4h32v4h-32zM756 123l-4 -12l4 -3h4l7 11v4h-11zM353 99
l-8 -8v-8h15v16h-7zM616 91v-8h16v8h-16zM906 1464l-2 -6l-17 -5l-338 -188l-17 -3l-2 -7q-15 -10 -23 19l-40 128q-5 15 360 234l22 13zM1063 -376l21 2160q64 172 -9 4l-681 -11q270 25 -362 7l10 -262l-44 -1953q29 -1 900 25q168 7 165 30z" />
    <glyph glyph-name="ucircumflex" unicode="&#xfb;" horiz-adv-x="1186" 
d="M931 768v-17h10v17h-10zM839 243l-5 -15h15v15h-10zM905 206h26v22q-26 -3 -26 -22zM849 159q0 -22 -10 -22h-16v-9l36 -9v4l6 18zM320 111v-5h40v5h-40zM783 111l-6 -14l6 -4h5l9 13v5h-14zM269 84l-11 -9v-8h20v17h-9zM604 75v-8h20v8h-20zM430 1355l160 250l21 26
l151 -292l-84 -52l-76 160l-88 -148zM90 1249h294q40 0 40 -51v-484l-5 -103q29 -200 66 -200q0 -22 60 -32q77 0 137 65q50 125 50 180v574q0 51 51 51h283q40 0 40 -51l-5 -65l5 -32l-5 -6l5 -33v-799l-5 -71l5 -19l-5 -32l5 -71q0 -40 -40 -45h-278q-20 6 -20 64l5 58
l-5 26h-10q-42 -87 -142 -148q-21 0 -101 -39h-131q-157 44 -157 71q-62 34 -96 109q-76 154 -76 258v735l-5 39q5 51 40 51zM1163 -388l23 2171q72 174 -10 5l-763 -12q302 25 -407 7l12 -263l-50 -1964q33 -1 1010 25q188 7 185 31z" />
    <glyph glyph-name="udieresis" unicode="&#xfc;" horiz-adv-x="1104" 
d="M659 1255q23 -4 43 -15l29 3l148 -17l79 -5l3 -4l-12 -75l-86 -831l-36 -95q-60 -87 -157 -128q-98 -21 -114 -20q-24 -22 -118 -11l-10 4l-12 -2q-103 12 -156 42q-24 3 -104 49q-24 2 -29 33q-15 2 -38 43q-28 13 -23 58q-17 1 -27 105q-9 1 -16 23l5 18l1 14l13 83
l8 101l6 58l13 74l-4 30l3 4l1 2l2 44l6 26l20 208l15 133l-1 22l4 4v2l-1 52q2 11 28 18l17 -4l75 -9l194 -19q12 -1 10 -15l3 -1q-2 -14 -16 -12l-6 -22l1 -25q-22 -238 -15 -239l-5 -10q-4 -47 1 -48l-3 -2l-6 -58l-5 -65l-4 -11l-5 -69l-27 -270q19 -69 25 -72
q40 -33 73 -37q96 8 101 58q8 -1 21 56l11 133v33l12 39l15 223l6 36l13 134l6 36q-4 16 0 59l7 60q3 26 -3 41q6 32 21 30zM784 738l-2 -14l8 -1l1 14zM671 315l-5 -12l10 -1l1 12zM714 280l18 -2l2 18q-18 -1 -20 -16zM670 246q-2 -18 -9 -18l-11 2l-1 -8l25 -11v4l6 14z
M292 248v-4l28 -3l1 3zM619 211l-5 -11l3 -3l4 -1l8 10v4zM254 230l-9 -7v-6l14 -2l1 14zM490 196l-1 -7l14 -1l1 6zM451 1656l67 -14l40 -6q44 -11 49 -16l-47 -246q-3 -9 -30 -4l-130 25q-74 13 -71 28l14 3l-11 8l42 224q14 10 77 -2zM766 1600l13 -3l11 -3l61 -12
q68 -12 65 -26l-2 -7l-11 -8l7 -17l-35 -181l-13 -12l8 -11q-12 -11 -41 -5l-113 22q-73 13 -76 22l47 248q2 7 79 -7zM960 -414l198 2151q78 167 -9 5l-679 45q270 2 -361 36l-11 -262l-204 -1942q29 -4 899 -49q168 -7 167 16z" />
    <glyph glyph-name="yacute" unicode="&#xfd;" horiz-adv-x="884" 
d="M345 1294q-29 1 44 -174l-6 -7v-6q-1 -11 29 -40q4 -79 20 -79l17 -73q12 -3 21 -66h3q7 7 19 42q10 -1 26 60q19 0 30 71q31 41 32 70v10q1 5 74 175l127 -8l50 -14l-59 -155l8 3q-44 -61 -45 -86q-19 1 -32 -64q-27 -15 -28 -41q-6 -18 -28 -41q-29 -67 -60 -105
q9 -30 -21 -63l-20 -61l-3 -75l1 -52l-18 -280q0 -9 17 -20l-16 4l-18 -172l-7 4l-244 10l26 -4l6 172v-4l9 3l-12 -2l-2 9l18 332l-4 72l-4 29q2 43 -26 70l-7 42q-24 19 -29 70q-23 23 -29 76q-15 6 -24 59q0 8 -17 24q-8 62 -26 63l-10 52l-28 81l-22 81l-14 -23l40 35
l224 -7zM706 1469l-2 -5l-14 -3l-292 -124l-14 -3l-2 -5q-14 -5 -21 17l-31 99q-3 12 311 159l19 9zM877 -404l10 2189q53 170 -8 4l-565 -11q224 24 -301 7l9 -260l-37 -1852q24 -1 748 -58q139 -23 144 -19z" />
    <glyph glyph-name="thorn" unicode="&#xfe;" horiz-adv-x="868" 
d="M63 1249q112 18 156 1l-14 -1231q-13 -23 -154 -8q-1 1214 12 1238zM493 1011h40q154 0 263 -230l12 -100v-28q0 -230 -247 -328l-68 -7q-284 66 -284 358q0 233 230 329zM352 642q0 -100 132 -149h32q99 0 146 141v49q-33 157 -159 157q-110 0 -151 -138v-60zM856 -404
l11 2112q52 164 -8 4l-552 -11q219 24 -293 7l8 -251l-36 -1787q24 -1 730 -56q136 -22 140 -18z" />
    <glyph glyph-name="ydieresis" unicode="&#xff;" horiz-adv-x="925" 
d="M612 1236l264 -27l42 -41l-14 25l-37 -78l-43 -78l-18 -52q-21 2 -39 -60q-22 -13 -23 -21q-17 -53 -35 -57q-15 -53 -44 -73q-13 -50 -44 -66l-13 -42q-37 -22 -40 -66l-8 -30l-14 -72l-22 -339l-5 -10l-13 5l10 -4v3l-15 -175h31l-317 26l-9 -2l17 177l-20 -1
q22 8 23 18l16 286l8 53l6 76l-16 65q-15 38 0 67q-32 44 -57 116q-23 26 -27 46q2 26 -28 45q-7 68 -29 70q2 26 -41 94l8 -4l-48 166l60 6l210 -10q79 -184 78 -190v-10q-3 -29 28 -76q3 -73 25 -75q-64 -65 23 -66q9 -37 17 -45h4q-57 62 -43 64l30 70q19 -1 33 77
q39 26 40 37v6l-6 8q108 167 75 170zM250 1633l80 -8l46 -1q53 -8 59 -12l-22 -292q-2 -10 -33 -9l-154 12q-88 6 -87 24l16 5l-14 7l20 266q15 14 89 8zM623 1608l15 -1l13 -2l73 -6q80 -6 78 -22l-1 -8l-12 -10l10 -20l-16 -214l-14 -15l11 -12q-13 -14 -47 -11l-135 11
q-86 6 -90 15l22 294q2 8 93 1zM921 -404l11 2189q57 170 -8 4l-605 -11q240 24 -322 7l9 -260l-39 -1852q26 -1 800 -58q149 -23 154 -19z" />
    <glyph glyph-name="dotlessi" unicode="&#x131;" horiz-adv-x="343" 
d="M211 904q0 -88 51 -88h23v-25h-224v25h23q51 0 51 88v219q0 39 -57 39h-24v23q113 35 133 92h24v-373zM336 -404l4 2189q21 170 -3 4l-217 -11q86 24 -116 7l3 -260l-14 -1852q9 -1 288 -58q54 -23 55 -19z" />
    <glyph glyph-name="circumflex" unicode="&#x2c6;" 
 />
    <glyph glyph-name="caron" unicode="&#x2c7;" 
 />
    <glyph glyph-name="uni02C9" unicode="&#x2c9;" horiz-adv-x="666" 
d="M63 1263l20 188l510 -129l-21 -188zM642 -393l7 2167q40 169 -5 4l-423 -11q167 24 -225 6l6 -256l-27 -1834q18 -1 559 -57q104 -23 108 -19z" />
    <glyph glyph-name="breve" unicode="&#x2d8;" 
 />
    <glyph glyph-name="dotaccent" unicode="&#x2d9;" horiz-adv-x="876" 
d="M844 -540l10 2189q53 170 -8 4l-565 -11q224 24 -301 7l9 -260l-37 -1852q24 -1 748 -58q139 -23 144 -19z" />
    <glyph glyph-name="ring" unicode="&#x2da;" horiz-adv-x="555" 
d="M237 1257q0 -42 29 -71t71 -29t71 29t29 71q0 40 -29.5 69.5t-70.5 29.5t-70.5 -29.5t-29.5 -69.5zM161 1257q0 75 51 126t125 51q76 0 127.5 -51.5t51.5 -125.5q0 -75 -51.5 -126.5t-127.5 -51.5q-74 0 -125 51.5t-51 126.5zM540 -441l7 2189q32 170 -5 4l-349 -11
q138 24 -185 7l5 -260l-23 -1852q15 -1 461 -58q86 -23 89 -19z" />
    <glyph glyph-name="ogonek" unicode="&#x2db;" 
 />
    <glyph glyph-name="tilde" unicode="&#x2dc;" horiz-adv-x="920" 
d="M835 1238q-74 -74 -133 -91t-134 5l-4 1q-48 14 -101 54q-57 42 -84 42q-52 5 -71.5 -5.5t-52.5 -79.5l-106 73q39 91 127 120t165 6q44 -14 101 -55q55 -40 56 -41l15 -1q39 -22 72 -7t41 69zM70 1829l-119 -2185q-62 -168 7 -5l565 -17q-225 -13 300 -22l5 260
l129 1848q-25 2 -744 95q-138 30 -143 26z" />
    <glyph glyph-name="hungarumlaut" unicode="&#x2dd;" horiz-adv-x="8" 
 />
    <glyph glyph-name="endash" unicode="&#x2013;" horiz-adv-x="8" 
 />
    <glyph glyph-name="emdash" unicode="&#x2014;" 
 />
    <glyph glyph-name="quoteleft" unicode="&#x2018;" horiz-adv-x="498" 
d="M250 1006q-34 10 -82 61t-73 140q-36 131 20.5 261t268.5 161l43 -146q-163 8 -177 -139q0 -119 108 -204l1 1zM500 -356l7 2142q30 168 -5 5l-329 -11q131 24 -174 6l4 -253l-21 -1814q14 -1 435 -57q81 -22 83 -18z" />
    <glyph glyph-name="quoteright" unicode="&#x2019;" horiz-adv-x="513" 
d="M238 1577q22 -11 77.5 -71t84.5 -143q29 -138 -24 -269.5t-160 -211.5l-95 152q113 68 127 215q0 119 -140 190l11 13zM504 -383l7 2142q30 168 -5 5l-329 -11q131 24 -174 6l4 -253l-21 -1814q14 -1 435 -57q81 -22 83 -18z" />
    <glyph glyph-name="quotesinglbase" unicode="&#x201a;" horiz-adv-x="554" 
d="M198 331q84 -50 108.5 -74t104.5 -150q29 -130 3.5 -247.5t-149.5 -269.5l-104 173q73 43 87 190q0 119 -139 205l10 -2zM534 -489l7 2142q30 168 -5 5l-329 -11q131 24 -174 6l4 -253l-21 -1814q14 -1 435 -57q81 -22 83 -18z" />
    <glyph glyph-name="quotedblleft" unicode="&#x201c;" horiz-adv-x="762" 
d="M208 957q-17 -23 -75 31t-89 150q-35 146 49.5 274.5t229.5 145.5l46 -153q-115 25 -142 -120q-10 -119 114 -172l-3 -41zM565 930q-17 -23 -75 31t-90 150q-34 146 50.5 274.5t229.5 145.5l46 -153q-115 25 -142 -120q-10 -119 114 -172l-3 -42zM737 -386l8 2142
q44 168 -6 5l-469 -11q186 24 -249 6l6 -253l-30 -1814q20 -1 620 -57q116 -22 120 -18z" />
    <glyph glyph-name="quotedblright" unicode="&#x201d;" horiz-adv-x="768" 
d="M542 1339q19 23 73.5 -34.5t80.5 -155.5q25 -148 -67 -271t-238 -131l-36 155q113 -32 149 112q17 117 -104 178l6 41zM187 1388q19 23 73.5 -35t80.5 -155q26 -148 -66.5 -271t-237.5 -131l-37 155q114 -32 149 111q18 118 -104 179l6 41zM739 -428l9 2016q47 157 -7 4
l-496 -11q197 23 -264 6l7 -238l-32 -1706q21 -1 657 -54q122 -21 126 -17z" />
    <glyph glyph-name="quotedblbase" unicode="&#x201e;" horiz-adv-x="887" 
d="M684 314q26 22 76.5 -55t59.5 -194q-1 -174 -132 -295.5t-298 -100.5l-10 185q123 -60 193 96q44 131 -82 225l16 46zM289 443q26 22 76.5 -55t59.5 -194q-1 -174 -131.5 -295.5t-298.5 -100.5l-10 185q123 -60 193 96q44 131 -82 225l16 46zM858 -461l11 2244
q55 174 -8 4l-584 -12q231 26 -311 7l9 -265l-38 -1899q25 -1 773 -60q144 -23 148 -19z" />
    <glyph glyph-name="dagger" unicode="&#x2020;" horiz-adv-x="1092" 
d="M547 1079q0 101 -44 190q-54 110 -51 138q4 51 47.5 89t109.5 33q64 -5 102 -47t35 -87q-3 -34 -74 -138q-58 -84 -77 -182q108 2 202 42q118 51 149 49q54 -4 95.5 -44.5t36.5 -103.5q-5 -59 -50 -94.5t-96 -32.5q-35 3 -146 69q-90 54 -195 73q-5 -183 99 -296
q6 -9 -95 -1070l-288 21q96 1070 90 1070q121 97 147 279q-108 -3 -203 -43q-117 -50 -148 -48q-54 4 -84 43.5t-25 101.5q5 60 39 96.5t83 32.5q36 -2 147 -69q91 -54 194 -72zM1061 -488l12 2269q64 177 -9 5l-674 -12q267 26 -358 7l10 -268l-44 -1921q29 -1 891 -60
q166 -24 172 -20z" />
    <glyph glyph-name="daggerdbl" unicode="&#x2021;" horiz-adv-x="762" 
d="M375 1013l-264 15l7 110l263 -14l16 294h1l107 -6l-17 -294l263 -14l2 -1l-7 -110l-265 15l-16 -294l-105 5zM338 314l-264 15l7 110l264 -14l15 293l2 1l106 -6l-17 -294l263 -14l2 -2l-7 -109l-265 15l-16 -294l-105 5zM755 -461l9 2244q47 174 -7 4l-501 -12
q198 26 -267 7l8 -265l-33 -1899q22 -1 663 -60q123 -23 128 -19z" />
    <glyph glyph-name="bullet" unicode="&#x2022;" horiz-adv-x="903" 
d="M73 660q0 171 121 290.5t291 119.5t290 -120t120 -290q0 -169 -121.5 -290.5t-290.5 -121.5q-171 0 -290.5 121t-119.5 291zM917 -356l11 2142q57 168 -8 5l-609 -11q241 24 -324 6l9 -253l-40 -1814q26 -1 806 -57q150 -22 155 -18z" />
    <glyph glyph-name="ellipsis" unicode="&#x2026;" horiz-adv-x="510" 
d="M485 -386l7 2142q30 168 -5 5l-329 -11q131 24 -174 6l4 -253l-21 -1814q14 -1 435 -57q81 -22 83 -18z" />
    <glyph glyph-name="guilsinglleft" unicode="&#x2039;" horiz-adv-x="954" 
d="M3 644l928 350l37 -2l-5 -51l-565 -328l508 -410l-4 -51l-36 3zM932 -412l12 2196q58 172 -9 5l-623 -12q247 25 -332 7l9 -260l-40 -1859q27 -1 824 -58q154 -23 159 -19z" />
    <glyph glyph-name="guilsinglright" unicode="&#x203a;" horiz-adv-x="913" 
d="M937 464l-931 -341l-37 3l5 51l568 322l-504 415l5 51l36 -3zM914 -239l11 2033q56 158 -8 4l-595 -11q235 23 -317 7l9 -241l-39 -1720q26 -2 787 -55q147 -21 152 -17z" />
    <glyph glyph-name="fraction" unicode="&#x2044;" horiz-adv-x="495" 
d="M-14 -160l387 1694l79 29l-385 -1693zM489 -356l7 2142q30 168 -5 5l-329 -11q131 24 -174 6l4 -253l-21 -1814q14 -1 435 -57q81 -22 83 -18z" />
    <glyph glyph-name="fraction" unicode="&#x2215;" horiz-adv-x="495" 
d="M-14 -160l387 1694l79 29l-385 -1693zM489 -356l7 2142q30 168 -5 5l-329 -11q131 24 -174 6l4 -253l-21 -1814q14 -1 435 -57q81 -22 83 -18z" />
    <glyph glyph-name="franc" unicode="&#x20a3;" horiz-adv-x="820" 
d="M286 1356l414 -18v-5l32 -2v5h4v-5l6 -1v5h2v-5h20q-1 -6 6 -7q0 -5 13 -13l5 -9l-2 -27l-3 -9l3 -11l-1 -10l-4 -15l3 -2v-3q-8 -43 -36 -41l-286 12l-2 2q-33 -2 -33 -23l-2 -40l2 -10l-3 -19l-5 -100q-3 -49 23 -50q15 -1 25 6l149 -6q110 -5 109 -21q14 -8 12 -32
l-4 -31l2 -20q-4 -51 -28 -50l-3 -2l-260 11l-3 4q-34 -3 -36 -32v-3l2 -27l-3 -3l2 -18l-10 -216v-43q-5 0 -9 -20q-178 0 -177 31l-2 2l21 449l16 395q8 17 17 23l23 -1zM993 254h3q14 0 16 -83l-12 -7h-7l-6 7v74zM1045 245h7l4 -19v-10l-4 -4l4 -3v-9l-11 -11l-7 8l7 23
v25zM208 326l-230 15l11 142l623 -47l1 -1l-11 -141l-222 25l-29 -378l-171 9zM802 -458l10 2241q49 174 -7 4l-522 -11q207 25 -278 7l8 -266l-34 -1896q22 -1 690 -60q129 -23 133 -19z" />
    <glyph glyph-name="lira" unicode="&#x20a4;" horiz-adv-x="1098" 
d="M881 1199q-81 35 -188 14h-3q-103 27 -208 -51q-107 -61 -108 -171q-1 -14 -13 -28q-24 -97 11 -135l424 -31l10 -122l-413 30q11 -29 25 -58l403 -30l-3 -121l-378 27q31 4 22 -66q-17 -150 -130 -286l273 -20q240 -24 262 62l168 -26l-136 -207l-894 64l6 47
q235 206 231 376q8 71 -20 69l-3 2l-191 15l3 122l169 -12q-14 29 -25 58l-158 11l-11 122l135 -9q-16 36 18 114q24 210 183 312.5t378 86.5q89 -6 206 -28t114 -40l-17 -150l-85 -32q1 57 -57 91zM1089 -390l13 2077q66 162 -10 4l-708 -10q280 23 -377 6l10 -246
l-46 -1758q31 -1 937 -55q175 -22 181 -18z" />
    <glyph glyph-name="peseta" unicode="&#x20a7;" horiz-adv-x="2303" 
d="M957 1358l-10 -189l-45 3q-48 2 -44 81l1 11l5 4l-5 5l3 51q1 28 95 34zM1024 -103l34 -1l-9 -189q-93 5 -91 50l1 26l6 18l-4 21l1 15q3 63 62 60zM446 1211q105 -16 163 -35q17 -17 71 -38l68 -69l46 -98q37 -112 33 -193q-9 -94 -44 -154q-2 -41 -99 -150l-54 -39
l-84 -38q-96 -8 -144 -22l-67 8q-32 1 -40 -71l-4 -90l4 -5l-5 -4l-2 -25q-4 -83 -9 -83l-6 -71l-266 14l4 78q-7 -1 1 64l46 806q1 72 -20 74q32 -3 30 157l340 -19zM346 924l-18 -245q-5 -72 37 -74h5q48 -2 125 36l43 47q9 -1 23 108q9 107 -74 163q-59 34 -103 35
q-31 2 -38 -70zM1918 918q167 -29 165 -48q37 -4 114 -62q15 -6 47 -46v-8q-2 -12 -64 -78q-15 -33 -61 -62q-11 1 -39 28q-12 1 -59 41l-120 47q-57 5 -111 -28q-17 -20 -25 -48q-4 -50 78 -96l110 -46q36 -3 111 -46q23 -3 101 -70q59 -72 54 -122q13 -49 12 -65l-2 -14
q-3 -38 -39 -125q-57 -92 -136 -115l-43 -17q-8 -6 -154 -10l-40 4q-37 14 -133 34q-105 52 -119 67q-94 64 -91 95q1 11 92 101q12 22 26 26l21 -2q15 -1 42 -39q16 -2 49 -34l85 -44q15 -7 55 -11l52 -5q71 -7 110 61l1 17q7 73 -137 119q-25 21 -126 44q1 14 -78 44
l-76 74q0 9 -25 42l-17 111l3 39q40 135 57 133q101 133 310 114zM1471 1381q23 -1 48 -63v-4q-35 -67 -42 -100l-9 -14h-7l9 173l1 4v4zM1305 1159q12 -1 15 -48l-10 -189l-5 -28q4 -19 12 -19l153 -8q23 -1 28 -20l-9 -175q-1 -33 -23 -46l-65 7h-58l-26 9q-21 -4 -23 -30
l-16 -311q14 -88 51 -90l55 -12l52 7l8 -1q14 -3 31 -62l-7 -46l2 -43l-4 -4v-4l2 -29q-2 -46 -101 -54l-149 7l-105 34q-45 6 -113 107q-13 62 -27 67l5 162l13 264q3 50 -11 51l-16 1l-22 -3l-25 5l-47 -1q-38 2 -36 48l8 162q2 32 32 30l123 -6l13 10l11 134l2 28
q5 106 39 105q208 -7 243 -9zM1569 855h7l-1 -8l-37 -734l-1 -8h-7v24l2 40l35 670q0 16 2 16zM1142 -242l35 -1l6 -8l-2 -39l-10 -12l-28 1l-13 17l1 20q3 23 11 22zM1310 -250q10 -2 8 -32l-1 -15l-10 -12l-28 1q-40 41 -40 54l1 4l3 3zM1393 -254l23 -33l28 -2l26 31
l42 -2v-4q-1 -22 -48 -57l-57 3q-24 1 -40 29q-17 12 -16 33l4 4zM1575 -264l66 -3q7 0 7 -12q-1 -7 -41 -45l-29 1q-13 7 -12 28l1 24zM1749 -273q11 -2 9 -32q-1 -20 -15 -26l-28 1q-36 39 -36 57l4 4zM1857 -278l23 -33l28 -2l26 31l39 -2l3 -4h3q-1 -12 -34 -42
q-5 -15 -24 -14l-50 2l-24 5l-3 -59l-7 -8l-32 2l-6 8v5q8 68 35 73q-22 21 -22 36l4 4zM2259 -469l28 2251q139 176 -20 5l-1482 -12q586 25 -789 7l22 -267l-96 -1905q64 -1 1960 -60q365 -23 377 -19z" />
    <glyph glyph-name="Euro" unicode="&#x20ac;" horiz-adv-x="907" 
d="M513 824l333 -19l6 -6v-46l-6 -5l-431 24q-9 0 -9 -72v-22l440 -24l5 -6v-46l-5 -6l-344 19q-91 5 -97 6l-42 2l-10 9v41l10 8l42 -2v49l4 41l-4 3l-42 3l-9 8v42q3 8 19 7l45 -3zM1064 792q-4 1 -8 16q-3 0 -16 66q-12 82 -11 149v17v27q1 48 8 114q1 0 4 27q1 1 4 23
q16 61 24 66q0 9 -2.5 -254t-2.5 -251zM510 1338q204 -8 301 -160q29 -39 43 -143l5 -37l-5 -15l-2 -59l3 -24q0 -14 -43 -14l-8 2l-4 -2l-18 3h-44l-24 3l-22 -2l-36 4l-30 -1q-6 0 -20 16l3 13l-2 31l4 29l-2 22l3 10q2 58 -49 114q-38 17 -63 18q-81 3 -109 -60
q-11 -39 -13 -89l-24 -615q-3 -94 56 -127l29 -6l46 -1q63 -3 92 51q9 33 11 77l3 82l-1 43q1 13 34 18l15 -1l44 -4h51h7l48 -4l8 2q43 -4 43 -17l-6 -41l-5 -127q-14 -85 -44 -128q-102 -154 -323 -145q-239 9 -329 194q-24 73 -23 111l27 695q1 34 24 102q29 61 86 106
q57 49 143 65q49 11 120 11zM-198 1305l228 -9l5 -6l-33 -873l-5 -5l-7 5l33 853l-222 8l-5 5l1 16zM1049 1047q0 -89 3 -90q0 -19 6 -67q8 -36 12 -40q-1 -6 -0.5 190t-6.5 158q-3 -8 -6 -37l-4 -32q-3 -2 -4 -82zM-73 498l30 -1q24 -13 23 -25l-10 -6l-2 1q-11 0 -24 11
l-8 1l-10 -7v-6q0 -5 51 -18l8 -22v-8l-7 -5l-18 1l-2 2h-4l4 3v8q-66 17 -66 32l1 10q1 23 34 29zM63 858h58l1 -6l-2 -46l-1 -6h-75q-2 0 -5 -72l-1 -21h77l1 -6l-2 -46l-1 -6h-60h-17h-7l-2 8l2 42l2 8h7l2 49l2 41v3h-7l-2 8l2 42q1 8 3 8h8h17zM901 -458l11 2237
q54 174 -8 4l-575 -11q227 25 -306 7l8 -265l-37 -1893q25 -2 761 -60q141 -23 146 -19z" />
    <glyph glyph-name="afii61352" unicode="&#x2116;" horiz-adv-x="1469" 
d="M976 208l181 -1h107q30 -1 43 -4l-22 -155q-5 -6 -77 -6h-349q-117 0 -109 10l35 3l-29 3l16 142q37 8 204 8zM1118 1057q71 -6 138 -37q47 -31 57 -32l66 -71q45 -66 48 -97q15 -1 28 -141l-5 -62q-7 -77 -33 -129q-2 -19 -46 -86q-58 -74 -138 -113l-67 -21l-66 -7
l-33 -3l-62 6q-137 34 -136 50q-22 3 -44 26q-19 1 -89 100q-59 122 -50 219l5 24v38q6 70 50 161q8 0 25 39q8 1 25 30q96 83 141 87q1 13 126 25zM896 674q-6 -81 5 -82q0 -18 22 -63q27 -35 40 -39q-1 -6 34 -19q6 -9 54 -13q49 -5 75 7q36 7 72 49q4 -1 21 29q6 0 11 29
q4 -1 13 24l-1 2l2 8l6 59q2 30 -14 83q-5 4 -10 26q-41 56 -60 58q-16 17 -64 21l-28 5q-45 -1 -54 -9q-36 -7 -67 -40q-10 -6 -24 -32l-14 -28q-10 -2 -19 -75zM58 1077l20 -4l87 -5l29 2l26 -4l33 -2q17 -1 17 -27q27 -79 43 -94q6 -8 6 -39q14 -27 28 -76q22 -1 55 -140
h17l10 13h-3l3 3l1 19l-4 32v14l2 95l3 3l1 3l-3 3l5 46l3 54l2 3l-2 3l1 17l3 17l-4 31q1 11 23 10v3l3 -3l85 -4l102 -2l15 -12l-5 -33l-14 -289l-3 -110l-3 -17l2 -11l-4 -14v-63l-6 -78v-31l-8 -132l-8 -148q0 -9 -11 -8q-37 3 -37 7h-48l-99 4h-41q-14 0 -25 60
q-6 4 -20 54q-19 15 -35 89q-4 0 -16 40q-24 40 -30 84h3q-1 7 -22 25h-2l-6 -5l4 -33l-3 -9v-39l-6 -6v-3l9 -34l-8 -64l1 -37l-4 -17l3 -2v-3l-3 -3l2 -13l-2 -51l2 -3q-1 -25 -21 -24v-3l-25 6h-45h-26l-23 4l-23 -1l-36 2l-3 -2q-20 4 -19 14l8 48l5 115l-3 3l3 3v2
l-1 37l1 5h3l-3 11l12 307l4 83v49l4 31q8 230 3 230q0 11 21 11v3zM584 1153l-2 -8l14 -13v6h5v-7l7 5v10q-12 0 -12 7h-12zM553 1118v-6l6 -1v-3l-6 1l-1 -9l21 -2l12 7v6l-22 10zM433 1105v-11l11 -1l4 12l-3 3h-3zM538 1048v-8l11 -2l1 10h-12zM755 1001l-2 -2v-8
q8 -10 8 -16l6 -1l4 17v2zM715 989v-19h4q12 -1 14 6q-6 0 -6 12l-2 3h-2zM678 981v-3h14v7h-9zM703 944v-5h10l-4 5h-6zM720 904v-3l9 -1l1 3zM715 889l7 -8l2 8l-1 7zM707 826v-5h10v4zM744 813v-6l1 -12h3v5h3l-1 -5h3l2 9l-2 8l-2 -2l-3 2zM560 653v-3l9 -10l10 -2v19
h-3zM1455 -469l18 2237q90 174 -13 4l-955 -11q378 25 -508 7l14 -265l-62 -1893q41 -2 1263 -60q235 -23 243 -19z" />
    <glyph glyph-name="trademark" unicode="&#x2122;" horiz-adv-x="1276" 
d="M671 1205h3l5 -7l-12 -9l-3 3v6zM124 1198l3 -3v-3l-3 -3h-3l-3 3v3l3 3h3zM42 1269h444l12 -12v-6l-8 -12v-97l8 -12q0 -7 -32 -22h-16l-12 7h-8l-11 -7h-24l-12 7l-23 -15l8 -11v-15l-12 -11l4 -5v-82l-4 -19q12 0 12 -7v-4l-12 -15v-11q12 0 12 -8v-109l-8 -11l8 -8
v-41l-12 -11l4 -4v-82l-4 -4v-4l8 -8v-7l-24 -15h-8l-12 7h-11l-12 -7h-4l-12 7h-74l-12 -7h-4l-24 15v485h-117l-16 14v140zM816 1069h9v-10l-13 -12l-3 3v13zM837 1063v-10l-6 6l3 4h3zM816 1038l6 -6v-62l-6 -6l-7 6v62zM816 957q12 -4 12 -9l-12 -9l-7 6v7zM850 955
l5 -7l-5 -6h-7l-9 10l3 3h13zM831 732h6v-9h-6v9zM834 720l6 -6v-3l-6 -7l-6 7v3zM816 701h6l6 -6v-3l-12 -12l-7 6v9zM806 646h16l9 -10v-6h-12l-13 6v10zM56 547h3l6 -6l-9 -6h-6v6zM170 547l19 -12l-13 -10q0 13 -22 16v3l4 3h12zM266 547h18l10 -9l-6 -7l-7 7h-15v9z
M312 547l6 -6l-9 -10l-12 13l3 3h12zM392 547h3l7 -6l-13 -10l-3 4v6zM420 547l6 -6v-3l-6 -7h-3l-12 13l3 3h12zM479 547h28l18 -19v-3l-6 -6h-9l-12 19h-7l-9 -7h-3l-6 7v3zM559 547h9l7 -6v-13h-3q-19 3 -19 10v3zM655 547l6 -6q-37 -3 -37 -13v-3l6 -9q-6 0 -6 -34
l-3 -3h-3l-3 3v34l-6 9l15 22h31zM729 547l6 -6l-3 -3h-12l-7 6l4 3h12zM766 547h12l7 -6l-16 -10l-9 10zM674 535l5 -7v-3l-5 -6l-10 12l3 4h7zM59 528l6 -6l-3 -3h-6l-6 6l3 3h6zM467 528l3 -3v-6l-6 -6h-4l-6 6zM732 528h3l6 -6v-9l-6 -6l-3 3v18zM136 522l3 -3v-3l-3 -3
h-3l-3 3v3l3 3h3zM318 522l7 -6l-3 -16l3 -18v-3l-10 -9l-3 3v43zM766 522h6l6 -6v-3l-6 -6h-3l-9 9zM572 516l9 -37v-9q-6 -8 -6 -22h-10v18l-12 22v16zM337 510l6 -6l-9 -10l-7 6zM164 504l6 -7v-3l-6 -6q0 6 -13 6l-2 3v3l2 4h13zM417 497h3l6 -6v-3l-6 -6h-9l-6 6z
M738 497l3 -3v-3l-3 -3h-3l-3 3v3l3 3h3zM56 491l3 -3v-15h-9v12zM503 491h13l9 -9l-6 -6h-16l-5 6v3zM853 491l2 -3v-9h-8v6zM664 488h3l7 -6l-10 -6l-6 6zM331 479h9v-3l-6 -6l-3 3v6zM720 479l3 -3v-28l-6 -6l-4 3v28zM754 479l6 -6v-3l-6 -7l-6 10zM380 473l3 -3v-7
l-6 -6l-3 3v6zM621 473l9 -22v-3l-6 -6h-3l-12 15zM671 473l8 -13v-9l-8 -9l-7 6v18zM834 473h9v-10h-3l-6 7v3zM516 466h9v-18h-9v18zM460 463h10l6 -6l-9 -9h-3l-10 9zM124 460h9v-6h-9v6zM834 460l6 -6l-6 -6h-6v6zM185 457l4 -3v-3l-7 -6l-2 3v3zM71 451l6 -6l-3 -3h-12
l-6 6l3 3h12zM414 451l6 -6l-3 -3h-6l-6 6l3 3h6zM498 448h9l-6 -6l-3 3v3zM526 1260l198 -4l4 -3h3l-3 -5l-1 -3q7 -20 20 -20l-1 -31q20 -17 19 -54q5 0 16 -25h3l-3 -16l-1 -4q17 -18 25 -65l14 -14l-2 -30q14 -8 13 -34q6 -1 6 -20q16 -6 3 -45l-3 -13l3 3h-3l13 -11
l-3 -3l3 -3l-1 -27l-2 35v-4l4 -6v10l17 -7l-17 -8l7 27l3 4h4l-3 3v3q21 24 21 50l14 17l-3 27q15 -1 28 57q10 0 18 43q21 27 22 61q13 -1 13 30l17 20l-3 3l1 18l24 33l175 -5l7 -7l-3 -128l5 -52l-3 -3v-3l3 -4l-8 -46l-1 -4l7 -10l-3 -34l2 -48l-2 -74q-3 -84 -10 -132
l5 -47v-17l-8 -10v-3l7 -11v-7l-20 -20l-4 1l-32 7l-20 1l-13 -3l-3 3h-4l-28 -2h-3q-20 4 -21 10l10 362l-3 35q0 15 -5 -15q-10 0 -25 -70l-8 -26l3 -18l-23 -9l-1 -31q-17 -18 -37 -110q-8 0 -24 -61l-14 -13v-10l3 -17q-6 0 -14 -20l-36 -3l-29 4l-27 2q-16 17 -16 47
l-13 4l4 23q0 10 -16 34l-6 21l3 9l-22 19l7 19q-10 42 -25 42l3 17l1 13q-20 20 -19 59q-7 1 -20 27l5 16l-9 49q-1 9 -14 21l-8 -390l7 -11l-1 -7q1 -6 -23 -12v-4l-99 9l-20 -6h-3l-14 15l16 601l-4 21l4 17v6zM1259 -435l15 2218q77 174 -11 5l-816 -12q323 25 -435 7
l12 -262l-53 -1878q35 -1 1080 -59q201 -23 208 -19z" />
    <glyph glyph-name="partialdiff" unicode="&#x2202;" horiz-adv-x="988" 
d="M305 516q0 -24 4 -47q10 -71 46 -134.5t89 -97.5q48 -31 96 -31q5 0 10 1q52 3 95.5 41.5t60.5 105.5q12 43 12 87q0 25 -4 50q-10 72 -46.5 136.5t-89.5 97.5q-49 29 -97 29h-8q-51 -3 -94.5 -41t-61.5 -105q-12 -49 -12 -92zM911 477q0 -132 -56.5 -251t-159 -185
t-214.5 -66t-214.5 66t-159 185t-56.5 251q0 131 58 251t161 185t211 65q109 0 212 -65q29 -18 54 -41q-84 235 -233.5 377t-326.5 155v55q306 0 515 -285t209 -697zM999 -450l12 2233q60 174 -9 4l-647 -11q256 25 -344 7l10 -265l-42 -1889q28 -2 855 -60q159 -23 165 -19
z" />
    <glyph glyph-name="Delta" unicode="&#x2206;" horiz-adv-x="1140" 
d="M736 341q4 -13 -4 -15l-3 -1l-3 8q-1 -12 -42 104h-4l-1 4l2 6l-1 4l-11 6l5 11l-5 2l-1 4l2 6l-10 20l-11 32l-5 3l-1 4l2 5l-4 -1l3 6l-2 3l-5 4v28l-7 11l4 11l-10 6l2 5l-1 4l-9 16l3 5l-4 -1l2 6l-11 32l-11 12l4 10l-3 -1l1 5l-17 41l-7 34l-10 24l-5 26l-8 -2l3 6
l-1 4l31 -22l-2 5q-5 -22 -22 -31q1 -17 -13 -22l2 -5l6 2l2 -3q-15 -5 -13 -14l5 -2l-2 -6l-3 -2l-6 4l3 -9l-4 -10l-4 -2l-3 8l-4 -1q7 -21 -7 -43l-5 3l2 -4l5 -4l-2 -5l5 -2l-28 -19l4 -12l8 2l1 -3l-22 -8l5 -3l3 -9l-14 -13h-2l4 -5l1 -3l-14 -5l1 -4l8 3l1 -5l-5 -10
l-10 -17l-6 2l-3 -1l3 -9l5 -2l1 -5q-18 -8 -15 -19l3 1q4 -12 -11 -17l3 -7l-5 2l-3 -1v-4l8 -11l-5 3l-10 -4l5 -2l3 -9l-13 -4l6 -4l1 -3l-7 -3l2 -8q-15 -5 -12 -13q-22 -27 -19 -36l-8 -3l3 5l-1 5l-10 -8l1 -8l6 -4l1 -3q-15 -6 -339 -222l36 3l-3 -5q-4 12 -12 9
l3 -8l-4 -2l-1 10l-5 -2l-9 -9l3 16l-8 -2q5 -14 -3 -16l-12 11l5 10l6 -3q-3 9 7 12l-5 3l-1 4q25 59 46 67l-6 2l-1 4l41 68q-5 17 21 53q31 58 27 69l6 -4l2 1q18 53 29 56l-3 8l4 10l5 2l5 -3l4 2l-2 3l-4 -1q-2 9 47 99q-3 9 13 36l-1 4l4 -3l4 1l-2 5l-5 2l35 85
l-3 22l125 243q10 2 54 113q9 3 48 99l38 62q24 39 55 103l8 10l20 -25l-11 42l33 -86l7 -20l12 -40l34 -84l-5 2l-3 -1l1 -4l4 -2l-3 -1q3 -13 16 -9q3 -8 -13 -13l2 -4q10 3 13 -5l2 -5l-6 4l-4 -2l-2 -6l3 -7l7 2l3 -9l-7 -2l1 -3h8l-2 -5l2 -8l5 -3l-2 -6l4 -12l5 -3
l-2 -5l2 -4l8 -15l-3 -7h-2l17 -30l7 -21l-3 -6l7 -12l4 -22l5 -3l-7 -2l3 -9l6 3l-3 -15l10 -6l-7 -3l5 -2l4 -12q3 -9 -7 -12q0 -10 13 -5l1 -4l-4 -15l11 -6l3 -13l-7 -2l6 -4l2 -4l-5 -15l6 -3l-3 -5l7 2l1 -4l-1 -6l4 -2l5 -16l-4 -2l-2 8l-3 -1l3 -8l4 -3l4 1l-3 -5
l3 -9l9 3l2 -8l-4 -2l-12 1q6 -16 16 -13l1 -4q-11 -4 -7 -16q11 4 14 -5l-5 -11l6 -3l-2 -6l6 2q4 -17 -5 -19l3 -9q10 4 13 -5l-10 -3l1 -4l7 2l5 -16l-5 -2l-2 8l-2 -1l1 -8l3 1l-3 -24l3 1q7 3 2 19l9 3l2 -8l-2 -6l5 -2l3 -9l-5 3l-5 -2l-2 -5l1 -4l5 -3l5 1l-4 -5
l5 -12l6 -3l-1 -5l-6 -2l2 -8l16 4l1 -4l-8 -3q3 -9 -8 -12l10 -6l2 6l5 -4l-2 -5l3 -8l5 -3l1 -4l-10 -8l1 -4l15 5l1 -5l-6 -2l5 -3l4 -16l-4 3l-4 -1l5 -3l3 -8l-7 -3l10 -6l1 6l3 -9l-7 -2l3 -8l4 -3l2 -5l5 -2l-8 -3l24 -62q-12 -2 -8 -11l1 -5l4 1l10 9q1 -14 -10 -22
l-5 3l1 -5l5 -2l-3 -1l-24 6l-3 -1l1 -4l7 3l4 -10zM372 401l72 -18l158 -30l-4 -3q22 3 37 -10q15 7 25 -4l3 3l-4 5l3 3q10 -13 17 -7l1 5h6l3 -3l-2 -6l7 6h12l3 -4l-7 -6l2 -3q17 14 124 46.5t117 20.5l6 5v-6l2 -2l3 1l8 12l-1 -6l7 -8l1 5l7 6l8 -10l1 6l3 2l5 -6l7 6
q10 -13 16 -8l-86 -3l2 6l3 2l2 -2l-1 -6l3 -4l7 6l-1 -6l2 -4l4 4l1 5l3 3l17 -17l-7 -5l5 -6q10 8 25 -10l4 3l7 -39l13 -1l-3 -3l13 -3l5 -22h-18l7 -24l7 6l43 -144l-43 138l-4 -3l3 -4h12l25 -104l7 -1l3 -3l-2 -5h6l-7 -6l3 -3l7 5l-16 -5l13 -6l-5 -13l-7 -6l3 -3
q10 8 18 -2l-1 -5h5q-10 -8 -4 -15l7 5l2 -3l-8 -4l3 -4l11 -6l-15 -3l5 -6q10 9 15 3l-6 -15l-11 1v6q-7 -5 -14 3v-5l-3 -3q-10 -6 -24 12v-6l-3 -3l-88 12q-14 -10 -57 1q-65 9 -74 2l1 6l-1 3q192 -5 185 3l-6 -5h-11l-4 4l1 5l-2 4l-3 -3l2 -3q-7 -6 -109 10
q-7 -7 -38 0l-4 -3l2 5l-2 3l-4 -3l-1 -6l-37 -7l-19 -10l-272 33q-5 9 -124 12q-6 8 -139 28l-150 6q-41 4 -54 14l354 224h6l6 5l1 6h6l11 8zM1132 -461l13 2244q70 174 -10 4l-742 -12q294 26 -396 7l11 -265l-48 -1899q32 -1 982 -60q183 -23 190 -19z" />
    <glyph glyph-name="product" unicode="&#x220f;" horiz-adv-x="1189" 
d="M997 109q-19 5 -28 40q1 16 -118 21l-15 16l5 819l2 56q-12 12 -27 14v2l-61 -1l-267 6l-59 4q-25 -4 -25 -23l-5 -845l3 -14q-2 -26 -27 -26l-181 4q-17 -1 -28 18l5 66l-4 973l-5 63q-1 19 26 18l194 -3q6 0 16 -21l-3 -49l15 69q1 -9 32 -17l24 3l356 -8q14 1 29 13
l-4 55l-15 -72q9 15 30 16l180 -3q28 -2 28 -27l-3 -37l5 -3l-5 -23l3 -884l58 -3q0 -24 -28 -67q-9 -97 -30 -96q-11 -8 -28 -52l-3 -4zM9 835l35 509q43 -3 37 -89q13 -1 16 -164q-4 -80 -46 -212q-3 -37 -42 -44zM1168 -431l14 2215q72 172 -10 4l-769 -11q305 25 -408 7
l11 -263l-50 -1874q33 -1 1016 -59q189 -23 196 -19z" />
    <glyph glyph-name="summation" unicode="&#x2211;" horiz-adv-x="1392" 
d="M20 57l16 381l6 6v6l8 -6l6 -1q39 12 40 37l58 -2q34 37 106 34q0 11 48 30v6l31 -7l6 -2q35 32 127 48l27 24l59 -3q15 25 65 23q2 12 39 12q11 30 86 3l25 -6l-6 7v-6l21 24l6 -7l6 6l53 -2l-68 -3l8 -1l12 8h-20l14 33l14 -33l-51 15l-7 6v7l-6 -6h-7q-44 42 -95 43
l-31 27l-54 -5q3 30 -107 55q0 21 -83 37q-50 40 -116 43q2 26 -58 28l-36 33l-7 -6l-34 2l-62 47l14 338l14 12l245 -10l101 8l6 -6l6 -1l7 6l89 -15l7 -3l20 13l65 -8l92 2l142 -6q161 -7 253 -23l92 8h32l19 -15h6l21 12h13l38 -40l-2 -6l-14 -63l-3 -37l6 -26l-6 -6v-6
l3 -55v-6q-9 -38 -21 -39l-695 30l-67 -4q-29 0 28 -10q-1 -19 134 -50l50 -17l34 5l17 -44l59 -3q34 -33 211 -74q0 -17 116 -50l25 -25l19 -2l33 5q0 -12 37 -27l4 -70l-8 -55l-3 -51q-34 -31 -92 -29l-8 -25l-45 8q-18 1 -65 -29l-41 -12l-18 7l-36 -43l-37 15
q-80 -18 -80 -48l-34 8l-25 1q-39 -38 -113 -35q-3 -13 -53 -36l-31 9l-94 -16q-18 0 -41 -26l749 -27l21 12l13 -1q14 1 24 -44l6 -2l-20 -190l11 -38v-6l-28 -26l-1156 50l-40 -6l-33 9zM399 670l11 -2l-2 -31h-12zM386 476h10l-7 -130l-12 1zM-613 -160q9 0 16 -48h5l5 5
q11 -53 27 -53l32 -22l127 6h107l11 -11l-6 -5h-143l-75 -5l-21 5l-16 -5l-11 10h-26v-16h-11l-11 11l6 5q-27 0 -27 117l5 6h6zM274 73l5 -5l-2 -16h-5l-10 11zM194 -21l4 -4l-1 -13l-10 -8l-21 1q-9 9 -29 11v8zM1342 -63q36 -10 35 -19q-30 -14 -49 -12h-5l-58 15l1 5z
M100 -267q2 -5 2 -16l-10 -10h8l-16 15zM388 -5l15 -11l136 1l32 -1l10 -12l-5 -5l-1 -6l-5 6l-27 2l-11 -10l-119 13h-11q-10 2 -13 -25l-5 -5h-11q-10 1 -9 28q-69 18 -69 26l6 5zM834 -34q43 -9 42 -20l-5 -5l-38 2l-10 13zM124 -278h21v-10h-21v10zM207 -25h6
q15 -4 13 -44l-12 -10l-11 1l-10 11l3 32zM1444 -135l5 -6v-5l-12 -10l-5 5v6zM614 -84l5 -7l-2 -5l-5 -5l46 -2l-5 5v5l6 5zM372 -74h11l-1 -17l-10 2v15zM121 -80l12 -1v-9l-13 1zM1382 -450l17 2233q86 174 -13 4l-910 -11q360 25 -485 7l13 -265l-59 -1889
q39 -2 1205 -60q224 -23 232 -19z" />
    <glyph glyph-name="minus" unicode="&#x2212;" horiz-adv-x="990" 
d="M53 581l13 183l838 -99l1 -1l-12 -183zM948 -443l11 2226q58 174 -8 5l-612 -12q242 25 -325 7l9 -264l-40 -1884q26 -1 809 -59q151 -23 156 -19z" />
    <glyph glyph-name="radical" unicode="&#x221a;" 
 />
    <glyph glyph-name="infinity" unicode="&#x221e;" 
 />
    <glyph glyph-name="integral" unicode="&#x222b;" horiz-adv-x="936" 
d="M671 1764l193 20l34 -28l4 -38q-21 -23 -16 -72q-15 -2 -6 -71l-30 -28l-17 16l-70 -8q-112 -45 -100 -160l-20 -26l9 -7l-17 -221l4 -39l-20 -33l9 -78l-12 -25l9 -85l-15 -87l-14 -18l11 -100l3 166l-8 -9l9 -84l-17 -51l-260 -1l9 -10l-12 117l14 87l8 10l-27 -153
l30 81l-12 108l13 26l-9 77l20 33l-2 24q-1 15 14 236q15 2 7 87l46 146q96 150 155 157q-1 17 76 32zM273 -8l-194 -15l-33 29l-3 38q22 22 18 72q15 1 9 70l30 27l16 -16l71 6q114 42 104 157l22 25l-9 8l23 220l-3 39l12 45l281 9l-21 -33l1 -24q1 -15 -21 -236
q-15 -1 -9 -86l-51 -144q-100 -148 -159 -153q1 -17 -77 -30zM1019 -371l12 2204q62 172 -9 5l-660 -12q261 25 -351 7l10 -261l-43 -1865q28 -2 873 -59q162 -23 168 -19z" />
    <glyph glyph-name="approxequal" unicode="&#x2248;" horiz-adv-x="928" 
d="M943 728l-44 -161q-80 -57 -144 -67t-119 6q-57 17 -157 99.5t-156 99.5q-49 14 -111.5 0.5t-155.5 -79.5l43 161q82 58 146 68.5t117 -5.5q61 -17 160.5 -101t152.5 -99q50 -15 112 -1.5t156 79.5zM901 499l-42 -162q-80 -57 -143.5 -68t-118.5 4q-58 17 -158.5 98.5
t-157.5 97.5q-49 13 -111 -1t-155 -81l42 161q81 59 145 70t117 -3q61 -17 161.5 -100t153.5 -98q50 -13 112 0.5t155 81.5zM939 -439l12 2222q58 174 -9 5l-618 -12q245 25 -329 7l9 -263l-40 -1881q27 -1 818 -59q152 -23 157 -19z" />
    <glyph glyph-name="lessequal" unicode="&#x2264;" horiz-adv-x="690" 
d="M652 722l-395 -109l379 -197l-47 -109l-514 270l-1 91l552 176zM41 86l17 205l570 -45l1 -1l-15 -200zM685 -435l8 2218q43 174 -6 5l-452 -12q179 25 -241 7l6 -262l-29 -1878q20 -1 598 -59q112 -23 116 -19z" />
    <glyph glyph-name="greaterequal" unicode="&#x2265;" horiz-adv-x="803" 
d="M85 408l381 19l-351 216l81 110l550 -348l-36 -88l-654 -55zM60 -33l40 206l598 -100v-1l-35 -212zM766 -435l9 2218q47 174 -6 5l-490 -12q194 25 -260 7l7 -262l-32 -1878q21 -1 648 -59q120 -23 124 -19z" />
    <glyph glyph-name="uniF001" unicode="&#xf001;" 
 />
    <glyph glyph-name="uniF001" unicode="&#xfb01;" 
 />
    <glyph glyph-name="uniF002" unicode="&#xf002;" horiz-adv-x="8" 
 />
    <glyph glyph-name="uniF002" unicode="&#xfb02;" horiz-adv-x="8" 
 />
  </font>
</defs>
</svg>
