<?xml version="1.0" standalone="no"?>
<!DOCTYPE svg PUBLIC "-//W3C//DTD SVG 1.1//EN" "http://www.w3.org/Graphics/SVG/1.1/DTD/svg11.dtd" >
<svg xmlns="http://www.w3.org/2000/svg" xmlns:xlink="http://www.w3.org/1999/xlink" version="1.1">
<metadata>
Created by FontForge 20170731 at Wed Jul  6 18:55:57 2016
 By Aleksey,,,
Created by gluk ( gluksza@wp.pl | www.glukfonts.pl ) with FontForge and ttfautohint.
</metadata>
<defs>
<font id="Digitalt" horiz-adv-x="2160" >
  <font-face 
    font-family="Digitalt"
    font-weight="500"
    font-stretch="normal"
    units-per-em="4096"
    panose-1="2 0 6 3 0 0 0 0 0 0"
    ascent="3272"
    descent="-824"
    x-height="2408"
    cap-height="2409"
    bbox="-961 -800 3805 3145"
    underline-thickness="200"
    underline-position="-800"
    unicode-range="U+0020-2212"
  />
<missing-glyph horiz-adv-x="1360" 
d="M120 2160h1200v-1920h-1200v1920zM358 1543l240 -343l-240 -343l164 -114l198 283l198 -283l164 114l-240 343l240 343l-164 114l-198 -283l-198 283z" />
    <glyph glyph-name=".notdef" horiz-adv-x="1360" 
d="M120 2160h1200v-1920h-1200v1920zM358 1543l240 -343l-240 -343l164 -114l198 283l198 -283l164 114l-240 343l240 343l-164 114l-198 -283l-198 283z" />
    <glyph glyph-name=".null" horiz-adv-x="0" 
 />
    <glyph glyph-name="nonmarkingreturn" horiz-adv-x="1365" 
 />
    <glyph glyph-name="space" unicode=" " horiz-adv-x="1200" 
 />
    <glyph glyph-name="exclam" unicode="!" horiz-adv-x="1024" 
d="M205 345q0 131 3 275q146 7 296 7q132 0 344 -7q16 0 28 -12t12 -28q3 -162 3 -307q0 -129 -3 -273q-90 -5 -217 -5q-184 0 -423 13q-17 1 -28.5 12.5t-11.5 27.5q-3 158 -3 297zM176 1600q0 391 16 800q190 9 350 9q136 0 330 -9q16 -1 27.5 -12.5t12.5 -27.5
q16 -427 16 -760q0 -350 -24 -800q-143 -9 -282 -9q-254 0 -390 9q-17 1 -28 12.5t-12 27.5q-16 427 -16 760z" />
    <glyph glyph-name="quotedbl" unicode="&#x22;" horiz-adv-x="1680" 
d="M119 1988q0 62 1 196.5t1 203.5q0 17 10 28.5t26 11.5q47 2 281 2q235 0 282 -2q16 0 28 -12t12 -28q0 -69 1 -195.5t1 -188.5q-14 -119 -78 -358t-92 -318q-53 -3 -167 -3q-122 0 -224 3q-11 58 -40 291t-42 369zM967 1988q0 62 1 196.5t1 203.5q0 17 10 28.5t26 11.5
q47 2 281 2q235 0 282 -2q16 0 28 -12t12 -28q0 -69 1 -195.5t1 -188.5q-14 -119 -78 -358t-92 -318q-53 -3 -167 -3q-122 0 -224 3q-11 58 -40 291t-42 369z" />
    <glyph glyph-name="numbersign" unicode="#" horiz-adv-x="2088" 
d="M109 769q0 21 7 231q79 3 333 5q0 26 -0.5 78t-0.5 77q0 156 1 241q-251 6 -269 7q-16 0 -27.5 11.5t-12.5 28.5q-3 98 -3 129q0 21 7 231q76 3 310 5q3 223 10 507q135 4 231 4q92 0 201 -4q16 0 28 -12t12 -28q7 -334 9 -464q55 0 125.5 0.5t79.5 0.5h72q3 213 10 503
q135 4 231 4q92 0 201 -4q16 0 28 -12t12 -28q7 -341 9 -467q215 -2 303 -5q16 0 28 -12t12 -28q0 -185 -4 -368q-19 -1 -334 -5q2 -180 2 -235q0 -22 -0.5 -73.5t-0.5 -81.5q189 -2 269 -5q16 0 28 -12t12 -28q0 -191 -4 -368q-55 -3 -310 -5q-4 -222 -10 -507
q-117 -5 -200 -5q-95 0 -232 5q-16 0 -28 12t-12 28q-7 293 -10 464q-43 0 -99 -0.5t-65 -0.5q-63 0 -112 1q-3 -215 -10 -504q-117 -5 -200 -5q-95 0 -232 5q-16 0 -28 12t-12 28q-7 296 -10 473q-286 6 -302 7q-16 0 -28 12t-12 28q-3 97 -3 129zM950 1392q2 -178 2 -232
q0 -21 -0.5 -71.5t-0.5 -79.5h171h95q0 26 -0.5 76.5t-0.5 74.5q0 150 1 231h-131q-76 0 -136 1z" />
    <glyph glyph-name="dollar" unicode="$" horiz-adv-x="1880" 
d="M140 1669q0 152 29 264.5t86.5 187.5t135 119.5t184.5 69.5q3 357 9 570q191 9 310 9q125 0 370 -9q16 0 28 -12t12 -28q5 -222 8 -505q240 -22 471 -67l-81 -575q-158 64 -339.5 104.5t-345.5 40.5q-53 0 -93 -5.5t-75 -19t-54 -40t-19 -64.5q0 -20 6.5 -38t22 -33.5
t30.5 -28t45 -25.5t51 -21.5t61.5 -20.5t64.5 -19t72 -20q92 -25 142.5 -40t140 -48.5t142 -65t119.5 -84t103 -112t62 -143t26 -181.5q0 -161 -36 -286.5t-106 -211.5t-162.5 -141.5t-214.5 -86.5q-6 -488 -9 -583q-191 -9 -310 -9q-125 0 -370 9q-16 0 -28 12t-12 28
q-5 222 -8 507q-240 11 -467 33l90 635q417 -127 672 -127q116 0 172.5 45t56.5 112q0 26 -9.5 48t-22.5 38t-41 32t-48.5 25.5t-62.5 22t-67 19t-76 19.5q-83 21 -129.5 34.5t-127 43.5t-128.5 61.5t-107.5 85.5t-92.5 117.5t-56.5 155.5t-23.5 202z" />
    <glyph glyph-name="percent" unicode="%" horiz-adv-x="3024" 
d="M269 136q0 5 4 12.5t13 20t17.5 23t24.5 30.5t26 33q253 325 842 1066.5t794 1004.5q38 1 281 1q119 0 267.5 -9.5t219.5 -20.5q11 -1 17.5 -9.5t6.5 -18.5q0 -6 -6 -16.5t-19.5 -30t-27.5 -38t-39 -52t-45 -60.5q-368 -501 -820 -1073t-764 -920q-38 -1 -280 -1
q-119 0 -267.5 9.5t-219.5 20.5q-11 1 -18 9.5t-7 18.5zM66 1829q0 146 35.5 252.5t104 171.5t159.5 97.5t210 38.5q143 0 242.5 -16t175 -53.5t119 -103t65 -159.5t21.5 -228q0 -146 -34 -252t-101 -170.5t-156.5 -97t-208.5 -38.5q-179 0 -293.5 24.5t-193.5 88.5
t-112 171t-33 274zM552 1829q0 -81 17.5 -105.5t62.5 -24.5q43 0 61.5 24.5t18.5 105.5q0 43 -5.5 69.5t-18 39t-27 16.5t-38.5 4q-36 0 -53.5 -25t-17.5 -104zM1906 573q0 146 35.5 252.5t104 171.5t159.5 97.5t210 38.5q143 0 242.5 -16t175 -53.5t119 -103t65 -159.5
t21.5 -228q0 -146 -34 -252t-101 -170.5t-156.5 -97t-208.5 -38.5q-179 0 -293.5 24.5t-193.5 88.5t-112 171t-33 274zM2392 573q0 -81 17.5 -105.5t62.5 -24.5q43 0 61.5 24.5t18.5 105.5q0 43 -5.5 69.5t-18 39t-27 16.5t-38.5 4q-36 0 -53.5 -25t-17.5 -104z" />
    <glyph glyph-name="ampersand" unicode="&#x26;" horiz-adv-x="2240" 
d="M72 724q0 152 106.5 294.5t295.5 242.5q-190 187 -190 483q0 140 36 245.5t102.5 175t169.5 112.5t227 61t285 18q125 0 292.5 -19.5t287.5 -48.5l-82 -587l-445 25q-101 0 -153 -30.5t-52 -99.5q0 -132 224 -132l-59 -262h16q92 158 204 266q217 5 419 5q216 0 460 -9
q16 0 27.5 -11.5t12.5 -28.5q4 -94 4 -223q0 -145 -4 -281q-184 0 -295 -2q52 -177 52 -326q0 -109 -29 -199.5t-96.5 -168t-170.5 -131t-257.5 -83.5t-351.5 -30q-102 0 -185 4t-173 14.5t-162 28t-144 47t-126.5 69.5t-102 96t-78 125.5t-48 160.5t-17.5 199zM892 796
q0 -79 47 -113.5t157 -34.5q108 0 154 29.5t46 90.5q0 78 -6 154q-102 4 -238 14q-74 0 -117 -38t-43 -102z" />
    <glyph glyph-name="quotesingle" unicode="'" horiz-adv-x="832" 
d="M119 1988q0 62 1 196.5t1 203.5q0 17 10 28.5t26 11.5q47 2 281 2q235 0 282 -2q16 0 28 -12t12 -28q0 -69 1 -195.5t1 -188.5q-14 -119 -78 -358t-92 -318q-53 -3 -167 -3q-122 0 -224 3q-11 58 -40 291t-42 369z" />
    <glyph glyph-name="parenleft" unicode="(" horiz-adv-x="1160" 
d="M144 1202q0 222 25.5 437t78.5 434.5t109 404t143 434.5l632 -82q-80 -453 -119 -835t-39 -793t39 -793t119 -835l-632 -82q-87 250 -143 434.5t-109 404t-78.5 434.5t-25.5 437z" />
    <glyph glyph-name="parenright" unicode=")" horiz-adv-x="1160" 
d="M108 -426q80 453 119 835t39 793t-39 793t-119 835l632 82q87 -250 143 -434.5t109 -404t78.5 -434.5t25.5 -437t-25.5 -437t-78.5 -434.5t-109 -404t-143 -434.5z" />
    <glyph glyph-name="asterisk" unicode="*" horiz-adv-x="1520" 
d="M65 1889q0 45 21 119.5t53.5 131.5t59.5 49l243 -79q80 -37 261 -176q-76 211 -87 302v256q0 27 58 39.5t126 12.5q65 0 124.5 -13.5t59.5 -38.5v-256q-11 -91 -87 -302q181 139 261 176l243 79q28 9 60.5 -48t52.5 -131t20 -120q0 -45 -19 -51l-243 -79
q-90 -18 -315 -11q189 -129 248 -194l151 -207q19 -26 -35 -81t-129 -99t-113 -44q-16 0 -21 8l-151 207q-41 74 -107 296q-66 -222 -107 -296l-151 -207q-7 -10 -23 -10q-37 0 -111.5 45t-128 100.5t-35.5 80.5l151 207q59 65 248 194q-225 -7 -315 11l-243 79
q-20 7 -20 50z" />
    <glyph glyph-name="plus" unicode="+" horiz-adv-x="1992" 
d="M114 1163q0 87 6 317q118 5 578 7q3 235 14 633q139 6 281 6q162 0 327 -6q16 0 28 -12t12 -28q12 -556 13 -592q429 -4 539 -8q16 0 27.5 -11.5t12.5 -28.5q3 -55 3 -249q0 -179 -3 -311q-67 -4 -579 -8q-4 -274 -13 -592q-139 -6 -281 -6q-162 0 -327 6
q-16 0 -27.5 11.5t-12.5 28.5q-7 174 -13 557q-479 9 -539 11q-16 0 -27.5 11.5t-12.5 28.5q-6 150 -6 235z" />
    <glyph glyph-name="comma" unicode="," horiz-adv-x="840" 
d="M117 345q0 131 3 275q146 7 296 7q132 0 344 -7q16 0 28 -12t12 -28q0 -69 1 -195.5t1 -188.5q-15 -120 -75.5 -362.5t-86.5 -313.5q-169 -8 -361 -8q0 22 6.5 226t9.5 267q-79 0 -135 3q-17 1 -28.5 12.5t-11.5 27.5q-3 157 -3 297z" />
    <glyph glyph-name="hyphen" unicode="-" horiz-adv-x="1672" 
d="M116 1205q0 118 4 291q191 9 886 9q341 0 586 -9q16 0 27.5 -11.5t12.5 -28.5q4 -123 4 -340q0 -78 -4 -252q-196 -9 -686 -9q-96 0 -385.5 6.5t-400.5 10.5q-16 0 -27.5 11.5t-12.5 28.5q-4 208 -4 293z" />
    <glyph glyph-name="period" unicode="." horiz-adv-x="840" 
d="M117 345q0 131 3 275q146 7 296 7q132 0 344 -7q16 0 28 -12t12 -28q3 -162 3 -307q0 -129 -3 -273q-90 -5 -217 -5q-184 0 -423 13q-17 1 -28.5 12.5t-11.5 27.5q-3 157 -3 297z" />
    <glyph glyph-name="slash" unicode="/" horiz-adv-x="1496" 
d="M-20 -173q0 7 36 139q222 820 352 1250q255 843 465 1384q193 9 353 9q152 0 379 -9q27 -2 27 -27q0 -7 -39 -154q-140 -530 -345 -1231q-251 -858 -457 -1388q-193 -9 -353 -9q-157 0 -391 9q-27 2 -27 27z" />
    <glyph glyph-name="zero" unicode="0" horiz-adv-x="2120" 
d="M104 1201q0 580 237 893t667 334q194 0 345.5 -26.5t275 -86t209.5 -154t144.5 -231.5t86 -317t27.5 -412q0 -583 -230 -893.5t-658 -331.5q-234 0 -407.5 38.5t-308.5 125.5t-219 230t-126.5 348t-42.5 483zM932 1201q0 -175 10 -283t34 -161t51 -69t73 -16t73 16t51 69
t34 161t10 283q0 139 -9 237t-23 154t-38.5 87t-49 40t-60.5 9q-30 0 -49.5 -6t-38.5 -25t-30.5 -54.5t-20.5 -94t-13 -144t-4 -203.5z" />
    <glyph glyph-name="one" unicode="1" horiz-adv-x="1152" 
d="M80 1764q0 294 12 564q107 23 264 50t250 35q156 0 386 -9q17 -1 28.5 -12.5t11.5 -27.5q16 -752 16 -1164q0 -560 -16 -1200q-190 -9 -350 -9q-165 0 -410 9q-16 0 -28 12t-12 28q-16 752 -16 1160q0 294 4 569z" />
    <glyph glyph-name="two" unicode="2" horiz-adv-x="1856" 
d="M160 661q0 115 25.5 217t61 176.5t99.5 145t114.5 114t133.5 93t129 72.5t127 61q46 22 68 32.5t57 28.5t52 30.5t35.5 28.5t26 32t7.5 33q0 54 -64 83.5t-165 29.5q-85 0 -169.5 -15.5t-162.5 -45t-123.5 -50.5t-105.5 -52l-90 665q362 88 612 88q135 0 228 -4.5
t203 -20t183 -44.5t146.5 -80t116 -124t69 -179.5t26.5 -242.5q0 -74 -12 -141.5t-30.5 -122t-50.5 -106t-62.5 -90.5t-75.5 -78.5t-80 -66t-87 -58t-85 -49.5t-84 -45q-149 -78 -192 -110q-77 -57 -77 -118v-67h42q485 0 730 -9q16 0 28 -12t12 -28q4 -240 4 -344
q0 -159 -4 -296q-190 -9 -710 -9q-99 0 -421.5 6.5t-428.5 10.5q-16 0 -27.5 11.5t-12.5 28.5q-16 355 -16 621z" />
    <glyph glyph-name="three" unicode="3" horiz-adv-x="1744" 
d="M96 2360q272 68 648 68q172 0 304 -20t243.5 -68.5t182.5 -127t110.5 -198.5t39.5 -281q0 -315 -232 -517q168 -92 260 -220t92 -271q0 -134 -26 -241.5t-71.5 -184.5t-116 -134.5t-149 -92t-181.5 -56t-203.5 -29t-224.5 -7.5q-197 0 -334.5 12t-337.5 44l72 612h564
q110 0 157 35.5t47 113.5q0 70 -47 108.5t-129 38.5h-416v556h340q102 0 165 34t63 111q0 81 -56 114t-160 33h-532z" />
    <glyph glyph-name="four" unicode="4" horiz-adv-x="1952" 
d="M53 581q0 14 3 188q121 387 307.5 919t276.5 721q255 5 540 5q222 0 612 -14q16 0 28 -12t12 -28q16 -752 16 -1160q0 -560 -16 -1200q-147 -7 -321 -7q-158 0 -375 7q-16 0 -28 12t-12 28q-4 224 -4 337q-136 -1 -298 -1q-453 0 -698 9q-16 0 -27.5 11.5t-12.5 28.5
q-3 74 -3 156zM790 1001q284 -4 305 -4q0 33 0.5 101t0.5 102q0 218 17 685q-163 -499 -323 -884z" />
    <glyph glyph-name="five" unicode="5" horiz-adv-x="1824" 
d="M160 36l72 612h584q108 0 156 40.5t48 120.5q0 71 -48 115t-128 44h-628q-20 0 -29.5 4.5t-10.5 19.5q-8 112 -8 232q0 536 16 1176q190 9 766 9q485 0 730 -9q16 0 28 -12t12 -28q4 -244 4 -346q0 -157 -4 -294q-184 -9 -816 -9v-207q50 3 96 3q169 0 307.5 -41.5
t233 -113t159.5 -170.5t94.5 -211.5t29.5 -237.5q0 -134 -26 -242t-71.5 -186t-115.5 -136t-149 -93.5t-181.5 -57.5t-204 -30t-224.5 -8q-200 0 -347.5 12.5t-344.5 43.5z" />
    <glyph glyph-name="six" unicode="6" horiz-adv-x="2000" 
d="M930 833q0 -79 46.5 -135.5t134.5 -56.5q65 0 105 52.5t40 139.5q0 75 -48 132t-129 57q-68 0 -108.5 -56.5t-40.5 -132.5zM104 1201q0 277 50 488.5t139 350.5t223.5 226.5t292 124.5t355.5 37q285 0 708 -68l-84 -632h-704q-63 0 -102 -37t-60 -150q50 10 146.5 18.5
t147.5 8.5q193 0 341.5 -58t238.5 -159.5t135 -230t45 -279.5q0 -435 -210 -650t-646 -215q-124 0 -230.5 15t-212 53t-189.5 99t-157.5 156.5t-122 221t-76.5 298t-28 382.5z" />
    <glyph glyph-name="seven" unicode="7" horiz-adv-x="1800" 
d="M52 2096q0 161 4 304q191 9 1038 9q453 0 698 -9q16 0 27.5 -11.5t12.5 -28.5q3 -102 3 -194q0 -96 -3 -206q-13 -26 -90.5 -163.5t-152.5 -280.5t-157 -313t-133 -323t-51 -248l-4 -300q0 -167 4 -332q-179 -9 -396 -9t-460 9q-16 0 -28 12t-12 28v460
q84 294 229.5 576.5t369.5 636.5q-650 9 -855 15q-16 0 -28 12t-12 28q-4 230 -4 328z" />
    <glyph glyph-name="eight" unicode="8" horiz-adv-x="2096" 
d="M80 692q0 147 94 290.5t258 233.5q-232 202 -232 516q0 162 40 283t112 199.5t184.5 126.5t245 67.5t306.5 19.5t306.5 -19.5t245 -67.5t184.5 -126.5t112 -199.5t40 -283q0 -314 -232 -516q164 -90 258 -233.5t94 -290.5q0 -97 -12.5 -179t-38.5 -147t-60 -118
t-82.5 -93t-99.5 -70t-117.5 -50.5t-131 -33.5t-145.5 -20.5t-154.5 -10t-164.5 -2.5t-164.5 2.5t-155 10t-146 20.5t-131.5 33.5t-118.5 50.5t-100 70t-82.5 93t-60 118t-39 147t-13 179zM872 756q0 -81 54 -126.5t162 -45.5t162 45.5t54 126.5q0 79 -58.5 121.5
t-155.5 42.5t-157.5 -42.5t-60.5 -121.5zM900 1680q0 -69 55 -111.5t135 -42.5q79 0 132.5 42.5t53.5 111.5q0 76 -52 118t-136 42t-136 -42t-52 -118z" />
    <glyph glyph-name="nine" unicode="9" horiz-adv-x="2000" 
d="M824 1571q0 -75 48 -132t129 -57q68 0 108.5 56.5t40.5 132.5q0 79 -46.5 135.5t-134.5 56.5q-65 0 -105 -52.5t-40 -139.5zM104 1563q0 435 210 650t646 215q124 0 230.5 -15t212 -53t189.5 -99t157.5 -156.5t122 -221t76.5 -298t28 -382.5q0 -277 -50 -488.5
t-139 -350.5t-223.5 -226.5t-292 -124.5t-355.5 -37q-285 0 -708 68l84 632h704q63 0 102 37t60 150q-50 -10 -146.5 -18.5t-147.5 -8.5q-193 0 -341.5 58t-238.5 159.5t-135 230t-45 279.5z" />
    <glyph glyph-name="colon" unicode=":" horiz-adv-x="840" 
d="M117 345q0 131 3 275q146 7 296 7q132 0 344 -7q16 0 28 -12t12 -28q3 -162 3 -307q0 -129 -3 -273q-90 -5 -217 -5q-184 0 -423 13q-17 1 -28.5 12.5t-11.5 27.5q-3 157 -3 297zM117 1545q0 131 3 275q146 7 296 7q132 0 344 -7q16 0 28 -12t12 -28q3 -162 3 -307
q0 -129 -3 -273q-90 -5 -217 -5q-184 0 -423 13q-17 1 -28.5 12.5t-11.5 27.5q-3 157 -3 297z" />
    <glyph glyph-name="semicolon" unicode=";" horiz-adv-x="840" 
d="M117 1545q0 131 3 275q146 7 296 7q132 0 344 -7q16 0 28 -12t12 -28q3 -162 3 -307q0 -129 -3 -273q-90 -5 -217 -5q-184 0 -423 13q-17 1 -28.5 12.5t-11.5 27.5q-3 157 -3 297zM117 345q0 131 3 275q146 7 296 7q132 0 344 -7q16 0 28 -12t12 -28q0 -69 1 -195.5
t1 -188.5q-15 -120 -75.5 -362.5t-86.5 -313.5q-169 -8 -361 -8q0 22 6.5 226t9.5 267q-79 0 -135 3q-17 1 -28.5 12.5t-11.5 27.5q-3 157 -3 297z" />
    <glyph glyph-name="less" unicode="&#x3c;" horiz-adv-x="1632" 
d="M92 1268q0 123 7 238q76 40 385.5 188t427.5 202q342 158 572 256q15 7 30.5 1.5t22.5 -20.5q23 -50 39 -208t16 -347q-67 -36 -489 -231q-219 -102 -352 -145q139 -50 406 -174q211 -98 393 -188q40 -20 40 -61q0 -97 -12 -290.5t-30 -273.5q-88 36 -689 314
q-86 40 -352 171.5t-368 183.5q-23 10 -28 49q-19 149 -19 335z" />
    <glyph glyph-name="equal" unicode="=" horiz-adv-x="1776" 
d="M140 1639q0 92 4 265q190 9 902 9q381 0 626 -9q16 0 27.5 -11.5t12.5 -28.5q4 -71 4 -284q0 -60 -4 -236q-60 -3 -335 -6t-391 -3q-97 0 -394.5 6.5t-407.5 10.5q-16 0 -28 12t-12 28q-4 232 -4 247zM140 791q0 92 4 265q190 9 902 9q381 0 626 -9q16 0 27.5 -11.5
t12.5 -28.5q4 -80 4 -220q0 -147 -4 -300q-60 -3 -335 -6t-391 -3q-97 0 -394.5 6.5t-407.5 10.5q-16 0 -28 12t-12 28q-4 232 -4 247z" />
    <glyph glyph-name="greater" unicode="&#x3e;" horiz-adv-x="1632" 
d="M120 825q61 32 490 231q219 102 352 145q-139 50 -406 174q-226 105 -394 188q-39 19 -39 61q0 97 12 290.5t30 273.5q70 -29 689 -315q87 -40 354.5 -172t365.5 -182q22 -10 27 -49q20 -157 20 -335q0 -124 -7 -239q-75 -39 -382 -185.5t-431 -203.5
q-342 -158 -572 -256q-15 -7 -30.5 -1.5t-22.5 20.5q-23 50 -39.5 208.5t-16.5 346.5z" />
    <glyph glyph-name="question" unicode="?" horiz-adv-x="1592" 
d="M385 345q0 131 3 275q146 7 296 7q132 0 344 -7q16 0 28 -12t12 -28q3 -162 3 -307q0 -129 -3 -273q-90 -5 -217 -5q-184 0 -423 13q-17 1 -28.5 12.5t-11.5 27.5q-3 157 -3 297zM56 2340q357 86 734 86q149 0 267.5 -17t222 -58.5t172.5 -107t108.5 -167.5t39.5 -236
q0 -150 -65.5 -278t-179.5 -247q-53 -55 -80 -85t-69.5 -86.5t-64 -101.5t-39 -109.5t-18.5 -132.5q-121 -8 -302 -8q-186 0 -370 8q-17 1 -28.5 12.5t-11.5 27.5q0 116 29 218t75 174t102 134.5t112 111t102 90.5t75 85t29 84q0 118 -165 118q-134 0 -329.5 -68.5
t-255.5 -111.5z" />
    <glyph glyph-name="at" unicode="@" horiz-adv-x="2808" 
d="M1780 1187q0 -61 1.5 -97.5t8 -68.5t16 -47t29 -26.5t43 -14.5t61.5 -3h74v500h-49q-42 0 -71 -8.5t-57 -32.5t-42 -74.5t-14 -127.5zM112 1200q0 232 18 428t52 353t86.5 284t116 222t147 166t174 118t202 75.5t225.5 40.5t250 12q328 0 595.5 -21t577.5 -73
q66 -11 110 -51.5t45 -100.5q7 -593 7 -1224q0 -414 -7 -1044q-397 -61 -702 -61q-144 0 -245.5 6.5t-209.5 27t-179.5 58t-138 100t-104.5 152.5t-60.5 217t-22.5 291q0 145 22 261.5t62 203t103.5 151t139.5 106.5t177.5 67.5t210 36t243.5 10.5q-1 47 -2.5 139t-1.5 136
h-667q-62 0 -108.5 -8.5t-98 -36t-88.5 -74.5t-72.5 -129t-57 -195t-34.5 -275.5t-13 -368.5q0 -160 12 -295.5t32.5 -237.5t51.5 -184.5t65.5 -139.5t78 -99.5t85 -67.5t91 -39.5t91.5 -19.5t91 -5h1102l75 -568q-522 -81 -940 -81q-210 0 -386 24t-341 81t-295 147.5
t-237.5 227t-178.5 315t-110 416t-39 526.5z" />
    <glyph glyph-name="A" unicode="A" horiz-adv-x="2080" 
d="M39 33q0 16 19 125q53 329 121 681.5t176 875t141 685.5q200 9 550 9q326 0 570 -9q16 0 30 -11.5t17 -28.5q44 -223 149.5 -729t180 -894.5t127.5 -736.5q-189 -9 -348 -9q-255 0 -392 9q-17 1 -30.5 12.5t-16.5 27.5q-45 230 -73 400h-371q-32 -214 -77 -440
q-192 -9 -331 -9q-166 0 -409 9q-15 0 -24 9.5t-9 23.5zM956 960h225q-24 164 -65 467.5t-59 429.5q-20 -163 -53 -467.5t-48 -429.5z" />
    <glyph glyph-name="B" unicode="B" horiz-adv-x="2064" 
d="M977 1524h30q98 0 163.5 44t65.5 125q0 77 -61 119t-145 42q-33 0 -49 -2q0 -43 -1.5 -151.5t-2.5 -176.5zM981 930q2 -106 8 -322h66q110 0 159.5 40.5t49.5 120.5q0 71 -51 116t-130 45h-102zM192 1252q0 200 4 554t4 554q443 68 780 68q136 0 229.5 -4.5t203 -20
t181.5 -44.5t144 -80t113.5 -124t67 -179t25.5 -243q0 -315 -232 -517q168 -92 260 -220t92 -271q0 -134 -26 -241.5t-71.5 -184.5t-116 -134.5t-149 -92t-181.5 -56t-203.5 -29t-224.5 -7.5q-427 0 -852 44q-17 5 -28.5 18.5t-11.5 29.5q0 185 -4 581t-4 599z" />
    <glyph glyph-name="C" unicode="C" horiz-adv-x="1660" 
d="M104 1201q0 278 50.5 488.5t141.5 350t229.5 227t303.5 124.5t375 37q112 0 211.5 -16.5t244.5 -51.5l-86 -627l-369 25q-47 3 -84 -8t-72 -47t-58 -97.5t-37 -163.5t-14 -241q0 -140 12.5 -241.5t34 -164t56 -97.5t72.5 -46.5t90 -7.5l369 24l82 -632q-239 -44 -460 -44
q-117 0 -215 8.5t-193.5 29t-173.5 53.5t-149.5 84t-126.5 118.5t-100 157.5t-74 202t-44.5 251.5t-15.5 304.5z" />
    <glyph glyph-name="D" unicode="D" horiz-adv-x="2104" 
d="M984 1200q0 -238 7 -528h68q30 0 51.5 6.5t44.5 24.5t38 54.5t27 94t18 145t6 204.5q0 139 -9.5 237t-24 154.5t-40 88t-50 40.5t-61.5 9h-67q-8 -332 -8 -530zM192 1200q0 200 4 580t4 580q443 68 780 68q210 0 375 -37t303.5 -124.5t229.5 -227t141.5 -350t50.5 -488.5
q0 -165 -15.5 -304.5t-44.5 -251.5t-74 -202t-100 -157.5t-126.5 -118.5t-149.5 -84t-173.5 -53.5t-193.5 -29t-215 -8.5q-40 0 -86.5 1.5t-81.5 2.5t-95 5t-87 5.5t-100.5 8t-92 8t-105.5 9t-100 8.5q-16 0 -28 12t-12 28q0 185 -4 551t-4 569z" />
    <glyph glyph-name="E" unicode="E" horiz-adv-x="1816" 
d="M184 1200q0 560 16 1200q190 9 830 9q453 0 698 -9q16 0 28 -12t12 -28q4 -244 4 -346q0 -157 -4 -294q-169 -8 -636 -8q-84 0 -152 1q-2 -138 -3 -210q358 -2 479 -7q16 0 28 -12t12 -28q3 -164 3 -301q0 -123 -3 -267h-519q1 -70 3 -208h48q490 0 708 -8q16 0 28 -12
t12 -28q4 -244 4 -346q0 -157 -4 -294q-190 -9 -686 -9q-99 0 -421.5 6.5t-428.5 10.5q-16 0 -28 12t-12 28q-16 752 -16 1160z" />
    <glyph glyph-name="F" unicode="F" horiz-adv-x="1680" 
d="M184 1200q0 560 16 1200q190 9 830 9q397 0 642 -9q16 0 28 -12t12 -28q4 -244 4 -346q0 -157 -4 -294q-191 -9 -582 -9q-74 0 -134 1q0 -52 -1.5 -166.5t-2.5 -177.5q327 -4 448 -8q16 0 28 -12t12 -28q4 -244 4 -346q0 -157 -4 -294q-146 -7 -485 -9q5 -560 5 -671
q-190 -9 -350 -9q-165 0 -410 9q-16 0 -28 12t-12 28q-16 752 -16 1160z" />
    <glyph glyph-name="G" unicode="G" horiz-adv-x="2008" 
d="M104 1201q0 278 50.5 488.5t141.5 350t229.5 227t303.5 124.5t375 37q293 0 716 -68l-84 -632h-712q-36 0 -61 -9t-50 -40t-39.5 -87t-24 -154t-9.5 -237q0 -116 7 -204.5t21.5 -145t31.5 -93.5t42 -55t48 -24.5t54 -6.5h80q0 196 -16 608q176 8 316 8q148 0 348 -8
q16 -1 27.5 -12.5t12.5 -27.5q16 -370 16 -560q0 -329 -16 -612q-170 -30 -252 -43t-204 -23t-260 -10q-117 0 -215 8.5t-193.5 29t-173.5 53.5t-149.5 84t-126.5 118.5t-100 157.5t-74 202t-44.5 251.5t-15.5 304.5z" />
    <glyph glyph-name="H" unicode="H" horiz-adv-x="2200" 
d="M184 1200q0 560 16 1200q190 9 350 9q165 0 410 -9q16 0 28 -12t12 -28q8 -367 8 -840h264q0 545 8 880q190 9 350 9q165 0 410 -9q16 0 28 -12t12 -28q16 -752 16 -1160q0 -560 -16 -1200q-190 -9 -350 -9q-165 0 -410 9q-16 0 -28 12t-12 28q-6 263 -8 800h-264
q0 -520 -8 -840q-190 -9 -350 -9q-165 0 -410 9q-16 0 -28 12t-12 28q-16 752 -16 1160z" />
    <glyph glyph-name="I" unicode="I" horiz-adv-x="1120" 
d="M184 1200q0 560 16 1200q190 9 350 9q165 0 410 -9q16 0 28 -12t12 -28q16 -752 16 -1160q0 -560 -16 -1200q-190 -9 -350 -9q-165 0 -410 9q-16 0 -28 12t-12 28q-16 752 -16 1160z" />
    <glyph glyph-name="J" unicode="J" horiz-adv-x="1736" 
d="M128 -16l30 656l397 -32q54 -5 90.5 0t73 28.5t58 69t34.5 126t13 196.5q0 362 4 685q-306 6 -608 15q-16 0 -28 12t-12 28q-4 230 -4 328q0 161 4 304q190 9 878 9q297 0 542 -9q16 0 28 -12t12 -28q16 -752 16 -1311q0 -195 -26 -351.5t-73.5 -272.5t-122 -202
t-162.5 -141.5t-204.5 -89t-238.5 -47t-273 -13.5q-30 0 -60 1t-52 2.5t-54 5.5t-47.5 5.5t-52 8t-48.5 8.5t-56.5 10.5t-57.5 10.5z" />
    <glyph glyph-name="K" unicode="K" horiz-adv-x="2132" 
d="M184 1200q0 560 16 1200q190 9 350 9q165 0 410 -9q16 0 28 -12t12 -28q1 -47 1 -141q0 -100 -15 -660q14 0 43.5 0.5t44.5 0.5q37 112 133 389.5t143 420.5q6 17 24 28t37 12q151 10 321 10q215 0 399 -22q-123 -525 -338 -948q-118 -201 -312 -212v-6q102 -6 185 -61.5
t139 -150.5q176 -347 334 -1020q-184 -22 -419 -22q-170 0 -321 10q-19 1 -37 12t-24 28q-98 299 -278 951h-77q1 -33 10 -340.5t9 -467.5q0 -57 -2 -171q-190 -9 -350 -9q-165 0 -410 9q-16 0 -28 12t-12 28q-16 752 -16 1160z" />
    <glyph glyph-name="L" unicode="L" horiz-adv-x="1640" 
d="M184 1200q0 560 16 1200q190 9 350 9q165 0 410 -9q16 0 28 -12t12 -28q16 -752 16 -1160q0 -266 -3 -519h17q365 0 610 -9q16 0 28 -12t12 -28q4 -244 4 -346q0 -157 -4 -294q-190 -9 -590 -9q-99 0 -421.5 6.5t-428.5 10.5q-16 0 -28 12t-12 28q-16 752 -16 1160z" />
    <glyph glyph-name="M" unicode="M" horiz-adv-x="2784" 
d="M184 1200q0 560 16 1200q190 9 330 9q168 0 346 -9q29 -1 44 -40l502 -1024l502 1024q28 37 49 39q125 10 281 10q168 0 370 -9q17 -1 28.5 -12.5t11.5 -27.5q16 -752 16 -1160q0 -560 -16 -1200q-172 -9 -310 -9q-125 0 -370 9q-16 0 -28 12t-12 28q-3 112 -9 335.5
t-10 406t-5 349.5l-456 -931l-44 -8l-40 8l-434 886l14 -1086q-190 -9 -330 -9q-145 0 -390 9q-16 0 -28 12t-12 28q-16 752 -16 1160z" />
    <glyph glyph-name="N" unicode="N" horiz-adv-x="2200" 
d="M184 1200q0 560 16 1200q190 9 330 9q119 0 346 -9q29 -1 44 -40l414 -1024l-14 1064q191 9 350 9q156 0 370 -9q17 -1 28.5 -12.5t11.5 -27.5q16 -752 16 -1160q0 -560 -16 -1200q-166 -9 -310 -9q-171 0 -366 9q-30 1 -44 40l-414 1024l14 -1064q-190 -9 -330 -9
q-158 0 -390 9q-17 1 -28.5 12.5t-11.5 27.5q-16 752 -16 1160z" />
    <glyph glyph-name="O" unicode="O" 
d="M104 1201q0 291 63 518.5t181.5 379.5t287 235t380.5 94q195 0 348 -26.5t280.5 -86t217.5 -154.5t152.5 -231t92 -317t29.5 -412q0 -291 -64 -518.5t-184.5 -379t-289.5 -234t-382 -93.5q-194 0 -346.5 26.5t-279 85.5t-216 153.5t-151 230.5t-90.5 316.5t-29 412.5z
M940 1201q0 -140 9.5 -238t24 -154.5t39.5 -87.5t50 -40t61 -9t60 9t48 40t37.5 87.5t22 154.5t8.5 238q0 116 -6 203.5t-19 144.5t-28 93.5t-38.5 54.5t-45 24.5t-51.5 6.5t-50.5 -6t-41.5 -24.5t-34.5 -55t-24.5 -94t-16 -144t-5 -203.5z" />
    <glyph glyph-name="P" unicode="P" horiz-adv-x="2064" 
d="M192 1200q0 201 4 583t4 577q443 68 780 68q161 0 274.5 -7t235 -30t202.5 -64.5t157 -111.5t119.5 -169.5t69.5 -241t26 -323.5q0 -126 -15 -232t-43 -191.5t-71.5 -154.5t-97 -121.5t-123 -91.5t-146.5 -65.5t-171 -42.5t-191.5 -23t-213.5 -7q8 -460 8 -552
q-187 -8 -352 -8q-134 0 -408 8q-16 0 -28 12t-12 28q0 185 -4 571t-4 589zM984 1208h63q37 0 63.5 4t55 19.5t46 43t29 76.5t11.5 118q0 67 -1.5 107.5t-9 74.5t-18 50t-32.5 28t-47.5 14.5t-68.5 2.5h-91v-538z" />
    <glyph glyph-name="Q" unicode="Q" horiz-adv-x="2128" 
d="M940 1241q0 -89 2.5 -158t9 -119.5t13 -86.5t19.5 -59.5t23.5 -36.5t29 -19.5t33 -8t38.5 -1.5q28 0 43.5 2t35 11.5t30 29t22 54t17 87t9 128t3.5 177.5q0 128 -8 217.5t-21 142t-36 81t-47 37.5t-60 9q-45 0 -71 -15t-47 -65t-29.5 -147.5t-8.5 -259.5zM104 1241
q0 554 234.5 860t661.5 327q224 0 396 -38.5t307.5 -124.5t222.5 -224t132.5 -337t45.5 -463q0 -574 -233.5 -868t-664.5 -317q-1 -3 -1 -7v-1q0 -34 66.5 -59.5t176.5 -25.5q38 0 93 5l351 32l80 -616q-283 -52 -548 -52q-206 0 -389.5 77t-292.5 203.5t-109 266.5
q0 122 88 232q-210 59 -343.5 190.5t-203.5 363.5t-70 576z" />
    <glyph glyph-name="R" unicode="R" horiz-adv-x="2104" 
d="M192 1252q0 200 4 554t4 554q200 31 425.5 49.5t394.5 18.5q146 0 245 -4.5t213.5 -20t188.5 -44.5t148 -80t115.5 -124t67.5 -179t26 -243q0 -217 -112 -382t-312 -259q136 -47 221 -192q199 -391 318 -900q-184 -22 -419 -22q-170 0 -321 10q-19 1 -37 12t-24 28
q-195 592 -303 956h-53q2 -112 9.5 -459t8.5 -525q-164 -7 -351 -7q-169 0 -409 7q-17 0 -28.5 11.5t-11.5 28.5q0 185 -4 597t-4 615zM980 1476h68q95 0 153.5 47.5t58.5 125.5q0 98 -40 145.5t-142 47.5q-52 0 -96 -3q-2 -234 -2 -363z" />
    <glyph glyph-name="S" unicode="S" horiz-adv-x="1968" 
d="M136 24l98 723q442 -139 709 -139q104 0 158.5 43.5t54.5 97.5q0 20 -8 36.5t-28.5 31t-39 25t-56 23t-62.5 20t-74 21.5q-89 25 -138.5 40.5t-140 52.5t-144.5 74.5t-123.5 102t-108 139.5t-66 182.5t-27.5 235.5q0 137 25 243t65.5 179t111.5 124t141.5 80t178 44.5
t200 20t226.5 4.5q329 0 772 -88l-90 -665q-153 69 -349 116t-372 47q-93 0 -147 -29.5t-54 -83.5q0 -17 8.5 -32t30.5 -29t42 -24.5t60 -24.5t66.5 -22l79.5 -24q246 -74 371 -134q328 -157 418 -430q36 -110 36 -240q0 -134 -26.5 -244t-73 -190.5t-116.5 -142
t-151 -100.5t-183 -63.5t-205.5 -34.5t-224.5 -10q-419 0 -844 44z" />
    <glyph glyph-name="T" unicode="T" horiz-adv-x="1840" 
d="M60 2096q0 161 4 304q191 9 926 9q581 0 826 -9q16 0 28 -12t12 -28q4 -226 4 -340q0 -163 -4 -300q-65 -3 -484 -7q4 -216 4 -513q0 -560 -16 -1200q-190 -9 -350 -9q-165 0 -410 9q-16 0 -28 12t-12 28q-16 752 -16 1160q0 185 4 517q-230 5 -444 11q-16 0 -28 12
t-12 28q-4 230 -4 328z" />
    <glyph glyph-name="U" unicode="U" horiz-adv-x="2112" 
d="M108 1185q0 575 16 1215q190 9 350 9q165 0 410 -9q16 0 28 -12t12 -28q16 -752 16 -1296q0 -131 9 -213t31 -124.5t49 -56.5t71 -14q59 0 89 27t46.5 116.5t16.5 265.5q0 695 16 1335q191 9 350 9q165 0 410 -9q16 0 28 -12t12 -28q16 -752 16 -1175q0 -257 -39 -457
t-112 -340.5t-183.5 -233.5t-247.5 -139t-310 -55q-141 0 -254 11.5t-219 38.5t-187 72.5t-151.5 113t-119.5 160t-84.5 213.5t-52 274.5t-16.5 341.5z" />
    <glyph glyph-name="V" unicode="V" horiz-adv-x="2020" 
d="M23 2400q189 9 364 9q255 0 392 -9q17 -1 31 -12.5t17 -27.5q46 -232 93.5 -530t69 -449t74.5 -535q5 33 23.5 169t24.5 179.5t23 166t26 179.5t25 166t28 180t28 165.5t32 179.5t33 169q192 9 311 9q182 0 425 -9q15 0 24 -9.5t9 -23.5q0 -15 -19 -126
q-151 -934 -454 -2241q-190 -9 -509 -9q-275 0 -551 9q-16 0 -29.5 11.5t-17.5 28.5q-161 706 -277 1269.5t-196 1090.5z" />
    <glyph glyph-name="W" unicode="W" horiz-adv-x="2728" 
d="M23 2400q189 9 364 9q255 0 392 -9q17 -1 31 -12.5t17 -27.5q74 -375 155 -1007q153 629 254 923l188 8l184 -8q104 -291 253 -907q90 688 146 1031q192 9 319 9q182 0 425 -9q15 0 24 -9.5t9 -24.5q0 -3 -18 -126q-161 -1103 -455 -2240q-256 -12 -587 -12
q-41 145 -148 470t-155 502q-47 -165 -159 -487.5t-158 -484.5q-232 0 -561 12q-16 0 -29 11.5t-18 28.5q-325 1278 -473 2360z" />
    <glyph glyph-name="X" unicode="X" horiz-adv-x="2120" 
d="M76 0q22 104 38 175.5t50.5 204.5t66.5 230.5t82 220.5t101.5 209.5t120 161.5t142.5 110v6q-88 27 -187 158.5t-178.5 303t-139.5 336t-88 282.5q184 22 399 22q170 0 321 -10q19 -1 37 -12t24 -28q47 -143 137 -395t97 -271q23 64 72.5 197t90.5 247.5t76 221.5
q6 17 24 28t37 12q151 10 321 10q215 0 399 -22q-22 -94 -63 -218.5t-102 -268.5t-127.5 -267.5t-147 -214.5t-154.5 -111v-6q55 -34 106 -84.5t92 -105t81 -129.5t69.5 -139t60.5 -152.5t51 -151.5t44.5 -154.5t37 -143.5t32.5 -136.5t28 -115.5q-184 -22 -419 -22
q-170 0 -321 10q-19 1 -37 12t-24 28q-86 262 -225 811q-142 -562 -224 -811q-6 -17 -24 -28t-37 -12q-151 -10 -321 -10q-235 0 -419 22z" />
    <glyph glyph-name="Y" unicode="Y" horiz-adv-x="2100" 
d="M32 2386q184 22 419 22q170 0 321 -10q19 -1 37 -12t24 -28q95 -291 256 -872q155 561 257 872q6 17 24 28t37 12q151 10 321 10q235 0 419 -22q-158 -673 -334 -1020q-125 -214 -323 -377q8 -661 10 -989q-190 -9 -358 -9q-173 0 -418 9q-16 0 -28 12t-12 28
q0 299 6 949q-201 166 -325 377q-174 343 -333 1020z" />
    <glyph glyph-name="Z" unicode="Z" horiz-adv-x="1776" 
d="M116 2096q0 161 4 304q190 9 870 9q453 0 698 -9q16 0 28 -12t12 -28v-400q-389 -765 -707 -1279q484 -3 675 -9q16 0 28 -12t12 -28q4 -240 4 -344q0 -159 -4 -296q-190 -9 -686 -9q-100 0 -443 6.5t-447 10.5q-16 0 -28 12t-12 28q-3 129 -3 245q0 107 3 227
q93 183 197.5 365.5t278 467t223.5 369.5q-462 8 -659 14q-16 0 -28 12t-12 28q-4 230 -4 328z" />
    <glyph glyph-name="bracketleft" unicode="[" horiz-adv-x="1360" 
d="M184 1200q0 865 13 1556q2 58 3 124q190 9 582 9q301 0 546 -9q16 0 27.5 -11.5t12.5 -28.5q3 -150 3 -321q0 -159 -3 -271q-74 -4 -423 -8q7 -620 7 -1040q0 -506 -6 -1048q156 -1 382 -8q16 0 27.5 -11.5t12.5 -28.5q4 -112 4 -277q0 -179 -4 -315q-196 -9 -646 -9
q-145 0 -482 17q-17 1 -28.5 12.5t-11.5 27.5q-16 752 -16 1640z" />
    <glyph glyph-name="backslash" unicode="\" horiz-adv-x="1496" 
d="M-20 2573q0 25 27 27q234 9 391 9q160 0 353 -9q206 -530 457 -1388q213 -728 357 -1274q27 -105 27 -111q0 -25 -27 -27q-227 -9 -379 -9q-160 0 -353 9q-210 541 -465 1384q-138 457 -366 1300q-22 77 -22 89z" />
    <glyph glyph-name="bracketright" unicode="]" horiz-adv-x="1360" 
d="M68 2593q0 131 4 287q191 9 606 9q277 0 522 -9q16 0 28 -12t12 -28q16 -752 16 -1640q0 -1048 -16 -1688q-196 -9 -622 -9q-160 0 -506 17q-17 1 -28.5 12.5t-11.5 27.5v584l423 6q-7 623 -7 1050q0 502 6 1042q-75 2 -211.5 7.5t-170.5 6.5q-16 0 -28 12t-12 28
q-4 224 -4 297z" />
    <glyph glyph-name="asciicircum" unicode="^" horiz-adv-x="1816" 
d="M111 1539q67 131 234 375.5t309 436.5q32 43 61 44q186 9 284 9q100 0 194 -5q114 -128 320 -388t321 -420q12 -17 9 -28.5t-20 -11.5q-206 -7 -322 -7q-136 0 -286 7q-125 170 -248 410q-86 -184 -195 -382q-9 -17 -27 -28.5t-34 -11.5q-215 -7 -325 -7q-134 0 -275 7z
" />
    <glyph glyph-name="underscore" unicode="_" horiz-adv-x="1592" 
d="M76 -331q0 118 4 291q190 9 886 9q341 0 586 -9q16 0 27.5 -11.5t12.5 -28.5q4 -123 4 -340q0 -78 -4 -252q-196 -9 -686 -9q-96 0 -385.5 6.5t-400.5 10.5q-16 0 -27.5 11.5t-12.5 28.5q-4 208 -4 293z" />
    <glyph glyph-name="grave" unicode="`" horiz-adv-x="1200" 
d="M135 2580q141 7 292 7q133 0 348 -7q16 0 34 -11.5t27 -28.5q37 -69 99 -185t112 -210t96 -185q-336 0 -644 16q-17 1 -34.5 12.5t-26.5 27.5q-218 394 -303 564z" />
    <glyph glyph-name="a" unicode="a" horiz-adv-x="2080" 
d="M39 33q0 16 19 125q53 329 121 681.5t176 875t141 685.5q200 9 550 9q326 0 570 -9q16 0 30 -11.5t17 -28.5q44 -223 149.5 -729t180 -894.5t127.5 -736.5q-189 -9 -348 -9q-255 0 -392 9q-17 1 -30.5 12.5t-16.5 27.5q-45 230 -73 400h-371q-32 -214 -77 -440
q-192 -9 -331 -9q-166 0 -409 9q-15 0 -24 9.5t-9 23.5zM956 960h225q-24 164 -65 467.5t-59 429.5q-20 -163 -53 -467.5t-48 -429.5z" />
    <glyph glyph-name="b" unicode="b" horiz-adv-x="2064" 
d="M977 1524h30q98 0 163.5 44t65.5 125q0 77 -61 119t-145 42q-33 0 -49 -2q0 -43 -1.5 -151.5t-2.5 -176.5zM981 930q2 -106 8 -322h66q110 0 159.5 40.5t49.5 120.5q0 71 -51 116t-130 45h-102zM192 1252q0 200 4 554t4 554q443 68 780 68q136 0 229.5 -4.5t203 -20
t181.5 -44.5t144 -80t113.5 -124t67 -179t25.5 -243q0 -315 -232 -517q168 -92 260 -220t92 -271q0 -134 -26 -241.5t-71.5 -184.5t-116 -134.5t-149 -92t-181.5 -56t-203.5 -29t-224.5 -7.5q-427 0 -852 44q-17 5 -28.5 18.5t-11.5 29.5q0 185 -4 581t-4 599z" />
    <glyph glyph-name="c" unicode="c" horiz-adv-x="1660" 
d="M104 1201q0 278 50.5 488.5t141.5 350t229.5 227t303.5 124.5t375 37q112 0 211.5 -16.5t244.5 -51.5l-86 -627l-369 25q-47 3 -84 -8t-72 -47t-58 -97.5t-37 -163.5t-14 -241q0 -140 12.5 -241.5t34 -164t56 -97.5t72.5 -46.5t90 -7.5l369 24l82 -632q-239 -44 -460 -44
q-117 0 -215 8.5t-193.5 29t-173.5 53.5t-149.5 84t-126.5 118.5t-100 157.5t-74 202t-44.5 251.5t-15.5 304.5z" />
    <glyph glyph-name="d" unicode="d" horiz-adv-x="2104" 
d="M984 1200q0 -238 7 -528h68q30 0 51.5 6.5t44.5 24.5t38 54.5t27 94t18 145t6 204.5q0 139 -9.5 237t-24 154.5t-40 88t-50 40.5t-61.5 9h-67q-8 -332 -8 -530zM192 1200q0 200 4 580t4 580q443 68 780 68q210 0 375 -37t303.5 -124.5t229.5 -227t141.5 -350t50.5 -488.5
q0 -165 -15.5 -304.5t-44.5 -251.5t-74 -202t-100 -157.5t-126.5 -118.5t-149.5 -84t-173.5 -53.5t-193.5 -29t-215 -8.5q-40 0 -86.5 1.5t-81.5 2.5t-95 5t-87 5.5t-100.5 8t-92 8t-105.5 9t-100 8.5q-16 0 -28 12t-12 28q0 185 -4 551t-4 569z" />
    <glyph glyph-name="e" unicode="e" horiz-adv-x="1816" 
d="M184 1200q0 560 16 1200q190 9 830 9q453 0 698 -9q16 0 28 -12t12 -28q4 -244 4 -346q0 -157 -4 -294q-169 -8 -636 -8q-84 0 -152 1q-2 -138 -3 -210q358 -2 479 -7q16 0 28 -12t12 -28q3 -164 3 -301q0 -123 -3 -267h-519q1 -70 3 -208h48q490 0 708 -8q16 0 28 -12
t12 -28q4 -244 4 -346q0 -157 -4 -294q-190 -9 -686 -9q-99 0 -421.5 6.5t-428.5 10.5q-16 0 -28 12t-12 28q-16 752 -16 1160z" />
    <glyph glyph-name="f" unicode="f" horiz-adv-x="1680" 
d="M184 1200q0 560 16 1200q190 9 830 9q397 0 642 -9q16 0 28 -12t12 -28q4 -244 4 -346q0 -157 -4 -294q-191 -9 -582 -9q-74 0 -134 1q0 -52 -1.5 -166.5t-2.5 -177.5q327 -4 448 -8q16 0 28 -12t12 -28q4 -244 4 -346q0 -157 -4 -294q-146 -7 -485 -9q5 -560 5 -671
q-190 -9 -350 -9q-165 0 -410 9q-16 0 -28 12t-12 28q-16 752 -16 1160z" />
    <glyph glyph-name="g" unicode="g" horiz-adv-x="2008" 
d="M104 1201q0 278 50.5 488.5t141.5 350t229.5 227t303.5 124.5t375 37q293 0 716 -68l-84 -632h-712q-36 0 -61 -9t-50 -40t-39.5 -87t-24 -154t-9.5 -237q0 -116 7 -204.5t21.5 -145t31.5 -93.5t42 -55t48 -24.5t54 -6.5h80q0 196 -16 608q176 8 316 8q148 0 348 -8
q16 -1 27.5 -12.5t12.5 -27.5q16 -370 16 -560q0 -329 -16 -612q-170 -30 -252 -43t-204 -23t-260 -10q-117 0 -215 8.5t-193.5 29t-173.5 53.5t-149.5 84t-126.5 118.5t-100 157.5t-74 202t-44.5 251.5t-15.5 304.5z" />
    <glyph glyph-name="h" unicode="h" horiz-adv-x="2200" 
d="M184 1200q0 560 16 1200q190 9 350 9q165 0 410 -9q16 0 28 -12t12 -28q8 -367 8 -840h264q0 545 8 880q190 9 350 9q165 0 410 -9q16 0 28 -12t12 -28q16 -752 16 -1160q0 -560 -16 -1200q-190 -9 -350 -9q-165 0 -410 9q-16 0 -28 12t-12 28q-6 263 -8 800h-264
q0 -520 -8 -840q-190 -9 -350 -9q-165 0 -410 9q-16 0 -28 12t-12 28q-16 752 -16 1160z" />
    <glyph glyph-name="i" unicode="i" horiz-adv-x="1120" 
d="M184 1200q0 560 16 1200q190 9 350 9q165 0 410 -9q16 0 28 -12t12 -28q16 -752 16 -1160q0 -560 -16 -1200q-190 -9 -350 -9q-165 0 -410 9q-16 0 -28 12t-12 28q-16 752 -16 1160z" />
    <glyph glyph-name="j" unicode="j" horiz-adv-x="1736" 
d="M128 -16l30 656l397 -32q54 -5 90.5 0t73 28.5t58 69t34.5 126t13 196.5q0 362 4 685q-306 6 -608 15q-16 0 -28 12t-12 28q-4 230 -4 328q0 161 4 304q190 9 878 9q297 0 542 -9q16 0 28 -12t12 -28q16 -752 16 -1311q0 -195 -26 -351.5t-73.5 -272.5t-122 -202
t-162.5 -141.5t-204.5 -89t-238.5 -47t-273 -13.5q-30 0 -60 1t-52 2.5t-54 5.5t-47.5 5.5t-52 8t-48.5 8.5t-56.5 10.5t-57.5 10.5z" />
    <glyph glyph-name="k" unicode="k" horiz-adv-x="2132" 
d="M184 1200q0 560 16 1200q190 9 350 9q165 0 410 -9q16 0 28 -12t12 -28q1 -47 1 -141q0 -100 -15 -660q14 0 43.5 0.5t44.5 0.5q37 112 133 389.5t143 420.5q6 17 24 28t37 12q151 10 321 10q215 0 399 -22q-123 -525 -338 -948q-118 -201 -312 -212v-6q102 -6 185 -61.5
t139 -150.5q176 -347 334 -1020q-184 -22 -419 -22q-170 0 -321 10q-19 1 -37 12t-24 28q-98 299 -278 951h-77q1 -33 10 -340.5t9 -467.5q0 -57 -2 -171q-190 -9 -350 -9q-165 0 -410 9q-16 0 -28 12t-12 28q-16 752 -16 1160z" />
    <glyph glyph-name="l" unicode="l" horiz-adv-x="1640" 
d="M184 1200q0 560 16 1200q190 9 350 9q165 0 410 -9q16 0 28 -12t12 -28q16 -752 16 -1160q0 -266 -3 -519h17q365 0 610 -9q16 0 28 -12t12 -28q4 -244 4 -346q0 -157 -4 -294q-190 -9 -590 -9q-99 0 -421.5 6.5t-428.5 10.5q-16 0 -28 12t-12 28q-16 752 -16 1160z" />
    <glyph glyph-name="m" unicode="m" horiz-adv-x="2784" 
d="M184 1200q0 560 16 1200q190 9 330 9q168 0 346 -9q29 -1 44 -40l502 -1024l502 1024q28 37 49 39q125 10 281 10q168 0 370 -9q17 -1 28.5 -12.5t11.5 -27.5q16 -752 16 -1160q0 -560 -16 -1200q-172 -9 -310 -9q-125 0 -370 9q-16 0 -28 12t-12 28q-3 112 -9 335.5
t-10 406t-5 349.5l-456 -931l-44 -8l-40 8l-434 886l14 -1086q-190 -9 -330 -9q-145 0 -390 9q-16 0 -28 12t-12 28q-16 752 -16 1160z" />
    <glyph glyph-name="n" unicode="n" horiz-adv-x="2200" 
d="M184 1200q0 560 16 1200q190 9 330 9q119 0 346 -9q29 -1 44 -40l414 -1024l-14 1064q191 9 350 9q156 0 370 -9q17 -1 28.5 -12.5t11.5 -27.5q16 -752 16 -1160q0 -560 -16 -1200q-166 -9 -310 -9q-171 0 -366 9q-30 1 -44 40l-414 1024l14 -1064q-190 -9 -330 -9
q-158 0 -390 9q-17 1 -28.5 12.5t-11.5 27.5q-16 752 -16 1160z" />
    <glyph glyph-name="o" unicode="o" 
d="M104 1201q0 291 63 518.5t181.5 379.5t287 235t380.5 94q195 0 348 -26.5t280.5 -86t217.5 -154.5t152.5 -231t92 -317t29.5 -412q0 -291 -64 -518.5t-184.5 -379t-289.5 -234t-382 -93.5q-194 0 -346.5 26.5t-279 85.5t-216 153.5t-151 230.5t-90.5 316.5t-29 412.5z
M940 1201q0 -140 9.5 -238t24 -154.5t39.5 -87.5t50 -40t61 -9t60 9t48 40t37.5 87.5t22 154.5t8.5 238q0 116 -6 203.5t-19 144.5t-28 93.5t-38.5 54.5t-45 24.5t-51.5 6.5t-50.5 -6t-41.5 -24.5t-34.5 -55t-24.5 -94t-16 -144t-5 -203.5z" />
    <glyph glyph-name="p" unicode="p" horiz-adv-x="2064" 
d="M192 1200q0 201 4 583t4 577q443 68 780 68q161 0 274.5 -7t235 -30t202.5 -64.5t157 -111.5t119.5 -169.5t69.5 -241t26 -323.5q0 -126 -15 -232t-43 -191.5t-71.5 -154.5t-97 -121.5t-123 -91.5t-146.5 -65.5t-171 -42.5t-191.5 -23t-213.5 -7q8 -460 8 -552
q-187 -8 -352 -8q-134 0 -408 8q-16 0 -28 12t-12 28q0 185 -4 571t-4 589zM984 1208h63q37 0 63.5 4t55 19.5t46 43t29 76.5t11.5 118q0 67 -1.5 107.5t-9 74.5t-18 50t-32.5 28t-47.5 14.5t-68.5 2.5h-91v-538z" />
    <glyph glyph-name="q" unicode="q" horiz-adv-x="2128" 
d="M940 1241q0 -89 2.5 -158t9 -119.5t13 -86.5t19.5 -59.5t23.5 -36.5t29 -19.5t33 -8t38.5 -1.5q28 0 43.5 2t35 11.5t30 29t22 54t17 87t9 128t3.5 177.5q0 128 -8 217.5t-21 142t-36 81t-47 37.5t-60 9q-45 0 -71 -15t-47 -65t-29.5 -147.5t-8.5 -259.5zM104 1241
q0 554 234.5 860t661.5 327q224 0 396 -38.5t307.5 -124.5t222.5 -224t132.5 -337t45.5 -463q0 -574 -233.5 -868t-664.5 -317q-1 -3 -1 -7v-1q0 -34 66.5 -59.5t176.5 -25.5q38 0 93 5l351 32l80 -616q-283 -52 -548 -52q-206 0 -389.5 77t-292.5 203.5t-109 266.5
q0 122 88 232q-210 59 -343.5 190.5t-203.5 363.5t-70 576z" />
    <glyph glyph-name="r" unicode="r" horiz-adv-x="2104" 
d="M192 1252q0 200 4 554t4 554q200 31 425.5 49.5t394.5 18.5q146 0 245 -4.5t213.5 -20t188.5 -44.5t148 -80t115.5 -124t67.5 -179t26 -243q0 -217 -112 -382t-312 -259q136 -47 221 -192q199 -391 318 -900q-184 -22 -419 -22q-170 0 -321 10q-19 1 -37 12t-24 28
q-195 592 -303 956h-53q2 -112 9.5 -459t8.5 -525q-164 -7 -351 -7q-169 0 -409 7q-17 0 -28.5 11.5t-11.5 28.5q0 185 -4 597t-4 615zM980 1476h68q95 0 153.5 47.5t58.5 125.5q0 98 -40 145.5t-142 47.5q-52 0 -96 -3q-2 -234 -2 -363z" />
    <glyph glyph-name="s" unicode="s" horiz-adv-x="1968" 
d="M136 24l98 723q442 -139 709 -139q104 0 158.5 43.5t54.5 97.5q0 20 -8 36.5t-28.5 31t-39 25t-56 23t-62.5 20t-74 21.5q-89 25 -138.5 40.5t-140 52.5t-144.5 74.5t-123.5 102t-108 139.5t-66 182.5t-27.5 235.5q0 137 25 243t65.5 179t111.5 124t141.5 80t178 44.5
t200 20t226.5 4.5q329 0 772 -88l-90 -665q-153 69 -349 116t-372 47q-93 0 -147 -29.5t-54 -83.5q0 -17 8.5 -32t30.5 -29t42 -24.5t60 -24.5t66.5 -22l79.5 -24q246 -74 371 -134q328 -157 418 -430q36 -110 36 -240q0 -134 -26.5 -244t-73 -190.5t-116.5 -142
t-151 -100.5t-183 -63.5t-205.5 -34.5t-224.5 -10q-419 0 -844 44z" />
    <glyph glyph-name="t" unicode="t" horiz-adv-x="1840" 
d="M60 2096q0 161 4 304q191 9 926 9q581 0 826 -9q16 0 28 -12t12 -28q4 -226 4 -340q0 -163 -4 -300q-65 -3 -484 -7q4 -216 4 -513q0 -560 -16 -1200q-190 -9 -350 -9q-165 0 -410 9q-16 0 -28 12t-12 28q-16 752 -16 1160q0 185 4 517q-230 5 -444 11q-16 0 -28 12
t-12 28q-4 230 -4 328z" />
    <glyph glyph-name="u" unicode="u" horiz-adv-x="2112" 
d="M108 1185q0 575 16 1215q190 9 350 9q165 0 410 -9q16 0 28 -12t12 -28q16 -752 16 -1296q0 -131 9 -213t31 -124.5t49 -56.5t71 -14q59 0 89 27t46.5 116.5t16.5 265.5q0 695 16 1335q191 9 350 9q165 0 410 -9q16 0 28 -12t12 -28q16 -752 16 -1175q0 -257 -39 -457
t-112 -340.5t-183.5 -233.5t-247.5 -139t-310 -55q-141 0 -254 11.5t-219 38.5t-187 72.5t-151.5 113t-119.5 160t-84.5 213.5t-52 274.5t-16.5 341.5z" />
    <glyph glyph-name="v" unicode="v" horiz-adv-x="2020" 
d="M23 2400q189 9 364 9q255 0 392 -9q17 -1 31 -12.5t17 -27.5q46 -232 93.5 -530t69 -449t74.5 -535q5 33 23.5 169t24.5 179.5t23 166t26 179.5t25 166t28 180t28 165.5t32 179.5t33 169q192 9 311 9q182 0 425 -9q15 0 24 -9.5t9 -23.5q0 -15 -19 -126
q-151 -934 -454 -2241q-190 -9 -509 -9q-275 0 -551 9q-16 0 -29.5 11.5t-17.5 28.5q-161 706 -277 1269.5t-196 1090.5z" />
    <glyph glyph-name="w" unicode="w" horiz-adv-x="2728" 
d="M23 2400q189 9 364 9q255 0 392 -9q17 -1 31 -12.5t17 -27.5q74 -375 155 -1007q153 629 254 923l188 8l184 -8q104 -291 253 -907q90 688 146 1031q192 9 319 9q182 0 425 -9q15 0 24 -9.5t9 -24.5q0 -3 -18 -126q-161 -1103 -455 -2240q-256 -12 -587 -12
q-41 145 -148 470t-155 502q-47 -165 -159 -487.5t-158 -484.5q-232 0 -561 12q-16 0 -29 11.5t-18 28.5q-325 1278 -473 2360z" />
    <glyph glyph-name="x" unicode="x" horiz-adv-x="2120" 
d="M76 0q22 104 38 175.5t50.5 204.5t66.5 230.5t82 220.5t101.5 209.5t120 161.5t142.5 110v6q-88 27 -187 158.5t-178.5 303t-139.5 336t-88 282.5q184 22 399 22q170 0 321 -10q19 -1 37 -12t24 -28q47 -143 137 -395t97 -271q23 64 72.5 197t90.5 247.5t76 221.5
q6 17 24 28t37 12q151 10 321 10q215 0 399 -22q-22 -94 -63 -218.5t-102 -268.5t-127.5 -267.5t-147 -214.5t-154.5 -111v-6q55 -34 106 -84.5t92 -105t81 -129.5t69.5 -139t60.5 -152.5t51 -151.5t44.5 -154.5t37 -143.5t32.5 -136.5t28 -115.5q-184 -22 -419 -22
q-170 0 -321 10q-19 1 -37 12t-24 28q-86 262 -225 811q-142 -562 -224 -811q-6 -17 -24 -28t-37 -12q-151 -10 -321 -10q-235 0 -419 22z" />
    <glyph glyph-name="y" unicode="y" horiz-adv-x="2100" 
d="M32 2386q184 22 419 22q170 0 321 -10q19 -1 37 -12t24 -28q95 -291 256 -872q155 561 257 872q6 17 24 28t37 12q151 10 321 10q235 0 419 -22q-158 -673 -334 -1020q-125 -214 -323 -377q8 -661 10 -989q-190 -9 -358 -9q-173 0 -418 9q-16 0 -28 12t-12 28
q0 299 6 949q-201 166 -325 377q-174 343 -333 1020z" />
    <glyph glyph-name="z" unicode="z" horiz-adv-x="1776" 
d="M116 2096q0 161 4 304q190 9 870 9q453 0 698 -9q16 0 28 -12t12 -28v-400q-389 -765 -707 -1279q484 -3 675 -9q16 0 28 -12t12 -28q4 -240 4 -344q0 -159 -4 -296q-190 -9 -686 -9q-100 0 -443 6.5t-447 10.5q-16 0 -28 12t-12 28q-3 129 -3 245q0 107 3 227
q93 183 197.5 365.5t278 467t223.5 369.5q-462 8 -659 14q-16 0 -28 12t-12 28q-4 230 -4 328z" />
    <glyph glyph-name="braceleft" unicode="{" horiz-adv-x="1384" 
d="M120 1200q0 50 12 56q75 32 119.5 92.5t44.5 141.5q0 136 -54 413.5t-54 372.5q0 156 57 275t160 192t239.5 109t303.5 36q233 0 488 -64l-84 -628l-360 24q-55 4 -87.5 -20.5t-32.5 -59.5q0 -32 33 -158t66.5 -279.5t33.5 -253.5q0 -84 -64.5 -155.5t-144.5 -93.5
q80 -22 144.5 -93.5t64.5 -155.5q0 -100 -33.5 -253.5t-66.5 -279.5t-33 -158q0 -35 32.5 -59.5t87.5 -20.5l360 24l84 -628q-255 -64 -488 -64q-167 0 -303.5 36t-239.5 109t-160 192t-57 275q0 95 54 372.5t54 413.5q0 81 -44.5 141.5t-119.5 92.5q-12 6 -12 56z" />
    <glyph glyph-name="bar" unicode="|" horiz-adv-x="1120" 
d="M184 1200q0 1040 16 1680q190 9 350 9q165 0 410 -9q16 0 28 -12t12 -28q16 -752 16 -1640q0 -1040 -16 -1680q-191 -9 -350 -9q-165 0 -410 9q-16 0 -28 12t-12 28q-16 752 -16 1640z" />
    <glyph glyph-name="braceright" unicode="}" horiz-adv-x="1384" 
d="M28 -424l84 628l360 -24q55 -4 87.5 20.5t32.5 59.5q0 32 -33 158t-66.5 279.5t-33.5 253.5q0 84 64.5 155.5t144.5 93.5q-80 22 -144.5 93.5t-64.5 155.5q0 100 33.5 253.5t66.5 279.5t33 158q0 35 -32.5 59.5t-87.5 20.5l-360 -24l-84 628q255 64 488 64
q167 0 303.5 -36t239.5 -109t160 -192t57 -275q0 -95 -54 -372.5t-54 -413.5q0 -81 44.5 -141.5t119.5 -92.5q12 -6 12 -56t-12 -56q-75 -32 -119.5 -92.5t-44.5 -141.5q0 -136 54 -413.5t54 -372.5q0 -156 -57 -275t-160 -192t-239.5 -109t-303.5 -36q-233 0 -488 64z" />
    <glyph glyph-name="asciitilde" unicode="~" horiz-adv-x="1672" 
d="M56 1089q0 7 6 21t13.5 26.5t21 36t21.5 37.5q136 243 239 411q202 -105 363 -105q85 0 225 34t227 34q203 0 500 -185q20 -11 20 -35q0 -6 -3.5 -15t-10.5 -22.5t-14 -26t-18 -31t-18 -31.5q-122 -218 -237 -407q-205 105 -363 105q-85 0 -227 -32t-233 -32
q-211 7 -492 182q-20 11 -20 35z" />
    <glyph glyph-name="exclamdown" unicode="&#xa1;" horiz-adv-x="1024" 
d="M205 2125q0 131 3 275q146 7 296 7q132 0 344 -7q16 0 28 -12t12 -28q3 -162 3 -307q0 -129 -3 -273q-90 -5 -217 -5q-184 0 -423 13q-17 1 -28.5 12.5t-11.5 27.5q-3 157 -3 297zM176 800q0 391 16 800q191 9 350 9q136 0 330 -9q16 -1 27.5 -12.5t12.5 -27.5
q16 -427 16 -760q0 -350 -24 -800q-142 -9 -282 -9q-254 0 -390 9q-16 1 -27.5 12.5t-12.5 27.5q-16 427 -16 760z" />
    <glyph glyph-name="cent" unicode="&#xa2;" horiz-adv-x="1600" 
d="M104 1201q0 283 54.5 485.5t152.5 324t246 191.5q5 407 11 678q191 9 310 9q125 0 370 -9q16 0 28 -12t12 -28q1 -43 8 -537q121 -10 303 -53l-75 -555l-333 22q-154 10 -242.5 -121.5t-88.5 -394.5q0 -156 21.5 -261t66 -162t103 -78t140.5 -16l333 22l71 -557
q-158 -27 -297 -34q-6 -424 -10 -595q-190 -9 -310 -9q-125 0 -370 9q-16 0 -28 12t-12 28q-4 181 -10 671q-223 113 -338.5 349t-115.5 621z" />
    <glyph glyph-name="sterling" unicode="&#xa3;" horiz-adv-x="1520" 
d="M24 356q0 54 12 56q40 7 86.5 27t93 51t77.5 78.5t31 101.5q0 92 -19 230q-13 0 -177 4q-16 0 -28 12t-12 28q-4 210 -4 283q0 67 4 261q39 1 105 3q-25 148 -25 245q0 157 38.5 275.5t108 197t175.5 128t232 70.5t286 21q233 0 488 -64l-84 -628l-360 24
q-84 5 -142 -33.5t-58 -106.5q0 -43 16 -125q234 -2 380 -7q16 0 28 -12t12 -28q3 -163 3 -293q0 -115 -3 -259h-285q22 -121 28 -216q330 -2 481 -8q16 0 28 -12t12 -28q4 -244 4 -346q0 -157 -4 -294q-190 -9 -594 -9q-100 0 -443 6.5t-447 10.5q-16 0 -28 12t-12 28
q-4 222 -4 316z" />
    <glyph glyph-name="currency" unicode="&#xa4;" horiz-adv-x="2464" 
d="M1063 1197q0 -56 9 -94.5t23.5 -60.5t41 -34t53.5 -15t69 -3q52 0 82.5 6t58.5 26t40 62.5t12 112.5q0 66 -12.5 107.5t-40.5 62.5t-60.5 28.5t-82.5 7.5q-51 0 -83.5 -7t-59 -28.5t-38.5 -63t-12 -107.5zM135 476q76 85 352 363q-44 143 -44 358q0 185 43 317
q-67 70 -184 191t-156 162q103 113 193 203q63 63 237 226q13 13 28 13q16 0 29 -13q199 -190 426 -409q87 7 197 7q159 0 271 -15q327 324 423 412q13 13 28 13q16 0 29 -13q28 -23 178 -173q169 -169 218 -223q-63 -72 -375 -386q41 -129 41 -312q0 -180 -30 -306
q244 -239 344 -345q-103 -113 -193 -203q-63 -63 -237 -226q-13 -13 -28 -13q-16 0 -29 13q-212 196 -377 360q-110 -11 -263 -11q-167 0 -266 11q-296 -293 -408 -392q-12 -12 -28 -12q-17 0 -29 12q-62 57 -169 164q-95 95 -221 227z" />
    <glyph glyph-name="yen" unicode="&#xa5;" horiz-adv-x="2100" 
d="M32 2386q184 22 419 22q170 0 321 -10q19 -1 37 -12t24 -28q95 -291 256 -872q155 561 257 872q6 17 24 28t37 12q151 10 321 10q235 0 419 -22q-158 -673 -334 -1020q-62 -106 -137 -195q148 3 264 5q17 0 28 -11.5t12 -28.5q4 -123 4 -324q0 -70 -4 -236
q-45 -2 -485 -6q4 -380 5 -570q-190 -9 -358 -9q-173 0 -418 9q-16 0 -28 12t-12 28q0 173 2 533q-387 9 -446 11q-16 0 -27.5 11.5t-12.5 28.5q-4 208 -4 276q0 103 4 276q25 -1 131 -2t172 -2q-80 95 -138 194q-174 343 -333 1020z" />
    <glyph glyph-name="brokenbar" unicode="&#xa6;" horiz-adv-x="1120" 
d="M184 292q0 479 16 773q214 8 350 8q132 0 410 -8q15 -1 27.5 -11.5t12.5 -19.5q16 -346 16 -742q0 -479 -16 -773q-195 -8 -350 -8q-229 0 -410 8q-15 1 -27.5 11.5t-12.5 19.5q-16 346 -16 742zM184 2108q0 479 16 773q214 8 350 8q132 0 410 -8q15 -1 27.5 -11.5
t12.5 -19.5q16 -346 16 -742q0 -479 -16 -773q-195 -8 -350 -8q-229 0 -410 8q-15 1 -27.5 11.5t-12.5 19.5q-16 346 -16 742z" />
    <glyph glyph-name="section" unicode="&#xa7;" horiz-adv-x="2128" 
d="M46 1184q0 429 269 619q-95 166 -95 390q0 137 25 243t65.5 179t111.5 124t141.5 80t178 44.5t200 20t226.5 4.5q186 0 357.5 -25t374.5 -75l-90 -665q-390 175 -681 175q-93 0 -147 -29.5t-54 -83.5q0 -29 34.5 -54t93.5 -44.5t138 -44t167.5 -48.5t182.5 -60.5
t182.5 -78.5t167.5 -104.5t138 -136.5t93.5 -176t34.5 -221q0 -429 -269 -619q95 -166 95 -390q0 -137 -25 -243t-65.5 -179t-111.5 -124t-141.5 -80t-178 -44.5t-200 -20t-226.5 -4.5q-186 0 -357.5 25t-374.5 75l90 665q387 -174 681 -174q93 0 147 29t54 83
q0 29 -34.5 54t-93.5 44.5t-138 44t-167.5 48.5t-182.5 60.5t-182.5 78.5t-167.5 104.5t-138 136.5t-93.5 176t-34.5 221zM826 1200q0 -41 47.5 -79.5t121 -61.5t148.5 -23q111 0 174 49.5t63 115.5q0 41 -47.5 80t-121 62t-148.5 23q-111 0 -174 -50t-63 -116z" />
    <glyph glyph-name="dieresis" unicode="&#xa8;" horiz-adv-x="1760" 
d="M1053 2271q0 113 3 257q119 6 265 6q157 0 311 -6q16 0 28 -12t12 -28q3 -162 3 -288q0 -112 -3 -256q-120 -5 -203 -5q-139 0 -373 13q-17 1 -28.5 12.5t-11.5 27.5q-3 158 -3 279zM165 2271q0 113 3 257q119 6 273 6q149 0 303 -6q16 0 28 -12t12 -28q3 -162 3 -288
q0 -112 -3 -256q-120 -5 -203 -5q-139 0 -373 13q-17 1 -28.5 12.5t-11.5 27.5q-3 157 -3 279z" />
    <glyph glyph-name="copyright" unicode="&#xa9;" horiz-adv-x="2760" 
d="M320 1200q0 -224 86.5 -427.5t233.5 -351t351 -234.5t429 -87t429 87t351 234.5t233.5 351t86.5 427.5t-86.5 427.5t-233.5 351t-351 234.5t-429 87t-429 -87t-351 -234.5t-233.5 -351t-86.5 -427.5zM120 1200q0 264 103 505t277 415t415 277t505 103t505 -103t415 -277
t277 -415t103 -505t-103 -505t-277 -415t-415 -277t-505 -103t-505 103t-415 277t-277 415t-103 505zM764 1205q0 181 37 321.5t105 236t169.5 157.5t224 89.5t274.5 27.5q59 0 123.5 -8.5t106 -17.5t118.5 -28l-66 -484l-283 19q-37 2 -65 -9.5t-53.5 -43.5t-39 -98
t-13.5 -163q0 -147 42 -234t129 -81l283 18l63 -488q-198 -36 -351 -36q-155 0 -273 22.5t-221 78.5t-169 148.5t-103.5 236t-37.5 336.5z" />
    <glyph glyph-name="ordfeminine" unicode="&#xaa;" horiz-adv-x="1640" 
d="M746 1669q0 -54 1.5 -87t7.5 -61.5t14.5 -42.5t26 -24.5t39 -13t55.5 -2.5h66v450h-44q-37 0 -63.5 -7.5t-51.5 -29.5t-38 -67.5t-13 -114.5zM89 1659q0 131 19.5 235.5t56 183t93.5 136.5t126 95.5t160.5 60.5t189 32.5t219.5 9.5q80 0 157.5 -4t182 -12.5t152.5 -11.5
q57 -4 97.5 -43t41.5 -94q7 -207 7 -360q0 -162 -3.5 -470t-3.5 -470q-362 -55 -632 -55q-130 0 -221.5 6t-188.5 24.5t-161 52t-124 90t-94 137.5t-54 195t-20 262z" />
    <glyph glyph-name="guillemotleft" unicode="&#xab;" horiz-adv-x="1880" 
d="M1039 1217q0 91 2 289q208 186 650 519q87 67 100 67q18 0 18 -21q6 -177 6 -337q0 -159 -6 -287q-166 -121 -435 -244q227 -99 407 -198q17 -9 28.5 -27t11.5 -34q6 -184 6 -310q0 -153 -6 -274q-133 68 -339 207t-385 271q-42 31 -44 57q-14 143 -14 322zM119 1217
q0 91 2 289q208 186 650 519q87 67 100 67q18 0 18 -21q6 -177 6 -337q0 -159 -6 -287q-166 -121 -435 -244q227 -99 407 -198q17 -9 28.5 -27t11.5 -34q6 -185 6 -310q0 -153 -6 -274q-133 68 -339 207t-385 271q-42 31 -44 57q-14 144 -14 322z" />
    <glyph glyph-name="uni00AD" unicode="&#xad;" horiz-adv-x="1672" 
d="M116 1205q0 118 4 291q191 9 886 9q341 0 586 -9q16 0 27.5 -11.5t12.5 -28.5q4 -123 4 -340q0 -78 -4 -252q-196 -9 -686 -9q-96 0 -385.5 6.5t-400.5 10.5q-16 0 -27.5 11.5t-12.5 28.5q-4 208 -4 293z" />
    <glyph glyph-name="registered" unicode="&#xae;" horiz-adv-x="2760" 
d="M320 1200q0 -224 86.5 -427.5t233.5 -351t351 -234.5t429 -87t429 87t351 234.5t233.5 351t86.5 427.5t-86.5 427.5t-233.5 351t-351 234.5t-429 87t-429 -87t-351 -234.5t-233.5 -351t-86.5 -427.5zM120 1200q0 264 103 505t277 415t415 277t505 103t505 -103t415 -277
t277 -415t103 -505t-103 -505t-277 -415t-415 -277t-505 -103t-505 103t-415 277t-277 415t-103 505zM799 1250q0 128 2.5 355t2.5 354v28l28 4q282 44 529 44q88 0 155 -3.5t140.5 -15.5t126.5 -33t103.5 -57t81.5 -85.5t49.5 -121t18.5 -161.5q0 -132 -62 -236.5
t-172 -172.5q60 -40 100 -108v-1h1q126 -248 205 -584l9 -35l-36 -4q-122 -14 -272 -14q-105 0 -207 6q-21 1 -40.5 13t-27.5 35q-113 346 -163 510q8 -349 9 -518l1 -31l-31 -1q-125 -5 -226 -5q-119 0 -262 5q-24 0 -41 17.5t-17 40.5q0 118 -2.5 381.5t-2.5 393.5z
M1368 1418h11q51 0 85.5 26.5t34.5 60.5q0 103 -101 103q-5 0 -16 -0.5t-13 -0.5q0 -29 -0.5 -95t-0.5 -94z" />
    <glyph glyph-name="macron" unicode="&#xaf;" horiz-adv-x="1440" 
d="M156 2265q0 115 4 259q191 9 710 9q205 0 450 -9q16 0 27.5 -11.5t12.5 -28.5q2 -90 2 -263q0 -196 -2 -265q-196 -9 -550 -9q-148 0 -610 17q-16 0 -27.5 11.5t-12.5 28.5q-4 141 -4 261z" />
    <glyph glyph-name="degree" unicode="&#xb0;" horiz-adv-x="1088" 
d="M85 1965q0 199 122 319t327 130q298 0 423.5 -107t125.5 -342q0 -199 -118 -318t-323 -129q-299 0 -428 106.5t-129 340.5zM487 1964q0 -65 22 -86.5t75 -21.5q51 0 74 21.5t23 86.5t-25.5 86.5t-81.5 21.5q-43 0 -65 -22.5t-22 -85.5z" />
    <glyph glyph-name="plusminus" unicode="&#xb1;" horiz-adv-x="1828" 
d="M126 1506q0 63 5 293q84 4 513 6q3 171 12 562q126 6 261 6q104 0 302 -6q15 0 25.5 -10.5t10.5 -25.5q1 -68 6 -244t7 -281q334 -2 476 -7q15 0 25 -10.5t11 -25.5q3 -49 3 -232q0 -170 -3 -288q-71 -3 -513 -7q-2 -141 -12 -525q-126 -6 -260 -6q-105 0 -303 6
q-15 0 -25 10.5t-11 25.5q-5 114 -11 493q-280 4 -478 10q-15 0 -25 10.5t-11 25.5q-5 112 -5 220zM178 348q0 113 4 269q205 9 869 9q361 0 636 -9q15 0 25 -10.5t11 -25.5q3 -83 3 -314q0 -117 -3 -234q-156 -8 -725 -8q-86 0 -383.5 6t-396.5 9q-15 0 -25.5 10.5
t-10.5 25.5q-4 186 -4 272z" />
    <glyph glyph-name="acute" unicode="&#xb4;" horiz-adv-x="1268" 
d="M139 1984q161 268 372 556q150 7 322 7q160 0 366 -7q20 0 20 -17q0 -22 -121 -168q-30 -36 -164 -187t-201 -240q-293 0 -582 16q-16 1 -19 12t7 28z" />
    <glyph glyph-name="periodcentered" unicode="&#xb7;" horiz-adv-x="840" 
d="M117 1225q0 131 3 275q146 7 296 7q132 0 344 -7q16 0 28 -12t12 -28q3 -162 3 -307q0 -129 -3 -273q-90 -5 -217 -5q-184 0 -423 13q-17 1 -28.5 12.5t-11.5 27.5q-3 157 -3 297z" />
    <glyph glyph-name="cedilla" unicode="&#xb8;" horiz-adv-x="1296" 
d="M639 204q276 -113 410.5 -258t134.5 -298q0 -190 -180.5 -319t-462.5 -129q-79 0 -146 6t-101.5 12t-144.5 26l72 560l195 -24q84 -11 132 17.5t48 74.5q0 42 -47 76t-134 40z" />
    <glyph glyph-name="ordmasculine" unicode="&#xba;" horiz-adv-x="1696" 
d="M748 1673q0 -64 3 -101.5t10 -66t22.5 -40.5t36.5 -17.5t56 -5.5q38 2 61.5 9.5t46.5 29t33.5 66t10.5 114.5q0 145 -25 188t-111 43q-57 -3 -85 -18.5t-43.5 -62.5t-15.5 -138zM90 1663q0 143 20.5 254t63 192.5t101.5 138t143.5 92t181 52.5t221.5 22q119 0 202.5 -5
t180.5 -22.5t162.5 -49.5t130.5 -89t103 -137t61.5 -196.5t23.5 -265.5q0 -170 -33.5 -297t-94.5 -210.5t-157.5 -136.5t-209.5 -77t-264 -30q-307 0 -491 82t-264.5 247t-80.5 436z" />
    <glyph glyph-name="guillemotright" unicode="&#xbb;" horiz-adv-x="1880" 
d="M923 1235q0 -190 -1 -289q-208 -186 -650 -519q-87 -67 -101 -67q-17 0 -17 20q-7 207 -7 338q0 136 7 286q166 121 435 244q-218 95 -407 199q-17 9 -28.5 27t-11.5 34q-7 215 -7 309q0 134 7 275q133 -68 339 -207t385 -271q42 -31 44 -58q13 -133 13 -321zM1843 1235
q0 -190 -1 -289q-208 -186 -650 -519q-87 -67 -101 -67q-17 0 -17 20q-7 206 -7 338q0 136 7 286q166 121 435 244q-218 95 -407 199q-17 9 -28.5 27t-11.5 34q-7 215 -7 309q0 134 7 275q133 -68 339 -207t385 -271q42 -31 44 -58q13 -133 13 -321z" />
    <glyph glyph-name="questiondown" unicode="&#xbf;" horiz-adv-x="1592" 
d="M593 2125q0 131 3 275q146 7 296 7q132 0 344 -7q16 0 28 -12t12 -28q3 -162 3 -307q0 -129 -3 -273q-90 -5 -217 -5q-184 0 -423 13q-17 1 -28.5 12.5t-11.5 27.5q-3 157 -3 297zM56 557q0 150 65.5 278t179.5 247q53 55 80 85t69.5 86.5t64 101.5t39 109.5t18.5 132.5
q136 9 302 9q163 0 370 -9q17 -1 28.5 -12.5t11.5 -27.5q0 -116 -29 -218t-75 -174t-102 -134.5t-112 -111t-102 -90.5t-75 -85t-29 -84q0 -118 165 -118q134 0 329.5 68.5t255.5 111.5l90 -665q-352 -85 -734 -85q-149 0 -267.5 17t-222 58t-172.5 107t-108.5 167.5
t-39.5 235.5z" />
    <glyph glyph-name="Agrave" unicode="&#xc0;" horiz-adv-x="2080" 
d="M39 33q0 16 19 125q53 329 121 681.5t176 875t141 685.5q200 9 550 9q326 0 570 -9q16 0 30 -11.5t17 -28.5q44 -223 149.5 -729t180 -894.5t127.5 -736.5q-189 -9 -348 -9q-255 0 -392 9q-17 1 -30.5 12.5t-16.5 27.5q-45 230 -73 400h-371q-32 -214 -77 -440
q-192 -9 -331 -9q-166 0 -409 9q-15 0 -24 9.5t-9 23.5zM956 960h225q-24 164 -65 467.5t-59 429.5q-20 -163 -53 -467.5t-48 -429.5zM459 3100q141 7 292 7q133 0 348 -7q16 0 34 -11.5t27 -28.5q36 -69 98.5 -185t112.5 -210t96 -185q-336 0 -644 16q-17 1 -34.5 12.5
t-26.5 27.5q-218 394 -303 564z" />
    <glyph glyph-name="Aacute" unicode="&#xc1;" horiz-adv-x="2080" 
d="M39 33q0 16 19 125q53 329 121 681.5t176 875t141 685.5q200 9 550 9q326 0 570 -9q16 0 30 -11.5t17 -28.5q44 -223 149.5 -729t180 -894.5t127.5 -736.5q-189 -9 -348 -9q-255 0 -392 9q-17 1 -30.5 12.5t-16.5 27.5q-45 230 -73 400h-371q-32 -214 -77 -440
q-192 -9 -331 -9q-166 0 -409 9q-15 0 -24 9.5t-9 23.5zM956 960h225q-24 164 -65 467.5t-59 429.5q-20 -163 -53 -467.5t-48 -429.5zM715 2521q0 15 71 125q124 200 309 454q150 7 322 7q160 0 366 -7q20 0 20 -17q0 -19 -81 -119q-55 -69 -195 -226t-210 -250
q-293 0 -582 16q-20 2 -20 17z" />
    <glyph glyph-name="Acircumflex" unicode="&#xc2;" horiz-adv-x="2080" 
d="M39 33q0 16 19 125q53 329 121 681.5t176 875t141 685.5q200 9 550 9q326 0 570 -9q16 0 30 -11.5t17 -28.5q44 -223 149.5 -729t180 -894.5t127.5 -736.5q-189 -9 -348 -9q-255 0 -392 9q-17 1 -30.5 12.5t-16.5 27.5q-45 230 -73 400h-371q-32 -214 -77 -440
q-192 -9 -331 -9q-166 0 -409 9q-15 0 -24 9.5t-9 23.5zM956 960h225q-24 164 -65 467.5t-59 429.5q-20 -163 -53 -467.5t-48 -429.5zM219 2483q68 133 156.5 266.5t214.5 305.5q26 34 61 36q263 13 565 13q178 0 277 -1q147 -165 378 -472q3 -4 15.5 -19.5t22 -28
t20.5 -27.5t17 -26.5t6 -17.5q0 -17 -21 -17q-207 -7 -322 -7q-136 0 -286 7q-51 70 -98 146t-74 126.5t-72 137.5q-110 -221 -199 -382q-9 -17 -27 -28.5t-34 -11.5q-215 -7 -325 -7q-134 0 -275 7z" />
    <glyph glyph-name="Atilde" unicode="&#xc3;" horiz-adv-x="2080" 
d="M39 33q0 16 19 125q53 329 121 681.5t176 875t141 685.5q200 9 550 9q326 0 570 -9q16 0 30 -11.5t17 -28.5q44 -223 149.5 -729t180 -894.5t127.5 -736.5q-189 -9 -348 -9q-255 0 -392 9q-17 1 -30.5 12.5t-16.5 27.5q-45 230 -73 400h-371q-32 -214 -77 -440
q-192 -9 -331 -9q-166 0 -409 9q-15 0 -24 9.5t-9 23.5zM956 960h225q-24 164 -65 467.5t-59 429.5q-20 -163 -53 -467.5t-48 -429.5zM288 2915q0 24 20 35q160 100 265 139.5t199 42.5q92 0 255.5 -52t248.5 -52q135 0 363 117q91 -149 170 -292q6 -12 27.5 -49.5t30.5 -56
t9 -26.5q0 -23 -20 -36q-288 -197 -488 -197q-86 0 -233 44t-231 44q-145 0 -363 -113q-72 117 -163 280q-9 17 -24 43t-25 43.5t-20.5 36.5t-15.5 31.5t-5 17.5z" />
    <glyph glyph-name="Adieresis" unicode="&#xc4;" horiz-adv-x="2080" 
d="M39 40q54 346 122.5 707.5t187.5 938t147 714.5q200 9 550 9q326 0 570 -9q16 0 30 -11.5t17 -28.5q44 -223 149.5 -729t180 -894.5t127.5 -736.5q-189 -9 -348 -9q-255 0 -392 9q-17 1 -30.5 12.5t-16.5 27.5q-45 230 -73 400h-371q-32 -214 -77 -440q-192 -9 -331 -9
q-166 0 -409 9q-17 0 -26.5 12t-6.5 28zM956 960h225q-24 164 -65 467.5t-59 429.5q-20 -163 -53 -467.5t-48 -429.5zM1213 2831q0 113 3 257q119 6 265 6q157 0 311 -6q16 0 28 -12t12 -28q3 -162 3 -288q0 -112 -3 -256q-120 -5 -203 -5q-139 0 -373 13q-17 1 -28.5 12.5
t-11.5 27.5q-3 157 -3 279zM325 2831q0 113 3 257q119 6 273 6q149 0 303 -6q16 0 28 -12t12 -28q3 -162 3 -288q0 -112 -3 -256q-120 -5 -203 -5q-139 0 -373 13q-17 1 -28.5 12.5t-11.5 27.5q-3 158 -3 279z" />
    <glyph glyph-name="Aring" unicode="&#xc5;" horiz-adv-x="2080" 
d="M39 33q0 16 19 125q53 329 121 681.5t176 875t141 685.5q172 7 422 9q-132 33 -191.5 117.5t-59.5 230.5q0 164 101 263.5t271 107.5q247 0 350.5 -88.5t103.5 -282.5q0 -132 -64.5 -222.5t-180.5 -126.5q160 -1 368 -8q16 0 30 -11.5t17 -28.5q44 -223 149.5 -729
t180 -894.5t127.5 -736.5q-189 -9 -348 -9q-255 0 -392 9q-17 1 -30.5 12.5t-16.5 27.5q-45 230 -73 400h-371q-32 -214 -77 -440q-192 -9 -331 -9q-166 0 -409 9q-15 0 -24 9.5t-9 23.5zM1000 2757q0 -53 18 -71.5t62 -18.5q42 0 61 18t19 72t-21 71.5t-68 17.5
q-35 0 -53 -18.5t-18 -70.5zM956 960h225q-24 164 -65 467.5t-59 429.5q-20 -163 -53 -467.5t-48 -429.5z" />
    <glyph glyph-name="AE" unicode="&#xc6;" horiz-adv-x="2896" 
d="M39 33q0 16 19 125q53 329 121 681.5t176 875t141 685.5q445 13 1162 13q636 0 1150 -13q17 -1 28.5 -12.5t11.5 -27.5q4 -244 4 -346q0 -157 -4 -294q-169 -8 -636 -8q-79 0 -152 1q-2 -104 -3 -210q358 -2 479 -7q16 0 28 -12t12 -28q3 -164 3 -301q0 -123 -3 -267
h-519q1 -70 3 -208h48q490 0 708 -8q16 0 28 -12t12 -28q4 -244 4 -346q0 -157 -4 -294q-190 -9 -686 -9q-99 0 -421.5 6.5t-428.5 10.5q-16 0 -28 12t-12 28q-10 453 -14 832h-320q-61 -512 -134 -872q-192 -9 -331 -9q-166 0 -409 9q-15 0 -24 9.5t-9 23.5zM1012 1460h253
q1 44 1 143.5t1 142.5q-40 0 -81.5 1t-83.5 2t-60 1q-18 -114 -30 -290z" />
    <glyph glyph-name="Ccedilla" unicode="&#xc7;" horiz-adv-x="1660" 
d="M104 1201q0 278 50.5 488.5t141.5 350t229.5 227t303.5 124.5t375 37q112 0 211.5 -16.5t244.5 -51.5l-86 -627l-369 25q-47 3 -84 -8t-72 -47t-58 -97.5t-37 -163.5t-14 -241q0 -140 12.5 -241.5t34 -164t56 -97.5t72.5 -46.5t90 -7.5l369 24l82 -632q-231 -43 -442 -44
q323 -133 323 -399q0 -177 -163.5 -285t-473.5 -108q-59 0 -102 3t-64.5 6.5t-67 12t-78.5 14.5l52 400l95 -13q102 -13 147.5 31.5t6 97.5t-142.5 60l27 221q-163 38 -282.5 116.5t-208.5 214.5t-133.5 345t-44.5 492z" />
    <glyph glyph-name="Egrave" unicode="&#xc8;" horiz-adv-x="1816" 
d="M184 1200q0 560 16 1200q190 9 830 9q453 0 698 -9q16 0 28 -12t12 -28q4 -244 4 -346q0 -157 -4 -294q-169 -8 -636 -8q-84 0 -152 1q-2 -138 -3 -210q358 -2 479 -7q16 0 28 -12t12 -28q3 -164 3 -301q0 -123 -3 -267h-519q1 -70 3 -208h48q490 0 708 -8q16 0 28 -12
t12 -28q4 -244 4 -346q0 -157 -4 -294q-190 -9 -686 -9q-99 0 -421.5 6.5t-428.5 10.5q-16 0 -28 12t-12 28q-16 752 -16 1160zM351 3100q141 7 292 7q133 0 348 -7q16 0 34 -11.5t27 -28.5q36 -69 98.5 -185t112.5 -210t96 -185q-336 0 -644 16q-17 1 -34.5 12.5
t-26.5 27.5q-218 394 -303 564z" />
    <glyph glyph-name="Eacute" unicode="&#xc9;" horiz-adv-x="1816" 
d="M184 1200q0 560 16 1200q190 9 830 9q453 0 698 -9q16 0 28 -12t12 -28q4 -244 4 -346q0 -157 -4 -294q-169 -8 -636 -8q-84 0 -152 1q-2 -138 -3 -210q358 -2 479 -7q16 0 28 -12t12 -28q3 -164 3 -301q0 -123 -3 -267h-519q1 -70 3 -208h48q490 0 708 -8q16 0 28 -12
t12 -28q4 -244 4 -346q0 -157 -4 -294q-190 -9 -686 -9q-99 0 -421.5 6.5t-428.5 10.5q-16 0 -28 12t-12 28q-16 752 -16 1160zM607 2521q0 15 71 125q124 200 309 454q150 7 322 7q160 0 366 -7q20 0 20 -17q0 -19 -81 -119q-55 -69 -195 -226t-210 -250q-293 0 -582 16
q-20 2 -20 17z" />
    <glyph glyph-name="Ecircumflex" unicode="&#xca;" horiz-adv-x="1816" 
d="M184 1200q0 560 16 1200q190 9 830 9q453 0 698 -9q16 0 28 -12t12 -28q4 -244 4 -346q0 -157 -4 -294q-169 -8 -636 -8q-84 0 -152 1q-2 -138 -3 -210q358 -2 479 -7q16 0 28 -12t12 -28q3 -164 3 -301q0 -123 -3 -267h-519q1 -70 3 -208h48q490 0 708 -8q16 0 28 -12
t12 -28q4 -244 4 -346q0 -157 -4 -294q-190 -9 -686 -9q-99 0 -421.5 6.5t-428.5 10.5q-16 0 -28 12t-12 28q-16 752 -16 1160zM111 2483q68 133 156.5 266.5t214.5 305.5q26 34 61 36q263 13 565 13q178 0 277 -1q147 -165 378 -472q3 -4 15.5 -19.5t22 -28t20.5 -27.5
t17 -26.5t6 -17.5q0 -17 -21 -17q-207 -7 -322 -7q-136 0 -286 7q-51 70 -98 146t-74 126.5t-72 137.5q-110 -221 -199 -382q-9 -17 -27 -28.5t-34 -11.5q-215 -7 -325 -7q-134 0 -275 7z" />
    <glyph glyph-name="Edieresis" unicode="&#xcb;" horiz-adv-x="1816" 
d="M184 1200q0 560 16 1200q190 9 830 9q453 0 698 -9q16 0 28 -12t12 -28q4 -244 4 -346q0 -157 -4 -294q-169 -8 -636 -8q-84 0 -152 1q-2 -138 -3 -210q358 -2 479 -7q16 0 28 -12t12 -28q3 -164 3 -301q0 -123 -3 -267h-519q1 -70 3 -208h48q490 0 708 -8q16 0 28 -12
t12 -28q4 -244 4 -346q0 -157 -4 -294q-190 -9 -686 -9q-99 0 -421.5 6.5t-428.5 10.5q-16 0 -28 12t-12 28q-16 752 -16 1160zM1105 2831q0 113 3 257q119 6 265 6q157 0 311 -6q16 0 28 -12t12 -28q3 -162 3 -288q0 -112 -3 -256q-120 -5 -203 -5q-139 0 -373 13
q-17 1 -28.5 12.5t-11.5 27.5q-3 158 -3 279zM217 2831q0 113 3 257q119 6 273 6q149 0 303 -6q16 0 28 -12t12 -28q3 -162 3 -288q0 -112 -3 -256q-120 -5 -203 -5q-139 0 -373 13q-17 1 -28.5 12.5t-11.5 27.5q-3 157 -3 279z" />
    <glyph glyph-name="Igrave" unicode="&#xcc;" horiz-adv-x="1120" 
d="M184 1200q0 560 16 1200q190 9 350 9q165 0 410 -9q16 0 28 -12t12 -28q16 -752 16 -1160q0 -560 -16 -1200q-190 -9 -350 -9q-165 0 -410 9q-16 0 -28 12t-12 28q-16 752 -16 1160zM-41 3100q141 7 292 7q133 0 348 -7q16 0 34 -11.5t27 -28.5q36 -69 98.5 -185
t112.5 -210t96 -185q-336 0 -644 16q-17 1 -34.5 12.5t-26.5 27.5q-218 394 -303 564z" />
    <glyph glyph-name="Iacute" unicode="&#xcd;" horiz-adv-x="1120" 
d="M184 1200q0 560 16 1200q190 9 350 9q165 0 410 -9q16 0 28 -12t12 -28q16 -752 16 -1160q0 -560 -16 -1200q-190 -9 -350 -9q-165 0 -410 9q-16 0 -28 12t-12 28q-16 752 -16 1160zM215 2521q0 15 71 125q124 200 309 454q150 7 322 7q160 0 366 -7q20 0 20 -17
q0 -19 -81 -119q-55 -69 -195 -226t-210 -250q-293 0 -582 16q-20 2 -20 17z" />
    <glyph glyph-name="Icircumflex" unicode="&#xce;" horiz-adv-x="1120" 
d="M184 1200q0 560 16 1200q190 9 350 9q165 0 410 -9q16 0 28 -12t12 -28q16 -752 16 -1160q0 -560 -16 -1200q-190 -9 -350 -9q-165 0 -410 9q-16 0 -28 12t-12 28q-16 752 -16 1160zM-281 2483q68 133 156.5 266.5t214.5 305.5q26 34 61 36q263 13 565 13q178 0 277 -1
q147 -165 378 -472q3 -4 15.5 -19.5t22 -28t20.5 -27.5t17 -26.5t6 -17.5q0 -17 -21 -17q-207 -7 -322 -7q-136 0 -286 7q-51 70 -98 146t-74 126.5t-72 137.5q-110 -221 -199 -382q-9 -17 -27 -28.5t-34 -11.5q-215 -7 -325 -7q-134 0 -275 7z" />
    <glyph glyph-name="Idieresis" unicode="&#xcf;" horiz-adv-x="1120" 
d="M184 1200q0 560 16 1200q190 9 350 9q165 0 410 -9q16 0 28 -12t12 -28q16 -752 16 -1160q0 -560 -16 -1200q-190 -9 -350 -9q-165 0 -410 9q-16 0 -28 12t-12 28q-16 752 -16 1160zM713 2831q0 113 3 257q119 6 265 6q157 0 311 -6q16 0 28 -12t12 -28q3 -162 3 -288
q0 -112 -3 -256q-120 -5 -203 -5q-139 0 -373 13q-17 1 -28.5 12.5t-11.5 27.5q-3 158 -3 279zM-175 2831q0 113 3 257q119 6 273 6q149 0 303 -6q16 0 28 -12t12 -28q3 -162 3 -288q0 -112 -3 -256q-120 -5 -203 -5q-139 0 -373 13q-17 1 -28.5 12.5t-11.5 27.5
q-3 157 -3 279z" />
    <glyph glyph-name="Eth" unicode="&#xd0;" 
d="M44 1205q0 118 4 291q76 4 145 5q0 69 3.5 377t3.5 482q198 30 432 49t404 19q209 0 369 -37t290 -124t213 -227.5t127.5 -349.5t44.5 -489q0 -213 -22.5 -382t-64.5 -295t-109.5 -218.5t-149 -152.5t-192 -96t-229 -50.5t-269.5 -14.5q-252 0 -804 48q-16 0 -28 12
t-12 28q0 119 -1 249.5t-2.5 288.5t-2.5 249q-64 4 -106 5q-16 0 -27.5 11.5t-12.5 28.5q-4 208 -4 293zM987 1499q74 -2 117 -3q16 0 27.5 -11.5t12.5 -28.5q4 -123 4 -340q0 -78 -4 -252q-75 -3 -157 -4q1 -33 2.5 -95.5t1.5 -92.5h108q31 0 53.5 6.5t47 24.5t41.5 55
t31 93.5t21 145t7 204.5q0 138 -11 237t-28 155t-44.5 87.5t-54 40.5t-63.5 9h-107q-4 -148 -5 -231z" />
    <glyph glyph-name="Ntilde" unicode="&#xd1;" horiz-adv-x="2200" 
d="M184 1200q0 560 16 1200q190 9 330 9q119 0 346 -9q29 -1 44 -40l414 -1024l-14 1064q191 9 350 9q156 0 370 -9q17 -1 28.5 -12.5t11.5 -27.5q16 -752 16 -1160q0 -560 -16 -1200q-166 -9 -310 -9q-171 0 -366 9q-30 1 -44 40l-414 1024l14 -1064q-190 -9 -330 -9
q-158 0 -390 9q-17 1 -28.5 12.5t-11.5 27.5q-16 752 -16 1160zM360 2915q0 24 20 35q160 100 265 139.5t199 42.5q92 0 255.5 -52t248.5 -52q135 0 363 117q91 -149 170 -292q6 -12 27.5 -49.5t30.5 -56t9 -26.5q0 -23 -20 -36q-288 -197 -488 -197q-86 0 -233 44t-231 44
q-145 0 -363 -113q-72 117 -163 280q-9 17 -24 43t-25 43.5t-20.5 36.5t-15.5 31.5t-5 17.5z" />
    <glyph glyph-name="Ograve" unicode="&#xd2;" 
d="M104 1201q0 291 63 518.5t181.5 379.5t287 235t380.5 94q195 0 348 -26.5t280.5 -86t217.5 -154.5t152.5 -231t92 -317t29.5 -412q0 -291 -64 -518.5t-184.5 -379t-289.5 -234t-382 -93.5q-194 0 -346.5 26.5t-279 85.5t-216 153.5t-151 230.5t-90.5 316.5t-29 412.5z
M940 1201q0 -140 9.5 -238t24 -154.5t39.5 -87.5t50 -40t61 -9t60 9t48 40t37.5 87.5t22 154.5t8.5 238q0 116 -6 203.5t-19 144.5t-28 93.5t-38.5 54.5t-45 24.5t-51.5 6.5t-50.5 -6t-41.5 -24.5t-34.5 -55t-24.5 -94t-16 -144t-5 -203.5zM515 3100q141 7 292 7
q133 0 348 -7q16 0 34 -11.5t27 -28.5q36 -69 98.5 -185t112.5 -210t96 -185q-336 0 -644 16q-17 1 -34.5 12.5t-26.5 27.5q-218 394 -303 564z" />
    <glyph glyph-name="Oacute" unicode="&#xd3;" 
d="M104 1201q0 291 63 518.5t181.5 379.5t287 235t380.5 94q195 0 348 -26.5t280.5 -86t217.5 -154.5t152.5 -231t92 -317t29.5 -412q0 -291 -64 -518.5t-184.5 -379t-289.5 -234t-382 -93.5q-194 0 -346.5 26.5t-279 85.5t-216 153.5t-151 230.5t-90.5 316.5t-29 412.5z
M940 1201q0 -140 9.5 -238t24 -154.5t39.5 -87.5t50 -40t61 -9t60 9t48 40t37.5 87.5t22 154.5t8.5 238q0 116 -6 203.5t-19 144.5t-28 93.5t-38.5 54.5t-45 24.5t-51.5 6.5t-50.5 -6t-41.5 -24.5t-34.5 -55t-24.5 -94t-16 -144t-5 -203.5zM771 2521q0 15 71 125
q124 200 309 454q150 7 322 7q160 0 366 -7q20 0 20 -17q0 -19 -81 -119q-55 -69 -195 -226t-210 -250q-293 0 -582 16q-20 2 -20 17z" />
    <glyph glyph-name="Ocircumflex" unicode="&#xd4;" 
d="M104 1201q0 291 63 518.5t181.5 379.5t287 235t380.5 94q195 0 348 -26.5t280.5 -86t217.5 -154.5t152.5 -231t92 -317t29.5 -412q0 -291 -64 -518.5t-184.5 -379t-289.5 -234t-382 -93.5q-194 0 -346.5 26.5t-279 85.5t-216 153.5t-151 230.5t-90.5 316.5t-29 412.5z
M940 1201q0 -140 9.5 -238t24 -154.5t39.5 -87.5t50 -40t61 -9t60 9t48 40t37.5 87.5t22 154.5t8.5 238q0 116 -6 203.5t-19 144.5t-28 93.5t-38.5 54.5t-45 24.5t-51.5 6.5t-50.5 -6t-41.5 -24.5t-34.5 -55t-24.5 -94t-16 -144t-5 -203.5zM275 2483q68 133 156.5 266.5
t214.5 305.5q26 34 61 36q263 13 565 13q178 0 277 -1q147 -165 378 -472q3 -4 15.5 -19.5t22 -28t20.5 -27.5t17 -26.5t6 -17.5q0 -17 -21 -17q-207 -7 -322 -7q-136 0 -286 7q-51 70 -98 146t-74 126.5t-72 137.5q-110 -221 -199 -382q-9 -17 -27 -28.5t-34 -11.5
q-215 -7 -325 -7q-134 0 -275 7z" />
    <glyph glyph-name="Otilde" unicode="&#xd5;" 
d="M104 1201q0 291 63 518.5t181.5 379.5t287 235t380.5 94q195 0 348 -26.5t280.5 -86t217.5 -154.5t152.5 -231t92 -317t29.5 -412q0 -291 -64 -518.5t-184.5 -379t-289.5 -234t-382 -93.5q-194 0 -346.5 26.5t-279 85.5t-216 153.5t-151 230.5t-90.5 316.5t-29 412.5z
M940 1201q0 -140 9.5 -238t24 -154.5t39.5 -87.5t50 -40t61 -9t60 9t48 40t37.5 87.5t22 154.5t8.5 238q0 116 -6 203.5t-19 144.5t-28 93.5t-38.5 54.5t-45 24.5t-51.5 6.5t-50.5 -6t-41.5 -24.5t-34.5 -55t-24.5 -94t-16 -144t-5 -203.5zM344 2915q0 24 20 35
q160 100 265 139.5t199 42.5q92 0 255.5 -52t248.5 -52q135 0 363 117q91 -149 170 -292q6 -12 27.5 -49.5t30.5 -56t9 -26.5q0 -23 -20 -36q-288 -197 -488 -197q-86 0 -233 44t-231 44q-145 0 -363 -113q-72 117 -163 280q-9 17 -24 43t-25 43.5t-20.5 36.5t-15.5 31.5
t-5 17.5z" />
    <glyph glyph-name="Odieresis" unicode="&#xd6;" 
d="M104 1201q0 291 63 518.5t181.5 379.5t287 235t380.5 94q195 0 348 -26.5t280.5 -86t217.5 -154.5t152.5 -231t92 -317t29.5 -412q0 -291 -64 -518.5t-184.5 -379t-289.5 -234t-382 -93.5q-194 0 -346.5 26.5t-279 85.5t-216 153.5t-151 230.5t-90.5 316.5t-29 412.5z
M940 1201q0 -140 9.5 -238t24 -154.5t39.5 -87.5t50 -40t61 -9t60 9t48 40t37.5 87.5t22 154.5t8.5 238q0 116 -6 203.5t-19 144.5t-28 93.5t-38.5 54.5t-45 24.5t-51.5 6.5t-50.5 -6t-41.5 -24.5t-34.5 -55t-24.5 -94t-16 -144t-5 -203.5zM1269 2831q0 113 3 257
q119 6 265 6q157 0 311 -6q16 0 28 -12t12 -28q3 -162 3 -288q0 -112 -3 -256q-120 -5 -203 -5q-139 0 -373 13q-17 1 -28.5 12.5t-11.5 27.5q-3 157 -3 279zM381 2831q0 113 3 257q119 6 273 6q149 0 303 -6q16 0 28 -12t12 -28q3 -162 3 -288q0 -112 -3 -256
q-120 -5 -203 -5q-139 0 -373 13q-17 1 -28.5 12.5t-11.5 27.5q-3 158 -3 279z" />
    <glyph glyph-name="multiply" unicode="&#xd7;" horiz-adv-x="1772" 
d="M333 1781q71 71 211 204q59 -54 367 -358q150 146 406 389q72 -65 188 -181q103 -103 210 -218q11 -11 11 -25q0 -15 -11 -26q-17 -18 -150 -157.5t-212 -221.5q247 -251 332 -342q10 -10 10 -25t-10 -26q-29 -33 -162 -166q-130 -130 -206 -202q-61 56 -367 358
q-127 -123 -380 -363q-83 75 -188 180q-103 103 -210 218q-11 11 -11 25q0 15 11 26q71 77 340 357q-288 299 -330 344q-11 11 -11 25q0 15 11 26q98 106 151 159z" />
    <glyph glyph-name="Oslash" unicode="&#xd8;" 
d="M104 1201q0 291 63 518.5t181.5 379.5t287 235t380.5 94q343 0 562 -84l174 351l216 -102l-189 -359q182 -137 269.5 -389t87.5 -644q0 -291 -64 -518.5t-184.5 -379t-289.5 -234t-382 -93.5q-332 0 -552 81l-176 -352l-216 102l189 358q-182 137 -269.5 389t-87.5 647z
M940 1201q0 -48 2 -124l118 223l178 359q-23 40 -53.5 54.5t-72.5 14.5q-30 0 -50.5 -6t-41.5 -24.5t-34.5 -55t-24.5 -94t-16 -144t-5 -203.5zM1002 737q22 -38 51.5 -51.5t70.5 -13.5q36 0 60 9t48 40t37.5 87.5t22 154.5t8.5 238q0 48 -2 122l-63 -119z" />
    <glyph glyph-name="Ugrave" unicode="&#xd9;" horiz-adv-x="2112" 
d="M108 1185q0 575 16 1215q190 9 350 9q165 0 410 -9q16 0 28 -12t12 -28q16 -752 16 -1296q0 -131 9 -213t31 -124.5t49 -56.5t71 -14q59 0 89 27t46.5 116.5t16.5 265.5q0 695 16 1335q191 9 350 9q165 0 410 -9q16 0 28 -12t12 -28q16 -752 16 -1175q0 -257 -39 -457
t-112 -340.5t-183.5 -233.5t-247.5 -139t-310 -55q-141 0 -254 11.5t-219 38.5t-187 72.5t-151.5 113t-119.5 160t-84.5 213.5t-52 274.5t-16.5 341.5zM475 3100q141 7 292 7q133 0 348 -7q16 0 34 -11.5t27 -28.5q36 -69 98.5 -185t112.5 -210t96 -185q-336 0 -644 16
q-17 1 -34.5 12.5t-26.5 27.5q-218 394 -303 564z" />
    <glyph glyph-name="Uacute" unicode="&#xda;" horiz-adv-x="2112" 
d="M108 1185q0 575 16 1215q190 9 350 9q165 0 410 -9q16 0 28 -12t12 -28q16 -752 16 -1296q0 -131 9 -213t31 -124.5t49 -56.5t71 -14q59 0 89 27t46.5 116.5t16.5 265.5q0 695 16 1335q191 9 350 9q165 0 410 -9q16 0 28 -12t12 -28q16 -752 16 -1175q0 -257 -39 -457
t-112 -340.5t-183.5 -233.5t-247.5 -139t-310 -55q-141 0 -254 11.5t-219 38.5t-187 72.5t-151.5 113t-119.5 160t-84.5 213.5t-52 274.5t-16.5 341.5zM731 2521q0 15 71 125q124 200 309 454q150 7 322 7q160 0 366 -7q20 0 20 -17q0 -19 -81 -119q-55 -69 -195 -226
t-210 -250q-293 0 -582 16q-20 2 -20 17z" />
    <glyph glyph-name="Ucircumflex" unicode="&#xdb;" horiz-adv-x="2112" 
d="M108 1185q0 575 16 1215q190 9 350 9q165 0 410 -9q16 0 28 -12t12 -28q16 -752 16 -1296q0 -131 9 -213t31 -124.5t49 -56.5t71 -14q59 0 89 27t46.5 116.5t16.5 265.5q0 695 16 1335q191 9 350 9q165 0 410 -9q16 0 28 -12t12 -28q16 -752 16 -1175q0 -257 -39 -457
t-112 -340.5t-183.5 -233.5t-247.5 -139t-310 -55q-141 0 -254 11.5t-219 38.5t-187 72.5t-151.5 113t-119.5 160t-84.5 213.5t-52 274.5t-16.5 341.5zM235 2483q68 133 156.5 266.5t214.5 305.5q26 34 61 36q263 13 565 13q178 0 277 -1q147 -165 378 -472q3 -4 15.5 -19.5
t22 -28t20.5 -27.5t17 -26.5t6 -17.5q0 -17 -21 -17q-207 -7 -322 -7q-136 0 -286 7q-51 70 -98 146t-74 126.5t-72 137.5q-110 -221 -199 -382q-9 -17 -27 -28.5t-34 -11.5q-215 -7 -325 -7q-134 0 -275 7z" />
    <glyph glyph-name="Udieresis" unicode="&#xdc;" horiz-adv-x="2112" 
d="M108 1185q0 575 16 1215q190 9 350 9q165 0 410 -9q16 0 28 -12t12 -28q16 -752 16 -1296q0 -131 9 -213t31 -124.5t49 -56.5t71 -14q59 0 89 27t46.5 116.5t16.5 265.5q0 695 16 1335q191 9 350 9q165 0 410 -9q16 0 28 -12t12 -28q16 -752 16 -1175q0 -257 -39 -457
t-112 -340.5t-183.5 -233.5t-247.5 -139t-310 -55q-141 0 -254 11.5t-219 38.5t-187 72.5t-151.5 113t-119.5 160t-84.5 213.5t-52 274.5t-16.5 341.5zM1229 2831q0 113 3 257q119 6 265 6q157 0 311 -6q16 0 28 -12t12 -28q3 -162 3 -288q0 -112 -3 -256q-120 -5 -203 -5
q-139 0 -373 13q-17 1 -28.5 12.5t-11.5 27.5q-3 157 -3 279zM341 2831q0 113 3 257q119 6 273 6q149 0 303 -6q16 0 28 -12t12 -28q3 -162 3 -288q0 -112 -3 -256q-120 -5 -203 -5q-139 0 -373 13q-17 1 -28.5 12.5t-11.5 27.5q-3 158 -3 279z" />
    <glyph glyph-name="Yacute" unicode="&#xdd;" horiz-adv-x="2100" 
d="M32 2386q184 22 419 22q170 0 321 -10q19 -1 37 -12t24 -28q95 -291 256 -872q155 561 257 872q6 17 24 28t37 12q151 10 321 10q235 0 419 -22q-158 -673 -334 -1020q-125 -214 -323 -377q8 -661 10 -989q-190 -9 -358 -9q-173 0 -418 9q-16 0 -28 12t-12 28
q0 299 6 949q-201 166 -325 377q-174 343 -333 1020zM731 2521q0 15 71 125q124 200 309 454q150 7 322 7q160 0 366 -7q20 0 20 -17q0 -19 -81 -119q-55 -69 -195 -226t-210 -250q-293 0 -582 16q-20 2 -20 17z" />
    <glyph glyph-name="Thorn" unicode="&#xde;" horiz-adv-x="2040" 
d="M984 1200q0 -26 0.5 -76t0.5 -76h38q37 0 63.5 4t55 17.5t46 36.5t29 64.5t11.5 98.5t-2 91t-9 63t-17.5 43t-32 24.5t-48 13t-68.5 2.5q-9 0 -30.5 -0.5t-34.5 -0.5q-2 -202 -2 -305zM184 1200q0 560 16 1200q190 9 350 9q165 0 410 -9q17 0 28.5 -11.5t11.5 -28.5
q0 -72 -2 -172q105 -1 188 -5t170 -13.5t154.5 -27t135 -44t118 -64t97 -88t78 -116t55.5 -147t35 -182t11 -220.5q0 -150 -24 -272t-68.5 -213.5t-113.5 -160.5t-153 -114.5t-194 -74t-228 -41t-264 -13.5q4 -263 5 -392q-190 -9 -350 -9q-165 0 -410 9q-16 0 -28 12
t-12 28q-16 752 -16 1160z" />
    <glyph glyph-name="germandbls" unicode="&#xdf;" horiz-adv-x="2284" 
d="M152 1220q0 165 15 304.5t43 251t72 201.5t97.5 158t124 118.5t147 83.5t171 53.5t192 29t214.5 8.5q466 0 872 -72q-79 -358 -245 -981q445 -222 445 -666q0 -166 -43 -294t-116.5 -210.5t-181 -134.5t-227 -73.5t-264.5 -21.5q-167 0 -372 29l86 638q146 -34 201 -34
q47 0 76 25.5t29 67.5q0 31 -28 58t-82.5 48t-102 34.5t-119.5 30.5q51 464 120 876h-99q-38 0 -65 -9t-55.5 -40.5t-45.5 -87t-28 -154.5t-11 -237q0 -420 -20 -1220q-190 -9 -342 -9q-157 0 -402 9q-16 0 -28 12t-12 28q-16 752 -16 1180z" />
    <glyph glyph-name="agrave" unicode="&#xe0;" horiz-adv-x="2080" 
d="M39 33q0 16 19 125q53 329 121 681.5t176 875t141 685.5q200 9 550 9q326 0 570 -9q16 0 30 -11.5t17 -28.5q44 -223 149.5 -729t180 -894.5t127.5 -736.5q-189 -9 -348 -9q-255 0 -392 9q-17 1 -30.5 12.5t-16.5 27.5q-45 230 -73 400h-371q-32 -214 -77 -440
q-192 -9 -331 -9q-166 0 -409 9q-15 0 -24 9.5t-9 23.5zM956 960h225q-24 164 -65 467.5t-59 429.5q-20 -163 -53 -467.5t-48 -429.5zM459 3100q141 7 292 7q133 0 348 -7q16 0 34 -11.5t27 -28.5q36 -69 98.5 -185t112.5 -210t96 -185q-336 0 -644 16q-17 1 -34.5 12.5
t-26.5 27.5q-218 394 -303 564z" />
    <glyph glyph-name="aacute" unicode="&#xe1;" horiz-adv-x="2080" 
d="M39 33q0 16 19 125q53 329 121 681.5t176 875t141 685.5q200 9 550 9q326 0 570 -9q16 0 30 -11.5t17 -28.5q44 -223 149.5 -729t180 -894.5t127.5 -736.5q-189 -9 -348 -9q-255 0 -392 9q-17 1 -30.5 12.5t-16.5 27.5q-45 230 -73 400h-371q-32 -214 -77 -440
q-192 -9 -331 -9q-166 0 -409 9q-15 0 -24 9.5t-9 23.5zM956 960h225q-24 164 -65 467.5t-59 429.5q-20 -163 -53 -467.5t-48 -429.5zM715 2521q0 15 71 125q124 200 309 454q150 7 322 7q160 0 366 -7q20 0 20 -17q0 -19 -81 -119q-55 -69 -195 -226t-210 -250
q-293 0 -582 16q-20 2 -20 17z" />
    <glyph glyph-name="acircumflex" unicode="&#xe2;" horiz-adv-x="2080" 
d="M39 33q0 16 19 125q53 329 121 681.5t176 875t141 685.5q200 9 550 9q326 0 570 -9q16 0 30 -11.5t17 -28.5q44 -223 149.5 -729t180 -894.5t127.5 -736.5q-189 -9 -348 -9q-255 0 -392 9q-17 1 -30.5 12.5t-16.5 27.5q-45 230 -73 400h-371q-32 -214 -77 -440
q-192 -9 -331 -9q-166 0 -409 9q-15 0 -24 9.5t-9 23.5zM956 960h225q-24 164 -65 467.5t-59 429.5q-20 -163 -53 -467.5t-48 -429.5zM219 2483q68 133 156.5 266.5t214.5 305.5q26 34 61 36q263 13 565 13q178 0 277 -1q147 -165 378 -472q3 -4 15.5 -19.5t22 -28
t20.5 -27.5t17 -26.5t6 -17.5q0 -17 -21 -17q-207 -7 -322 -7q-136 0 -286 7q-51 70 -98 146t-74 126.5t-72 137.5q-110 -221 -199 -382q-9 -17 -27 -28.5t-34 -11.5q-215 -7 -325 -7q-134 0 -275 7z" />
    <glyph glyph-name="atilde" unicode="&#xe3;" horiz-adv-x="2080" 
d="M39 33q0 16 19 125q53 329 121 681.5t176 875t141 685.5q200 9 550 9q326 0 570 -9q16 0 30 -11.5t17 -28.5q44 -223 149.5 -729t180 -894.5t127.5 -736.5q-189 -9 -348 -9q-255 0 -392 9q-17 1 -30.5 12.5t-16.5 27.5q-45 230 -73 400h-371q-32 -214 -77 -440
q-192 -9 -331 -9q-166 0 -409 9q-15 0 -24 9.5t-9 23.5zM956 960h225q-24 164 -65 467.5t-59 429.5q-20 -163 -53 -467.5t-48 -429.5zM288 2915q0 24 20 35q160 100 265 139.5t199 42.5q92 0 255.5 -52t248.5 -52q135 0 363 117q91 -149 170 -292q6 -12 27.5 -49.5t30.5 -56
t9 -26.5q0 -23 -20 -36q-288 -197 -488 -197q-86 0 -233 44t-231 44q-145 0 -363 -113q-72 117 -163 280q-9 17 -24 43t-25 43.5t-20.5 36.5t-15.5 31.5t-5 17.5z" />
    <glyph glyph-name="adieresis" unicode="&#xe4;" horiz-adv-x="2080" 
d="M39 40q54 346 122.5 707.5t187.5 938t147 714.5q200 9 550 9q326 0 570 -9q16 0 30 -11.5t17 -28.5q44 -223 149.5 -729t180 -894.5t127.5 -736.5q-189 -9 -348 -9q-255 0 -392 9q-17 1 -30.5 12.5t-16.5 27.5q-45 230 -73 400h-371q-32 -214 -77 -440q-192 -9 -331 -9
q-166 0 -409 9q-17 0 -26.5 12t-6.5 28zM956 960h225q-24 164 -65 467.5t-59 429.5q-20 -163 -53 -467.5t-48 -429.5zM1213 2831q0 113 3 257q119 6 265 6q157 0 311 -6q16 0 28 -12t12 -28q3 -162 3 -288q0 -112 -3 -256q-120 -5 -203 -5q-139 0 -373 13q-17 1 -28.5 12.5
t-11.5 27.5q-3 157 -3 279zM325 2831q0 113 3 257q119 6 273 6q149 0 303 -6q16 0 28 -12t12 -28q3 -162 3 -288q0 -112 -3 -256q-120 -5 -203 -5q-139 0 -373 13q-17 1 -28.5 12.5t-11.5 27.5q-3 158 -3 279z" />
    <glyph glyph-name="aring" unicode="&#xe5;" horiz-adv-x="2080" 
d="M39 33q0 16 19 125q53 329 121 681.5t176 875t141 685.5q172 7 422 9q-132 33 -191.5 117.5t-59.5 230.5q0 164 101 263.5t271 107.5q247 0 350.5 -88.5t103.5 -282.5q0 -132 -64.5 -222.5t-180.5 -126.5q160 -1 368 -8q16 0 30 -11.5t17 -28.5q44 -223 149.5 -729
t180 -894.5t127.5 -736.5q-189 -9 -348 -9q-255 0 -392 9q-17 1 -30.5 12.5t-16.5 27.5q-45 230 -73 400h-371q-32 -214 -77 -440q-192 -9 -331 -9q-166 0 -409 9q-15 0 -24 9.5t-9 23.5zM1000 2757q0 -53 18 -71.5t62 -18.5q42 0 61 18t19 72t-21 71.5t-68 17.5
q-35 0 -53 -18.5t-18 -70.5zM956 960h225q-24 164 -65 467.5t-59 429.5q-20 -163 -53 -467.5t-48 -429.5z" />
    <glyph glyph-name="ae" unicode="&#xe6;" horiz-adv-x="2896" 
d="M39 33q0 16 19 125q53 329 121 681.5t176 875t141 685.5q445 13 1162 13q636 0 1150 -13q17 -1 28.5 -12.5t11.5 -27.5q4 -244 4 -346q0 -157 -4 -294q-169 -8 -636 -8q-79 0 -152 1q-2 -104 -3 -210q358 -2 479 -7q16 0 28 -12t12 -28q3 -164 3 -301q0 -123 -3 -267
h-519q1 -70 3 -208h48q490 0 708 -8q16 0 28 -12t12 -28q4 -244 4 -346q0 -157 -4 -294q-190 -9 -686 -9q-99 0 -421.5 6.5t-428.5 10.5q-16 0 -28 12t-12 28q-10 453 -14 832h-320q-61 -512 -134 -872q-192 -9 -331 -9q-166 0 -409 9q-15 0 -24 9.5t-9 23.5zM1012 1460h253
q1 44 1 143.5t1 142.5q-40 0 -81.5 1t-83.5 2t-60 1q-18 -114 -30 -290z" />
    <glyph glyph-name="ccedilla" unicode="&#xe7;" horiz-adv-x="1660" 
d="M104 1201q0 278 50.5 488.5t141.5 350t229.5 227t303.5 124.5t375 37q112 0 211.5 -16.5t244.5 -51.5l-86 -627l-369 25q-47 3 -84 -8t-72 -47t-58 -97.5t-37 -163.5t-14 -241q0 -140 12.5 -241.5t34 -164t56 -97.5t72.5 -46.5t90 -7.5l369 24l82 -632q-231 -43 -442 -44
q323 -133 323 -399q0 -177 -163.5 -285t-473.5 -108q-59 0 -102 3t-64.5 6.5t-67 12t-78.5 14.5l52 400l95 -13q102 -13 147.5 31.5t6 97.5t-142.5 60l27 221q-163 38 -282.5 116.5t-208.5 214.5t-133.5 345t-44.5 492z" />
    <glyph glyph-name="egrave" unicode="&#xe8;" horiz-adv-x="1816" 
d="M184 1200q0 560 16 1200q190 9 830 9q453 0 698 -9q16 0 28 -12t12 -28q4 -244 4 -346q0 -157 -4 -294q-169 -8 -636 -8q-84 0 -152 1q-2 -138 -3 -210q358 -2 479 -7q16 0 28 -12t12 -28q3 -164 3 -301q0 -123 -3 -267h-519q1 -70 3 -208h48q490 0 708 -8q16 0 28 -12
t12 -28q4 -244 4 -346q0 -157 -4 -294q-190 -9 -686 -9q-99 0 -421.5 6.5t-428.5 10.5q-16 0 -28 12t-12 28q-16 752 -16 1160zM351 3100q141 7 292 7q133 0 348 -7q16 0 34 -11.5t27 -28.5q36 -69 98.5 -185t112.5 -210t96 -185q-336 0 -644 16q-17 1 -34.5 12.5
t-26.5 27.5q-218 394 -303 564z" />
    <glyph glyph-name="eacute" unicode="&#xe9;" horiz-adv-x="1816" 
d="M184 1200q0 560 16 1200q190 9 830 9q453 0 698 -9q16 0 28 -12t12 -28q4 -244 4 -346q0 -157 -4 -294q-169 -8 -636 -8q-84 0 -152 1q-2 -138 -3 -210q358 -2 479 -7q16 0 28 -12t12 -28q3 -164 3 -301q0 -123 -3 -267h-519q1 -70 3 -208h48q490 0 708 -8q16 0 28 -12
t12 -28q4 -244 4 -346q0 -157 -4 -294q-190 -9 -686 -9q-99 0 -421.5 6.5t-428.5 10.5q-16 0 -28 12t-12 28q-16 752 -16 1160zM607 2521q0 15 71 125q124 200 309 454q150 7 322 7q160 0 366 -7q20 0 20 -17q0 -19 -81 -119q-55 -69 -195 -226t-210 -250q-293 0 -582 16
q-20 2 -20 17z" />
    <glyph glyph-name="ecircumflex" unicode="&#xea;" horiz-adv-x="1816" 
d="M184 1200q0 560 16 1200q190 9 830 9q453 0 698 -9q16 0 28 -12t12 -28q4 -244 4 -346q0 -157 -4 -294q-169 -8 -636 -8q-84 0 -152 1q-2 -138 -3 -210q358 -2 479 -7q16 0 28 -12t12 -28q3 -164 3 -301q0 -123 -3 -267h-519q1 -70 3 -208h48q490 0 708 -8q16 0 28 -12
t12 -28q4 -244 4 -346q0 -157 -4 -294q-190 -9 -686 -9q-99 0 -421.5 6.5t-428.5 10.5q-16 0 -28 12t-12 28q-16 752 -16 1160zM111 2483q68 133 156.5 266.5t214.5 305.5q26 34 61 36q263 13 565 13q178 0 277 -1q147 -165 378 -472q3 -4 15.5 -19.5t22 -28t20.5 -27.5
t17 -26.5t6 -17.5q0 -17 -21 -17q-207 -7 -322 -7q-136 0 -286 7q-51 70 -98 146t-74 126.5t-72 137.5q-110 -221 -199 -382q-9 -17 -27 -28.5t-34 -11.5q-215 -7 -325 -7q-134 0 -275 7z" />
    <glyph glyph-name="edieresis" unicode="&#xeb;" horiz-adv-x="1816" 
d="M184 1200q0 560 16 1200q190 9 830 9q453 0 698 -9q16 0 28 -12t12 -28q4 -244 4 -346q0 -157 -4 -294q-169 -8 -636 -8q-84 0 -152 1q-2 -138 -3 -210q358 -2 479 -7q16 0 28 -12t12 -28q3 -164 3 -301q0 -123 -3 -267h-519q1 -70 3 -208h48q490 0 708 -8q16 0 28 -12
t12 -28q4 -244 4 -346q0 -157 -4 -294q-190 -9 -686 -9q-99 0 -421.5 6.5t-428.5 10.5q-16 0 -28 12t-12 28q-16 752 -16 1160zM1105 2831q0 113 3 257q119 6 265 6q157 0 311 -6q16 0 28 -12t12 -28q3 -162 3 -288q0 -112 -3 -256q-120 -5 -203 -5q-139 0 -373 13
q-17 1 -28.5 12.5t-11.5 27.5q-3 158 -3 279zM217 2831q0 113 3 257q119 6 273 6q149 0 303 -6q16 0 28 -12t12 -28q3 -162 3 -288q0 -112 -3 -256q-120 -5 -203 -5q-139 0 -373 13q-17 1 -28.5 12.5t-11.5 27.5q-3 157 -3 279z" />
    <glyph glyph-name="igrave" unicode="&#xec;" horiz-adv-x="1120" 
d="M184 1200q0 560 16 1200q190 9 350 9q165 0 410 -9q16 0 28 -12t12 -28q16 -752 16 -1160q0 -560 -16 -1200q-190 -9 -350 -9q-165 0 -410 9q-16 0 -28 12t-12 28q-16 752 -16 1160zM-41 3100q141 7 292 7q133 0 348 -7q16 0 34 -11.5t27 -28.5q36 -69 98.5 -185
t112.5 -210t96 -185q-336 0 -644 16q-17 1 -34.5 12.5t-26.5 27.5q-218 394 -303 564z" />
    <glyph glyph-name="iacute" unicode="&#xed;" horiz-adv-x="1120" 
d="M184 1200q0 560 16 1200q190 9 350 9q165 0 410 -9q16 0 28 -12t12 -28q16 -752 16 -1160q0 -560 -16 -1200q-190 -9 -350 -9q-165 0 -410 9q-16 0 -28 12t-12 28q-16 752 -16 1160zM215 2521q0 15 71 125q124 200 309 454q150 7 322 7q160 0 366 -7q20 0 20 -17
q0 -19 -81 -119q-55 -69 -195 -226t-210 -250q-293 0 -582 16q-20 2 -20 17z" />
    <glyph glyph-name="icircumflex" unicode="&#xee;" horiz-adv-x="1120" 
d="M184 1200q0 560 16 1200q190 9 350 9q165 0 410 -9q16 0 28 -12t12 -28q16 -752 16 -1160q0 -560 -16 -1200q-190 -9 -350 -9q-165 0 -410 9q-16 0 -28 12t-12 28q-16 752 -16 1160zM-281 2483q68 133 156.5 266.5t214.5 305.5q26 34 61 36q263 13 565 13q178 0 277 -1
q147 -165 378 -472q3 -4 15.5 -19.5t22 -28t20.5 -27.5t17 -26.5t6 -17.5q0 -17 -21 -17q-207 -7 -322 -7q-136 0 -286 7q-51 70 -98 146t-74 126.5t-72 137.5q-110 -221 -199 -382q-9 -17 -27 -28.5t-34 -11.5q-215 -7 -325 -7q-134 0 -275 7z" />
    <glyph glyph-name="idieresis" unicode="&#xef;" horiz-adv-x="1120" 
d="M184 1200q0 560 16 1200q190 9 350 9q165 0 410 -9q16 0 28 -12t12 -28q16 -752 16 -1160q0 -560 -16 -1200q-190 -9 -350 -9q-165 0 -410 9q-16 0 -28 12t-12 28q-16 752 -16 1160zM713 2831q0 113 3 257q119 6 265 6q157 0 311 -6q16 0 28 -12t12 -28q3 -162 3 -288
q0 -112 -3 -256q-120 -5 -203 -5q-139 0 -373 13q-17 1 -28.5 12.5t-11.5 27.5q-3 158 -3 279zM-175 2831q0 113 3 257q119 6 273 6q149 0 303 -6q16 0 28 -12t12 -28q3 -162 3 -288q0 -112 -3 -256q-120 -5 -203 -5q-139 0 -373 13q-17 1 -28.5 12.5t-11.5 27.5
q-3 157 -3 279z" />
    <glyph glyph-name="eth" unicode="&#xf0;" 
d="M44 1205q0 118 4 291q76 4 145 5q0 69 3.5 377t3.5 482q198 30 432 49t404 19q209 0 369 -37t290 -124t213 -227.5t127.5 -349.5t44.5 -489q0 -213 -22.5 -382t-64.5 -295t-109.5 -218.5t-149 -152.5t-192 -96t-229 -50.5t-269.5 -14.5q-252 0 -804 48q-16 0 -28 12
t-12 28q0 119 -1 249.5t-2.5 288.5t-2.5 249q-64 4 -106 5q-16 0 -27.5 11.5t-12.5 28.5q-4 208 -4 293zM987 1499q74 -2 117 -3q16 0 27.5 -11.5t12.5 -28.5q4 -123 4 -340q0 -78 -4 -252q-75 -3 -157 -4q1 -33 2.5 -95.5t1.5 -92.5h108q31 0 53.5 6.5t47 24.5t41.5 55
t31 93.5t21 145t7 204.5q0 138 -11 237t-28 155t-44.5 87.5t-54 40.5t-63.5 9h-107q-4 -148 -5 -231z" />
    <glyph glyph-name="ntilde" unicode="&#xf1;" horiz-adv-x="2200" 
d="M184 1200q0 560 16 1200q190 9 330 9q119 0 346 -9q29 -1 44 -40l414 -1024l-14 1064q191 9 350 9q156 0 370 -9q17 -1 28.5 -12.5t11.5 -27.5q16 -752 16 -1160q0 -560 -16 -1200q-166 -9 -310 -9q-171 0 -366 9q-30 1 -44 40l-414 1024l14 -1064q-190 -9 -330 -9
q-158 0 -390 9q-17 1 -28.5 12.5t-11.5 27.5q-16 752 -16 1160zM360 2915q0 24 20 35q160 100 265 139.5t199 42.5q92 0 255.5 -52t248.5 -52q135 0 363 117q91 -149 170 -292q6 -12 27.5 -49.5t30.5 -56t9 -26.5q0 -23 -20 -36q-288 -197 -488 -197q-86 0 -233 44t-231 44
q-145 0 -363 -113q-72 117 -163 280q-9 17 -24 43t-25 43.5t-20.5 36.5t-15.5 31.5t-5 17.5z" />
    <glyph glyph-name="ograve" unicode="&#xf2;" 
d="M104 1201q0 291 63 518.5t181.5 379.5t287 235t380.5 94q195 0 348 -26.5t280.5 -86t217.5 -154.5t152.5 -231t92 -317t29.5 -412q0 -291 -64 -518.5t-184.5 -379t-289.5 -234t-382 -93.5q-194 0 -346.5 26.5t-279 85.5t-216 153.5t-151 230.5t-90.5 316.5t-29 412.5z
M940 1201q0 -140 9.5 -238t24 -154.5t39.5 -87.5t50 -40t61 -9t60 9t48 40t37.5 87.5t22 154.5t8.5 238q0 116 -6 203.5t-19 144.5t-28 93.5t-38.5 54.5t-45 24.5t-51.5 6.5t-50.5 -6t-41.5 -24.5t-34.5 -55t-24.5 -94t-16 -144t-5 -203.5zM515 3100q141 7 292 7
q133 0 348 -7q16 0 34 -11.5t27 -28.5q36 -69 98.5 -185t112.5 -210t96 -185q-336 0 -644 16q-17 1 -34.5 12.5t-26.5 27.5q-218 394 -303 564z" />
    <glyph glyph-name="oacute" unicode="&#xf3;" 
d="M104 1201q0 291 63 518.5t181.5 379.5t287 235t380.5 94q195 0 348 -26.5t280.5 -86t217.5 -154.5t152.5 -231t92 -317t29.5 -412q0 -291 -64 -518.5t-184.5 -379t-289.5 -234t-382 -93.5q-194 0 -346.5 26.5t-279 85.5t-216 153.5t-151 230.5t-90.5 316.5t-29 412.5z
M940 1201q0 -140 9.5 -238t24 -154.5t39.5 -87.5t50 -40t61 -9t60 9t48 40t37.5 87.5t22 154.5t8.5 238q0 116 -6 203.5t-19 144.5t-28 93.5t-38.5 54.5t-45 24.5t-51.5 6.5t-50.5 -6t-41.5 -24.5t-34.5 -55t-24.5 -94t-16 -144t-5 -203.5zM771 2521q0 15 71 125
q124 200 309 454q150 7 322 7q160 0 366 -7q20 0 20 -17q0 -19 -81 -119q-55 -69 -195 -226t-210 -250q-293 0 -582 16q-20 2 -20 17z" />
    <glyph glyph-name="ocircumflex" unicode="&#xf4;" 
d="M104 1201q0 291 63 518.5t181.5 379.5t287 235t380.5 94q195 0 348 -26.5t280.5 -86t217.5 -154.5t152.5 -231t92 -317t29.5 -412q0 -291 -64 -518.5t-184.5 -379t-289.5 -234t-382 -93.5q-194 0 -346.5 26.5t-279 85.5t-216 153.5t-151 230.5t-90.5 316.5t-29 412.5z
M940 1201q0 -140 9.5 -238t24 -154.5t39.5 -87.5t50 -40t61 -9t60 9t48 40t37.5 87.5t22 154.5t8.5 238q0 116 -6 203.5t-19 144.5t-28 93.5t-38.5 54.5t-45 24.5t-51.5 6.5t-50.5 -6t-41.5 -24.5t-34.5 -55t-24.5 -94t-16 -144t-5 -203.5zM275 2483q68 133 156.5 266.5
t214.5 305.5q26 34 61 36q263 13 565 13q178 0 277 -1q147 -165 378 -472q3 -4 15.5 -19.5t22 -28t20.5 -27.5t17 -26.5t6 -17.5q0 -17 -21 -17q-207 -7 -322 -7q-136 0 -286 7q-51 70 -98 146t-74 126.5t-72 137.5q-110 -221 -199 -382q-9 -17 -27 -28.5t-34 -11.5
q-215 -7 -325 -7q-134 0 -275 7z" />
    <glyph glyph-name="otilde" unicode="&#xf5;" 
d="M104 1201q0 291 63 518.5t181.5 379.5t287 235t380.5 94q195 0 348 -26.5t280.5 -86t217.5 -154.5t152.5 -231t92 -317t29.5 -412q0 -291 -64 -518.5t-184.5 -379t-289.5 -234t-382 -93.5q-194 0 -346.5 26.5t-279 85.5t-216 153.5t-151 230.5t-90.5 316.5t-29 412.5z
M940 1201q0 -140 9.5 -238t24 -154.5t39.5 -87.5t50 -40t61 -9t60 9t48 40t37.5 87.5t22 154.5t8.5 238q0 116 -6 203.5t-19 144.5t-28 93.5t-38.5 54.5t-45 24.5t-51.5 6.5t-50.5 -6t-41.5 -24.5t-34.5 -55t-24.5 -94t-16 -144t-5 -203.5zM344 2915q0 24 20 35
q160 100 265 139.5t199 42.5q92 0 255.5 -52t248.5 -52q135 0 363 117q91 -149 170 -292q6 -12 27.5 -49.5t30.5 -56t9 -26.5q0 -23 -20 -36q-288 -197 -488 -197q-86 0 -233 44t-231 44q-145 0 -363 -113q-72 117 -163 280q-9 17 -24 43t-25 43.5t-20.5 36.5t-15.5 31.5
t-5 17.5z" />
    <glyph glyph-name="odieresis" unicode="&#xf6;" 
d="M104 1201q0 291 63 518.5t181.5 379.5t287 235t380.5 94q195 0 348 -26.5t280.5 -86t217.5 -154.5t152.5 -231t92 -317t29.5 -412q0 -291 -64 -518.5t-184.5 -379t-289.5 -234t-382 -93.5q-194 0 -346.5 26.5t-279 85.5t-216 153.5t-151 230.5t-90.5 316.5t-29 412.5z
M940 1201q0 -140 9.5 -238t24 -154.5t39.5 -87.5t50 -40t61 -9t60 9t48 40t37.5 87.5t22 154.5t8.5 238q0 116 -6 203.5t-19 144.5t-28 93.5t-38.5 54.5t-45 24.5t-51.5 6.5t-50.5 -6t-41.5 -24.5t-34.5 -55t-24.5 -94t-16 -144t-5 -203.5zM1269 2831q0 113 3 257
q119 6 265 6q157 0 311 -6q16 0 28 -12t12 -28q3 -162 3 -288q0 -112 -3 -256q-120 -5 -203 -5q-139 0 -373 13q-17 1 -28.5 12.5t-11.5 27.5q-3 157 -3 279zM381 2831q0 113 3 257q119 6 273 6q149 0 303 -6q16 0 28 -12t12 -28q3 -162 3 -288q0 -112 -3 -256
q-120 -5 -203 -5q-139 0 -373 13q-17 1 -28.5 12.5t-11.5 27.5q-3 158 -3 279z" />
    <glyph glyph-name="divide" unicode="&#xf7;" horiz-adv-x="1992" 
d="M116 1205q0 118 4 291q191 9 998 9q549 0 794 -9q16 0 27.5 -11.5t12.5 -28.5q4 -123 4 -340q0 -78 -4 -252q-58 -3 -412 -6t-482 -3q-101 0 -448 6.5t-450 10.5q-16 0 -27.5 11.5t-12.5 28.5q-4 208 -4 293zM689 401q0 131 3 275q146 7 296 7q132 0 344 -7q16 0 28 -12
t12 -28q3 -162 3 -307q0 -129 -3 -273q-90 -5 -217 -5q-184 0 -423 13q-17 1 -28.5 12.5t-11.5 27.5q-3 158 -3 297zM689 2017q0 131 3 275q146 7 296 7q132 0 344 -7q16 0 28 -12t12 -28q3 -162 3 -307q0 -129 -3 -273q-90 -5 -217 -5q-184 0 -423 13q-17 1 -28.5 12.5
t-11.5 27.5q-3 157 -3 297z" />
    <glyph glyph-name="oslash" unicode="&#xf8;" 
d="M104 1201q0 291 63 518.5t181.5 379.5t287 235t380.5 94q343 0 562 -84l174 351l216 -102l-189 -359q182 -137 269.5 -389t87.5 -644q0 -291 -64 -518.5t-184.5 -379t-289.5 -234t-382 -93.5q-332 0 -552 81l-176 -352l-216 102l189 358q-182 137 -269.5 389t-87.5 647z
M940 1201q0 -48 2 -124l118 223l178 359q-23 40 -53.5 54.5t-72.5 14.5q-30 0 -50.5 -6t-41.5 -24.5t-34.5 -55t-24.5 -94t-16 -144t-5 -203.5zM1002 737q22 -38 51.5 -51.5t70.5 -13.5q36 0 60 9t48 40t37.5 87.5t22 154.5t8.5 238q0 48 -2 122l-63 -119z" />
    <glyph glyph-name="ugrave" unicode="&#xf9;" horiz-adv-x="2112" 
d="M108 1185q0 575 16 1215q190 9 350 9q165 0 410 -9q16 0 28 -12t12 -28q16 -752 16 -1296q0 -131 9 -213t31 -124.5t49 -56.5t71 -14q59 0 89 27t46.5 116.5t16.5 265.5q0 695 16 1335q191 9 350 9q165 0 410 -9q16 0 28 -12t12 -28q16 -752 16 -1175q0 -257 -39 -457
t-112 -340.5t-183.5 -233.5t-247.5 -139t-310 -55q-141 0 -254 11.5t-219 38.5t-187 72.5t-151.5 113t-119.5 160t-84.5 213.5t-52 274.5t-16.5 341.5zM475 3100q141 7 292 7q133 0 348 -7q16 0 34 -11.5t27 -28.5q36 -69 98.5 -185t112.5 -210t96 -185q-336 0 -644 16
q-17 1 -34.5 12.5t-26.5 27.5q-218 394 -303 564z" />
    <glyph glyph-name="uacute" unicode="&#xfa;" horiz-adv-x="2112" 
d="M108 1185q0 575 16 1215q190 9 350 9q165 0 410 -9q16 0 28 -12t12 -28q16 -752 16 -1296q0 -131 9 -213t31 -124.5t49 -56.5t71 -14q59 0 89 27t46.5 116.5t16.5 265.5q0 695 16 1335q191 9 350 9q165 0 410 -9q16 0 28 -12t12 -28q16 -752 16 -1175q0 -257 -39 -457
t-112 -340.5t-183.5 -233.5t-247.5 -139t-310 -55q-141 0 -254 11.5t-219 38.5t-187 72.5t-151.5 113t-119.5 160t-84.5 213.5t-52 274.5t-16.5 341.5zM731 2521q0 15 71 125q124 200 309 454q150 7 322 7q160 0 366 -7q20 0 20 -17q0 -19 -81 -119q-55 -69 -195 -226
t-210 -250q-293 0 -582 16q-20 2 -20 17z" />
    <glyph glyph-name="ucircumflex" unicode="&#xfb;" horiz-adv-x="2112" 
d="M108 1185q0 575 16 1215q190 9 350 9q165 0 410 -9q16 0 28 -12t12 -28q16 -752 16 -1296q0 -131 9 -213t31 -124.5t49 -56.5t71 -14q59 0 89 27t46.5 116.5t16.5 265.5q0 695 16 1335q191 9 350 9q165 0 410 -9q16 0 28 -12t12 -28q16 -752 16 -1175q0 -257 -39 -457
t-112 -340.5t-183.5 -233.5t-247.5 -139t-310 -55q-141 0 -254 11.5t-219 38.5t-187 72.5t-151.5 113t-119.5 160t-84.5 213.5t-52 274.5t-16.5 341.5zM235 2483q68 133 156.5 266.5t214.5 305.5q26 34 61 36q263 13 565 13q178 0 277 -1q147 -165 378 -472q3 -4 15.5 -19.5
t22 -28t20.5 -27.5t17 -26.5t6 -17.5q0 -17 -21 -17q-207 -7 -322 -7q-136 0 -286 7q-51 70 -98 146t-74 126.5t-72 137.5q-110 -221 -199 -382q-9 -17 -27 -28.5t-34 -11.5q-215 -7 -325 -7q-134 0 -275 7z" />
    <glyph glyph-name="udieresis" unicode="&#xfc;" horiz-adv-x="2112" 
d="M108 1185q0 575 16 1215q190 9 350 9q165 0 410 -9q16 0 28 -12t12 -28q16 -752 16 -1296q0 -131 9 -213t31 -124.5t49 -56.5t71 -14q59 0 89 27t46.5 116.5t16.5 265.5q0 695 16 1335q191 9 350 9q165 0 410 -9q16 0 28 -12t12 -28q16 -752 16 -1175q0 -257 -39 -457
t-112 -340.5t-183.5 -233.5t-247.5 -139t-310 -55q-141 0 -254 11.5t-219 38.5t-187 72.5t-151.5 113t-119.5 160t-84.5 213.5t-52 274.5t-16.5 341.5zM1229 2831q0 113 3 257q119 6 265 6q157 0 311 -6q16 0 28 -12t12 -28q3 -162 3 -288q0 -112 -3 -256q-120 -5 -203 -5
q-139 0 -373 13q-17 1 -28.5 12.5t-11.5 27.5q-3 157 -3 279zM341 2831q0 113 3 257q119 6 273 6q149 0 303 -6q16 0 28 -12t12 -28q3 -162 3 -288q0 -112 -3 -256q-120 -5 -203 -5q-139 0 -373 13q-17 1 -28.5 12.5t-11.5 27.5q-3 158 -3 279z" />
    <glyph glyph-name="yacute" unicode="&#xfd;" horiz-adv-x="2100" 
d="M32 2386q184 22 419 22q170 0 321 -10q19 -1 37 -12t24 -28q95 -291 256 -872q155 561 257 872q6 17 24 28t37 12q151 10 321 10q235 0 419 -22q-158 -673 -334 -1020q-125 -214 -323 -377q8 -661 10 -989q-190 -9 -358 -9q-173 0 -418 9q-16 0 -28 12t-12 28
q0 299 6 949q-201 166 -325 377q-174 343 -333 1020zM731 2521q0 15 71 125q124 200 309 454q150 7 322 7q160 0 366 -7q20 0 20 -17q0 -19 -81 -119q-55 -69 -195 -226t-210 -250q-293 0 -582 16q-20 2 -20 17z" />
    <glyph glyph-name="thorn" unicode="&#xfe;" horiz-adv-x="2040" 
d="M984 1200q0 -26 0.5 -76t0.5 -76h38q37 0 63.5 4t55 17.5t46 36.5t29 64.5t11.5 98.5t-2 91t-9 63t-17.5 43t-32 24.5t-48 13t-68.5 2.5q-9 0 -30.5 -0.5t-34.5 -0.5q-2 -202 -2 -305zM184 1200q0 560 16 1200q190 9 350 9q165 0 410 -9q17 0 28.5 -11.5t11.5 -28.5
q0 -72 -2 -172q105 -1 188 -5t170 -13.5t154.5 -27t135 -44t118 -64t97 -88t78 -116t55.5 -147t35 -182t11 -220.5q0 -150 -24 -272t-68.5 -213.5t-113.5 -160.5t-153 -114.5t-194 -74t-228 -41t-264 -13.5q4 -263 5 -392q-190 -9 -350 -9q-165 0 -410 9q-16 0 -28 12
t-12 28q-16 752 -16 1160z" />
    <glyph glyph-name="ydieresis" unicode="&#xff;" horiz-adv-x="2100" 
d="M1221 2831q0 113 3 257q119 6 265 6q157 0 311 -6q16 0 28 -12t12 -28q3 -162 3 -288q0 -112 -3 -256q-120 -5 -203 -5q-139 0 -373 13q-17 1 -28.5 12.5t-11.5 27.5q-3 158 -3 279zM333 2831q0 113 3 257q119 6 273 6q149 0 303 -6q16 0 28 -12t12 -28q3 -162 3 -288
q0 -112 -3 -256q-120 -5 -203 -5q-139 0 -373 13q-17 1 -28.5 12.5t-11.5 27.5q-3 157 -3 279zM32 2386q184 22 419 22q170 0 321 -10q19 -1 37 -12t24 -28q95 -291 256 -872q155 561 257 872q6 17 24 28t37 12q151 10 321 10q235 0 419 -22q-158 -673 -334 -1020
q-125 -214 -323 -377q8 -661 10 -989q-190 -9 -358 -9q-173 0 -418 9q-16 0 -28 12t-12 28q0 299 6 949q-201 166 -325 377q-174 343 -333 1020z" />
    <glyph glyph-name="Amacron" unicode="&#x100;" horiz-adv-x="2080" 
d="M39 33q0 16 19 125q53 329 121 681.5t176 875t141 685.5q200 9 550 9q326 0 570 -9q16 0 30 -11.5t17 -28.5q44 -223 149.5 -729t180 -894.5t127.5 -736.5q-189 -9 -348 -9q-255 0 -392 9q-17 1 -30.5 12.5t-16.5 27.5q-45 230 -73 400h-371q-32 -214 -77 -440
q-192 -9 -331 -9q-166 0 -409 9q-15 0 -24 9.5t-9 23.5zM956 960h225q-24 164 -65 467.5t-59 429.5q-20 -163 -53 -467.5t-48 -429.5zM480 2825q0 115 4 259q191 9 710 9q205 0 450 -9q16 0 27.5 -11.5t12.5 -28.5q2 -90 2 -263q0 -196 -2 -265q-196 -9 -550 -9
q-148 0 -610 17q-16 0 -27.5 11.5t-12.5 28.5q-4 141 -4 261z" />
    <glyph glyph-name="amacron" unicode="&#x101;" horiz-adv-x="2080" 
d="M39 33q0 16 19 125q53 329 121 681.5t176 875t141 685.5q200 9 550 9q326 0 570 -9q16 0 30 -11.5t17 -28.5q44 -223 149.5 -729t180 -894.5t127.5 -736.5q-189 -9 -348 -9q-255 0 -392 9q-17 1 -30.5 12.5t-16.5 27.5q-45 230 -73 400h-371q-32 -214 -77 -440
q-192 -9 -331 -9q-166 0 -409 9q-15 0 -24 9.5t-9 23.5zM956 960h225q-24 164 -65 467.5t-59 429.5q-20 -163 -53 -467.5t-48 -429.5zM480 2825q0 115 4 259q191 9 710 9q205 0 450 -9q16 0 27.5 -11.5t12.5 -28.5q2 -90 2 -263q0 -196 -2 -265q-196 -9 -550 -9
q-148 0 -610 17q-16 0 -27.5 11.5t-12.5 28.5q-4 141 -4 261z" />
    <glyph glyph-name="Abreve" unicode="&#x102;" horiz-adv-x="2080" 
d="M39 33q0 16 19 125q53 329 121 681.5t176 875t141 685.5q200 9 550 9q326 0 570 -9q16 0 30 -11.5t17 -28.5q44 -223 149.5 -729t180 -894.5t127.5 -736.5q-189 -9 -348 -9q-255 0 -392 9q-17 1 -30.5 12.5t-16.5 27.5q-45 230 -73 400h-371q-32 -214 -77 -440
q-192 -9 -331 -9q-166 0 -409 9q-15 0 -24 9.5t-9 23.5zM956 960h225q-24 164 -65 467.5t-59 429.5q-20 -163 -53 -467.5t-48 -429.5zM219 3103q141 7 271 7q106 0 321 -7q17 0 35 -12t26 -28q37 -72 94.5 -109t121.5 -37q73 0 137 45.5t98 128.5q150 7 287 7q114 0 321 -7
q17 0 17 -14q0 -25 -26.5 -89.5t-51.5 -106.5q-113 -192 -328 -299.5t-461 -107.5q-143 0 -278 38.5t-252.5 113.5t-205.5 198t-126 279z" />
    <glyph glyph-name="abreve" unicode="&#x103;" horiz-adv-x="2080" 
d="M39 33q0 16 19 125q53 329 121 681.5t176 875t141 685.5q200 9 550 9q326 0 570 -9q16 0 30 -11.5t17 -28.5q44 -223 149.5 -729t180 -894.5t127.5 -736.5q-189 -9 -348 -9q-255 0 -392 9q-17 1 -30.5 12.5t-16.5 27.5q-45 230 -73 400h-371q-32 -214 -77 -440
q-192 -9 -331 -9q-166 0 -409 9q-15 0 -24 9.5t-9 23.5zM956 960h225q-24 164 -65 467.5t-59 429.5q-20 -163 -53 -467.5t-48 -429.5zM219 3103q141 7 271 7q106 0 321 -7q17 0 35 -12t26 -28q37 -72 94.5 -109t121.5 -37q73 0 137 45.5t98 128.5q150 7 287 7q114 0 321 -7
q17 0 17 -14q0 -25 -26.5 -89.5t-51.5 -106.5q-113 -192 -328 -299.5t-461 -107.5q-143 0 -278 38.5t-252.5 113.5t-205.5 198t-126 279z" />
    <glyph glyph-name="Aogonek" unicode="&#x104;" horiz-adv-x="2080" 
d="M39 33q0 16 19 125q53 329 121 681.5t176 875t141 685.5q205 9 550 9q326 0 570 -9q16 0 30 -11.5t17 -28.5q44 -223 149.5 -729t180 -894.5t127.5 -736.5q-124 -6 -165 -7q-88 -5 -135.5 -39.5t-47.5 -77.5q0 -46 49 -76.5t132 -19.5l195 24l72 -560
q-133 -25 -210.5 -34.5t-181.5 -9.5q-139 0 -259.5 36t-204 97.5t-131 143.5t-47.5 173q0 187 188 351q-15 3 -26.5 13.5t-14.5 25.5q-45 230 -73 400h-371q-32 -214 -77 -440q-192 -9 -331 -9q-166 0 -409 9q-15 0 -24 9.5t-9 23.5zM956 960h225q-24 164 -65 467.5
t-59 429.5q-20 -163 -53 -467.5t-48 -429.5z" />
    <glyph glyph-name="aogonek" unicode="&#x105;" horiz-adv-x="2080" 
d="M39 33q0 16 19 125q53 329 121 681.5t176 875t141 685.5q205 9 550 9q326 0 570 -9q16 0 30 -11.5t17 -28.5q44 -223 149.5 -729t180 -894.5t127.5 -736.5q-124 -6 -165 -7q-88 -5 -135.5 -39.5t-47.5 -77.5q0 -46 49 -76.5t132 -19.5l195 24l72 -560
q-133 -25 -210.5 -34.5t-181.5 -9.5q-139 0 -259.5 36t-204 97.5t-131 143.5t-47.5 173q0 187 188 351q-15 3 -26.5 13.5t-14.5 25.5q-45 230 -73 400h-371q-32 -214 -77 -440q-192 -9 -331 -9q-166 0 -409 9q-15 0 -24 9.5t-9 23.5zM956 960h225q-24 164 -65 467.5
t-59 429.5q-20 -163 -53 -467.5t-48 -429.5z" />
    <glyph glyph-name="Cacute" unicode="&#x106;" horiz-adv-x="1660" 
d="M104 1201q0 278 50.5 488.5t141.5 350t229.5 227t303.5 124.5t375 37q112 0 211.5 -16.5t244.5 -51.5l-86 -627l-369 25q-47 3 -84 -8t-72 -47t-58 -97.5t-37 -163.5t-14 -241q0 -140 12.5 -241.5t34 -164t56 -97.5t72.5 -46.5t90 -7.5l369 24l82 -632q-239 -44 -460 -44
q-117 0 -215 8.5t-193.5 29t-173.5 53.5t-149.5 84t-126.5 118.5t-100 157.5t-74 202t-44.5 251.5t-15.5 304.5zM691 2521q0 15 71 125q124 200 309 454q150 7 322 7q160 0 366 -7q20 0 20 -17q0 -19 -81 -119q-55 -69 -195 -226t-210 -250q-293 0 -582 16q-20 2 -20 17z
" />
    <glyph glyph-name="cacute" unicode="&#x107;" horiz-adv-x="1660" 
d="M104 1201q0 278 50.5 488.5t141.5 350t229.5 227t303.5 124.5t375 37q112 0 211.5 -16.5t244.5 -51.5l-86 -627l-369 25q-47 3 -84 -8t-72 -47t-58 -97.5t-37 -163.5t-14 -241q0 -140 12.5 -241.5t34 -164t56 -97.5t72.5 -46.5t90 -7.5l369 24l82 -632q-239 -44 -460 -44
q-117 0 -215 8.5t-193.5 29t-173.5 53.5t-149.5 84t-126.5 118.5t-100 157.5t-74 202t-44.5 251.5t-15.5 304.5zM691 2521q0 15 71 125q124 200 309 454q150 7 322 7q160 0 366 -7q20 0 20 -17q0 -19 -81 -119q-55 -69 -195 -226t-210 -250q-293 0 -582 16q-20 2 -20 17z
" />
    <glyph glyph-name="Ccircumflex" unicode="&#x108;" horiz-adv-x="1660" 
d="M104 1201q0 278 50.5 488.5t141.5 350t229.5 227t303.5 124.5t375 37q112 0 211.5 -16.5t244.5 -51.5l-86 -627l-369 25q-47 3 -84 -8t-72 -47t-58 -97.5t-37 -163.5t-14 -241q0 -140 12.5 -241.5t34 -164t56 -97.5t72.5 -46.5t90 -7.5l369 24l82 -632q-239 -44 -460 -44
q-117 0 -215 8.5t-193.5 29t-173.5 53.5t-149.5 84t-126.5 118.5t-100 157.5t-74 202t-44.5 251.5t-15.5 304.5zM195 2483q68 133 156.5 266.5t214.5 305.5q26 34 61 36q263 13 565 13q178 0 277 -1q147 -165 378 -472q3 -4 15.5 -19.5t22 -28t20.5 -27.5t17 -26.5t6 -17.5
q0 -17 -21 -17q-207 -7 -322 -7q-136 0 -286 7q-51 70 -98 146t-74 126.5t-72 137.5q-110 -221 -199 -382q-9 -17 -27 -28.5t-34 -11.5q-215 -7 -325 -7q-134 0 -275 7z" />
    <glyph glyph-name="ccircumflex" unicode="&#x109;" horiz-adv-x="1660" 
d="M104 1201q0 278 50.5 488.5t141.5 350t229.5 227t303.5 124.5t375 37q112 0 211.5 -16.5t244.5 -51.5l-86 -627l-369 25q-47 3 -84 -8t-72 -47t-58 -97.5t-37 -163.5t-14 -241q0 -140 12.5 -241.5t34 -164t56 -97.5t72.5 -46.5t90 -7.5l369 24l82 -632q-239 -44 -460 -44
q-117 0 -215 8.5t-193.5 29t-173.5 53.5t-149.5 84t-126.5 118.5t-100 157.5t-74 202t-44.5 251.5t-15.5 304.5zM195 2483q68 133 156.5 266.5t214.5 305.5q26 34 61 36q263 13 565 13q178 0 277 -1q147 -165 378 -472q3 -4 15.5 -19.5t22 -28t20.5 -27.5t17 -26.5t6 -17.5
q0 -17 -21 -17q-207 -7 -322 -7q-136 0 -286 7q-51 70 -98 146t-74 126.5t-72 137.5q-110 -221 -199 -382q-9 -17 -27 -28.5t-34 -11.5q-215 -7 -325 -7q-134 0 -275 7z" />
    <glyph glyph-name="Cdotaccent" unicode="&#x10a;" horiz-adv-x="1660" 
d="M104 1201q0 278 50.5 488.5t141.5 350t229.5 227t303.5 124.5t375 37q112 0 211.5 -16.5t244.5 -51.5l-86 -627l-369 25q-47 3 -84 -8t-72 -47t-58 -97.5t-37 -163.5t-14 -241q0 -140 12.5 -241.5t34 -164t56 -97.5t72.5 -46.5t90 -7.5l369 24l82 -632q-239 -44 -460 -44
q-117 0 -215 8.5t-193.5 29t-173.5 53.5t-149.5 84t-126.5 118.5t-100 157.5t-74 202t-44.5 251.5t-15.5 304.5zM717 2831q0 121 3 265q146 7 293 7q127 0 339 -7q16 0 28 -12t12 -28q3 -162 3 -296q0 -120 -3 -264q-98 -5 -222 -5q-171 0 -410 13q-17 1 -28.5 12.5
t-11.5 27.5q-3 158 -3 287z" />
    <glyph glyph-name="cdotaccent" unicode="&#x10b;" horiz-adv-x="1660" 
d="M104 1201q0 278 50.5 488.5t141.5 350t229.5 227t303.5 124.5t375 37q112 0 211.5 -16.5t244.5 -51.5l-86 -627l-369 25q-47 3 -84 -8t-72 -47t-58 -97.5t-37 -163.5t-14 -241q0 -140 12.5 -241.5t34 -164t56 -97.5t72.5 -46.5t90 -7.5l369 24l82 -632q-239 -44 -460 -44
q-117 0 -215 8.5t-193.5 29t-173.5 53.5t-149.5 84t-126.5 118.5t-100 157.5t-74 202t-44.5 251.5t-15.5 304.5zM717 2831q0 121 3 265q146 7 293 7q127 0 339 -7q16 0 28 -12t12 -28q3 -162 3 -296q0 -120 -3 -264q-98 -5 -222 -5q-171 0 -410 13q-17 1 -28.5 12.5
t-11.5 27.5q-3 158 -3 287z" />
    <glyph glyph-name="Ccaron" unicode="&#x10c;" horiz-adv-x="1660" 
d="M104 1201q0 278 50.5 488.5t141.5 350t229.5 227t303.5 124.5t375 37q112 0 211.5 -16.5t244.5 -51.5l-86 -627l-369 25q-47 3 -84 -8t-72 -47t-58 -97.5t-37 -163.5t-14 -241q0 -140 12.5 -241.5t34 -164t56 -97.5t72.5 -46.5t90 -7.5l369 24l82 -632q-239 -44 -460 -44
q-117 0 -215 8.5t-193.5 29t-173.5 53.5t-149.5 84t-126.5 118.5t-100 157.5t-74 202t-44.5 251.5t-15.5 304.5zM195 3085q141 7 275 7q110 0 325 -7q16 0 34 -11.5t27 -28.5q34 -65 100 -185.5t98 -182.5q132 257 245 412q150 7 286 7q115 0 322 -7q21 0 21 -17
q0 -6 -10 -22.5t-27 -39.5t-32.5 -43.5t-34 -43.5t-23.5 -30q-191 -254 -332 -412h-350q-236 0 -496 16q-35 2 -61 36q-82 108 -134 180t-119 176t-114 196z" />
    <glyph glyph-name="ccaron" unicode="&#x10d;" horiz-adv-x="1660" 
d="M104 1201q0 278 50.5 488.5t141.5 350t229.5 227t303.5 124.5t375 37q112 0 211.5 -16.5t244.5 -51.5l-86 -627l-369 25q-47 3 -84 -8t-72 -47t-58 -97.5t-37 -163.5t-14 -241q0 -140 12.5 -241.5t34 -164t56 -97.5t72.5 -46.5t90 -7.5l369 24l82 -632q-239 -44 -460 -44
q-117 0 -215 8.5t-193.5 29t-173.5 53.5t-149.5 84t-126.5 118.5t-100 157.5t-74 202t-44.5 251.5t-15.5 304.5zM195 3085q141 7 275 7q110 0 325 -7q16 0 34 -11.5t27 -28.5q34 -65 100 -185.5t98 -182.5q132 257 245 412q150 7 286 7q115 0 322 -7q21 0 21 -17
q0 -6 -10 -22.5t-27 -39.5t-32.5 -43.5t-34 -43.5t-23.5 -30q-191 -254 -332 -412h-350q-236 0 -496 16q-35 2 -61 36q-82 108 -134 180t-119 176t-114 196z" />
    <glyph glyph-name="Dcaron" unicode="&#x10e;" horiz-adv-x="2104" 
d="M984 1200q0 -238 7 -528h68q30 0 51.5 6.5t44.5 24.5t38 54.5t27 94t18 145t6 204.5q0 139 -9.5 237t-24 154.5t-40 88t-50 40.5t-61.5 9h-67q-8 -332 -8 -530zM192 1200q0 200 4 580t4 580q443 68 780 68q210 0 375 -37t303.5 -124.5t229.5 -227t141.5 -350t50.5 -488.5
q0 -165 -15.5 -304.5t-44.5 -251.5t-74 -202t-100 -157.5t-126.5 -118.5t-149.5 -84t-173.5 -53.5t-193.5 -29t-215 -8.5q-40 0 -86.5 1.5t-81.5 2.5t-95 5t-87 5.5t-100.5 8t-92 8t-105.5 9t-100 8.5q-16 0 -28 12t-12 28q0 185 -4 551t-4 569zM187 3085q141 7 275 7
q110 0 325 -7q16 0 34 -11.5t27 -28.5q34 -65 100 -185.5t98 -182.5q132 257 245 412q150 7 286 7q115 0 322 -7q21 0 21 -17q0 -6 -10 -22.5t-27 -39.5t-32.5 -43.5t-34 -43.5t-23.5 -30q-191 -254 -332 -412h-350q-236 0 -496 16q-35 2 -61 36q-82 108 -134 180t-119 176
t-114 196z" />
    <glyph glyph-name="dcaron" unicode="&#x10f;" horiz-adv-x="2104" 
d="M984 1200q0 -238 7 -528h68q30 0 51.5 6.5t44.5 24.5t38 54.5t27 94t18 145t6 204.5q0 139 -9.5 237t-24 154.5t-40 88t-50 40.5t-61.5 9h-67q-8 -332 -8 -530zM192 1200q0 200 4 580t4 580q443 68 780 68q210 0 375 -37t303.5 -124.5t229.5 -227t141.5 -350t50.5 -488.5
q0 -165 -15.5 -304.5t-44.5 -251.5t-74 -202t-100 -157.5t-126.5 -118.5t-149.5 -84t-173.5 -53.5t-193.5 -29t-215 -8.5q-40 0 -86.5 1.5t-81.5 2.5t-95 5t-87 5.5t-100.5 8t-92 8t-105.5 9t-100 8.5q-16 0 -28 12t-12 28q0 185 -4 551t-4 569zM187 3085q141 7 275 7
q110 0 325 -7q16 0 34 -11.5t27 -28.5q34 -65 100 -185.5t98 -182.5q132 257 245 412q150 7 286 7q115 0 322 -7q21 0 21 -17q0 -6 -10 -22.5t-27 -39.5t-32.5 -43.5t-34 -43.5t-23.5 -30q-191 -254 -332 -412h-350q-236 0 -496 16q-35 2 -61 36q-82 108 -134 180t-119 176
t-114 196z" />
    <glyph glyph-name="Dcroat" unicode="&#x110;" 
d="M44 1205q0 118 4 291q76 4 145 5q0 69 3.5 377t3.5 482q198 30 432 49t404 19q209 0 369 -37t290 -124t213 -227.5t127.5 -349.5t44.5 -489q0 -213 -22.5 -382t-64.5 -295t-109.5 -218.5t-149 -152.5t-192 -96t-229 -50.5t-269.5 -14.5q-252 0 -804 48q-16 0 -28 12
t-12 28q0 119 -1 249.5t-2.5 288.5t-2.5 249q-64 4 -106 5q-16 0 -27.5 11.5t-12.5 28.5q-4 208 -4 293zM987 1499q74 -2 117 -3q16 0 27.5 -11.5t12.5 -28.5q4 -123 4 -340q0 -78 -4 -252q-75 -3 -157 -4q1 -33 2.5 -95.5t1.5 -92.5h108q31 0 53.5 6.5t47 24.5t41.5 55
t31 93.5t21 145t7 204.5q0 138 -11 237t-28 155t-44.5 87.5t-54 40.5t-63.5 9h-107q-4 -148 -5 -231z" />
    <glyph glyph-name="dcroat" unicode="&#x111;" 
d="M44 1205q0 118 4 291q76 4 145 5q0 69 3.5 377t3.5 482q198 30 432 49t404 19q209 0 369 -37t290 -124t213 -227.5t127.5 -349.5t44.5 -489q0 -213 -22.5 -382t-64.5 -295t-109.5 -218.5t-149 -152.5t-192 -96t-229 -50.5t-269.5 -14.5q-252 0 -804 48q-16 0 -28 12
t-12 28q0 119 -1 249.5t-2.5 288.5t-2.5 249q-64 4 -106 5q-16 0 -27.5 11.5t-12.5 28.5q-4 208 -4 293zM987 1499q74 -2 117 -3q16 0 27.5 -11.5t12.5 -28.5q4 -123 4 -340q0 -78 -4 -252q-75 -3 -157 -4q1 -33 2.5 -95.5t1.5 -92.5h108q31 0 53.5 6.5t47 24.5t41.5 55
t31 93.5t21 145t7 204.5q0 138 -11 237t-28 155t-44.5 87.5t-54 40.5t-63.5 9h-107q-4 -148 -5 -231z" />
    <glyph glyph-name="Emacron" unicode="&#x112;" horiz-adv-x="1816" 
d="M184 1200q0 560 16 1200q190 9 830 9q453 0 698 -9q16 0 28 -12t12 -28q4 -244 4 -346q0 -157 -4 -294q-169 -8 -636 -8q-84 0 -152 1q-2 -138 -3 -210q358 -2 479 -7q16 0 28 -12t12 -28q3 -164 3 -301q0 -123 -3 -267h-519q1 -70 3 -208h48q490 0 708 -8q16 0 28 -12
t12 -28q4 -244 4 -346q0 -157 -4 -294q-190 -9 -686 -9q-99 0 -421.5 6.5t-428.5 10.5q-16 0 -28 12t-12 28q-16 752 -16 1160zM372 2825q0 115 4 259q191 9 710 9q205 0 450 -9q16 0 27.5 -11.5t12.5 -28.5q2 -90 2 -263q0 -196 -2 -265q-196 -9 -550 -9q-148 0 -610 17
q-16 0 -27.5 11.5t-12.5 28.5q-4 141 -4 261z" />
    <glyph glyph-name="emacron" unicode="&#x113;" horiz-adv-x="1816" 
d="M184 1200q0 560 16 1200q190 9 830 9q453 0 698 -9q16 0 28 -12t12 -28q4 -244 4 -346q0 -157 -4 -294q-169 -8 -636 -8q-84 0 -152 1q-2 -138 -3 -210q358 -2 479 -7q16 0 28 -12t12 -28q3 -164 3 -301q0 -123 -3 -267h-519q1 -70 3 -208h48q490 0 708 -8q16 0 28 -12
t12 -28q4 -244 4 -346q0 -157 -4 -294q-190 -9 -686 -9q-99 0 -421.5 6.5t-428.5 10.5q-16 0 -28 12t-12 28q-16 752 -16 1160zM372 2825q0 115 4 259q191 9 710 9q205 0 450 -9q16 0 27.5 -11.5t12.5 -28.5q2 -90 2 -263q0 -196 -2 -265q-196 -9 -550 -9q-148 0 -610 17
q-16 0 -27.5 11.5t-12.5 28.5q-4 141 -4 261z" />
    <glyph glyph-name="Ebreve" unicode="&#x114;" horiz-adv-x="1816" 
d="M184 1200q0 560 16 1200q190 9 830 9q453 0 698 -9q16 0 28 -12t12 -28q4 -244 4 -346q0 -157 -4 -294q-169 -8 -636 -8q-84 0 -152 1q-2 -138 -3 -210q358 -2 479 -7q16 0 28 -12t12 -28q3 -164 3 -301q0 -123 -3 -267h-519q1 -70 3 -208h48q490 0 708 -8q16 0 28 -12
t12 -28q4 -244 4 -346q0 -157 -4 -294q-190 -9 -686 -9q-99 0 -421.5 6.5t-428.5 10.5q-16 0 -28 12t-12 28q-16 752 -16 1160zM111 3103q141 7 271 7q106 0 321 -7q17 0 35 -12t26 -28q37 -72 94.5 -109t121.5 -37q73 0 137 45.5t98 128.5q150 7 287 7q114 0 321 -7
q17 0 17 -14q0 -25 -26.5 -89.5t-51.5 -106.5q-113 -192 -328 -299.5t-461 -107.5q-143 0 -278 38.5t-252.5 113.5t-205.5 198t-126 279z" />
    <glyph glyph-name="ebreve" unicode="&#x115;" horiz-adv-x="1816" 
d="M184 1200q0 560 16 1200q190 9 830 9q453 0 698 -9q16 0 28 -12t12 -28q4 -244 4 -346q0 -157 -4 -294q-169 -8 -636 -8q-84 0 -152 1q-2 -138 -3 -210q358 -2 479 -7q16 0 28 -12t12 -28q3 -164 3 -301q0 -123 -3 -267h-519q1 -70 3 -208h48q490 0 708 -8q16 0 28 -12
t12 -28q4 -244 4 -346q0 -157 -4 -294q-190 -9 -686 -9q-99 0 -421.5 6.5t-428.5 10.5q-16 0 -28 12t-12 28q-16 752 -16 1160zM111 3103q141 7 271 7q106 0 321 -7q17 0 35 -12t26 -28q37 -72 94.5 -109t121.5 -37q73 0 137 45.5t98 128.5q150 7 287 7q114 0 321 -7
q17 0 17 -14q0 -25 -26.5 -89.5t-51.5 -106.5q-113 -192 -328 -299.5t-461 -107.5q-143 0 -278 38.5t-252.5 113.5t-205.5 198t-126 279z" />
    <glyph glyph-name="Edotaccent" unicode="&#x116;" horiz-adv-x="1816" 
d="M184 1200q0 560 16 1200q190 9 830 9q453 0 698 -9q16 0 28 -12t12 -28q4 -244 4 -346q0 -157 -4 -294q-169 -8 -636 -8q-84 0 -152 1q-2 -138 -3 -210q358 -2 479 -7q16 0 28 -12t12 -28q3 -164 3 -301q0 -123 -3 -267h-519q1 -70 3 -208h48q490 0 708 -8q16 0 28 -12
t12 -28q4 -244 4 -346q0 -157 -4 -294q-190 -9 -686 -9q-99 0 -421.5 6.5t-428.5 10.5q-16 0 -28 12t-12 28q-16 752 -16 1160zM633 2831q0 121 3 265q146 7 293 7q127 0 339 -7q16 0 28 -12t12 -28q3 -162 3 -296q0 -120 -3 -264q-98 -5 -222 -5q-171 0 -410 13
q-17 1 -28.5 12.5t-11.5 27.5q-3 158 -3 287z" />
    <glyph glyph-name="edotaccent" unicode="&#x117;" horiz-adv-x="1816" 
d="M184 1200q0 560 16 1200q190 9 830 9q453 0 698 -9q16 0 28 -12t12 -28q4 -244 4 -346q0 -157 -4 -294q-169 -8 -636 -8q-84 0 -152 1q-2 -138 -3 -210q358 -2 479 -7q16 0 28 -12t12 -28q3 -164 3 -301q0 -123 -3 -267h-519q1 -70 3 -208h48q490 0 708 -8q16 0 28 -12
t12 -28q4 -244 4 -346q0 -157 -4 -294q-190 -9 -686 -9q-99 0 -421.5 6.5t-428.5 10.5q-16 0 -28 12t-12 28q-16 752 -16 1160zM633 2831q0 121 3 265q146 7 293 7q127 0 339 -7q16 0 28 -12t12 -28q3 -162 3 -296q0 -120 -3 -264q-98 -5 -222 -5q-171 0 -410 13
q-17 1 -28.5 12.5t-11.5 27.5q-3 158 -3 287z" />
    <glyph glyph-name="Eogonek" unicode="&#x118;" horiz-adv-x="1816" 
d="M184 1200q0 560 16 1200q190 9 830 9q453 0 698 -9q16 0 28 -12t12 -28q4 -244 4 -346q0 -157 -4 -294q-169 -8 -636 -8q-84 0 -152 1q-2 -138 -3 -210q358 -2 479 -7q16 0 28 -12t12 -28q3 -164 3 -301q0 -123 -3 -267h-519q1 -70 3 -208h48q490 0 708 -8q16 0 28 -12
t12 -28q4 -244 4 -346q0 -157 -4 -294q-40 -2 -167 -4q-84 -3 -130.5 -38t-46.5 -78q0 -45 49.5 -74t131.5 -18l195 24l72 -560q-141 -26 -213.5 -35t-178.5 -9q-185 0 -334 61t-230 162.5t-81 222.5q0 179 176 338q-428 4 -779 16q-16 0 -28 12t-12 28q-16 752 -16 1160z
" />
    <glyph glyph-name="eogonek" unicode="&#x119;" horiz-adv-x="1816" 
d="M184 1200q0 560 16 1200q190 9 830 9q453 0 698 -9q16 0 28 -12t12 -28q4 -244 4 -346q0 -157 -4 -294q-169 -8 -636 -8q-84 0 -152 1q-2 -138 -3 -210q358 -2 479 -7q16 0 28 -12t12 -28q3 -164 3 -301q0 -123 -3 -267h-519q1 -70 3 -208h48q490 0 708 -8q16 0 28 -12
t12 -28q4 -244 4 -346q0 -157 -4 -294q-40 -2 -167 -4q-84 -3 -130.5 -38t-46.5 -78q0 -45 49.5 -74t131.5 -18l195 24l72 -560q-141 -26 -213.5 -35t-178.5 -9q-185 0 -334 61t-230 162.5t-81 222.5q0 179 176 338q-428 4 -779 16q-16 0 -28 12t-12 28q-16 752 -16 1160z
" />
    <glyph glyph-name="Ecaron" unicode="&#x11a;" horiz-adv-x="1816" 
d="M184 1200q0 560 16 1200q190 9 830 9q453 0 698 -9q16 0 28 -12t12 -28q4 -244 4 -346q0 -157 -4 -294q-169 -8 -636 -8q-84 0 -152 1q-2 -138 -3 -210q358 -2 479 -7q16 0 28 -12t12 -28q3 -164 3 -301q0 -123 -3 -267h-519q1 -70 3 -208h48q490 0 708 -8q16 0 28 -12
t12 -28q4 -244 4 -346q0 -157 -4 -294q-190 -9 -686 -9q-99 0 -421.5 6.5t-428.5 10.5q-16 0 -28 12t-12 28q-16 752 -16 1160zM111 3085q141 7 275 7q110 0 325 -7q16 0 34 -11.5t27 -28.5q34 -65 100 -185.5t98 -182.5q132 257 245 412q150 7 286 7q115 0 322 -7
q21 0 21 -17q0 -6 -10 -22.5t-27 -39.5t-32.5 -43.5t-34 -43.5t-23.5 -30q-191 -254 -332 -412h-350q-236 0 -496 16q-35 2 -61 36q-82 108 -134 180t-119 176t-114 196z" />
    <glyph glyph-name="ecaron" unicode="&#x11b;" horiz-adv-x="1816" 
d="M184 1200q0 560 16 1200q190 9 830 9q453 0 698 -9q16 0 28 -12t12 -28q4 -244 4 -346q0 -157 -4 -294q-169 -8 -636 -8q-84 0 -152 1q-2 -138 -3 -210q358 -2 479 -7q16 0 28 -12t12 -28q3 -164 3 -301q0 -123 -3 -267h-519q1 -70 3 -208h48q490 0 708 -8q16 0 28 -12
t12 -28q4 -244 4 -346q0 -157 -4 -294q-190 -9 -686 -9q-99 0 -421.5 6.5t-428.5 10.5q-16 0 -28 12t-12 28q-16 752 -16 1160zM111 3085q141 7 275 7q110 0 325 -7q16 0 34 -11.5t27 -28.5q34 -65 100 -185.5t98 -182.5q132 257 245 412q150 7 286 7q115 0 322 -7
q21 0 21 -17q0 -6 -10 -22.5t-27 -39.5t-32.5 -43.5t-34 -43.5t-23.5 -30q-191 -254 -332 -412h-350q-236 0 -496 16q-35 2 -61 36q-82 108 -134 180t-119 176t-114 196z" />
    <glyph glyph-name="Gcircumflex" unicode="&#x11c;" horiz-adv-x="2008" 
d="M104 1201q0 278 50.5 488.5t141.5 350t229.5 227t303.5 124.5t375 37q293 0 716 -68l-84 -632h-712q-36 0 -61 -9t-50 -40t-39.5 -87t-24 -154t-9.5 -237q0 -116 7 -204.5t21.5 -145t31.5 -93.5t42 -55t48 -24.5t54 -6.5h80q0 196 -16 608q176 8 316 8q148 0 348 -8
q16 -1 27.5 -12.5t12.5 -27.5q16 -370 16 -560q0 -329 -16 -612q-170 -30 -252 -43t-204 -23t-260 -10q-117 0 -215 8.5t-193.5 29t-173.5 53.5t-149.5 84t-126.5 118.5t-100 157.5t-74 202t-44.5 251.5t-15.5 304.5zM315 2483q68 133 156.5 266.5t214.5 305.5q26 34 61 36
q263 13 565 13q178 0 277 -1q147 -165 378 -472q3 -4 15.5 -19.5t22 -28t20.5 -27.5t17 -26.5t6 -17.5q0 -17 -21 -17q-207 -7 -322 -7q-136 0 -286 7q-51 70 -98 146t-74 126.5t-72 137.5q-110 -221 -199 -382q-9 -17 -27 -28.5t-34 -11.5q-215 -7 -325 -7q-134 0 -275 7z
" />
    <glyph glyph-name="gcircumflex" unicode="&#x11d;" horiz-adv-x="2008" 
d="M104 1201q0 278 50.5 488.5t141.5 350t229.5 227t303.5 124.5t375 37q293 0 716 -68l-84 -632h-712q-36 0 -61 -9t-50 -40t-39.5 -87t-24 -154t-9.5 -237q0 -116 7 -204.5t21.5 -145t31.5 -93.5t42 -55t48 -24.5t54 -6.5h80q0 196 -16 608q176 8 316 8q148 0 348 -8
q16 -1 27.5 -12.5t12.5 -27.5q16 -370 16 -560q0 -329 -16 -612q-170 -30 -252 -43t-204 -23t-260 -10q-117 0 -215 8.5t-193.5 29t-173.5 53.5t-149.5 84t-126.5 118.5t-100 157.5t-74 202t-44.5 251.5t-15.5 304.5zM315 2483q68 133 156.5 266.5t214.5 305.5q26 34 61 36
q263 13 565 13q178 0 277 -1q147 -165 378 -472q3 -4 15.5 -19.5t22 -28t20.5 -27.5t17 -26.5t6 -17.5q0 -17 -21 -17q-207 -7 -322 -7q-136 0 -286 7q-51 70 -98 146t-74 126.5t-72 137.5q-110 -221 -199 -382q-9 -17 -27 -28.5t-34 -11.5q-215 -7 -325 -7q-134 0 -275 7z
" />
    <glyph glyph-name="Gbreve" unicode="&#x11e;" horiz-adv-x="2008" 
d="M104 1201q0 278 50.5 488.5t141.5 350t229.5 227t303.5 124.5t375 37q293 0 716 -68l-84 -632h-712q-36 0 -61 -9t-50 -40t-39.5 -87t-24 -154t-9.5 -237q0 -116 7 -204.5t21.5 -145t31.5 -93.5t42 -55t48 -24.5t54 -6.5h80q0 196 -16 608q176 8 316 8q148 0 348 -8
q16 -1 27.5 -12.5t12.5 -27.5q16 -370 16 -560q0 -329 -16 -612q-170 -30 -252 -43t-204 -23t-260 -10q-117 0 -215 8.5t-193.5 29t-173.5 53.5t-149.5 84t-126.5 118.5t-100 157.5t-74 202t-44.5 251.5t-15.5 304.5zM315 3103q141 7 271 7q106 0 321 -7q17 0 35 -12t26 -28
q37 -72 94.5 -109t121.5 -37q73 0 137 45.5t98 128.5q150 7 287 7q114 0 321 -7q17 0 17 -14q0 -25 -26.5 -89.5t-51.5 -106.5q-113 -192 -328 -299.5t-461 -107.5q-143 0 -278 38.5t-252.5 113.5t-205.5 198t-126 279z" />
    <glyph glyph-name="gbreve" unicode="&#x11f;" horiz-adv-x="2008" 
d="M104 1201q0 278 50.5 488.5t141.5 350t229.5 227t303.5 124.5t375 37q293 0 716 -68l-84 -632h-712q-36 0 -61 -9t-50 -40t-39.5 -87t-24 -154t-9.5 -237q0 -116 7 -204.5t21.5 -145t31.5 -93.5t42 -55t48 -24.5t54 -6.5h80q0 196 -16 608q176 8 316 8q148 0 348 -8
q16 -1 27.5 -12.5t12.5 -27.5q16 -370 16 -560q0 -329 -16 -612q-170 -30 -252 -43t-204 -23t-260 -10q-117 0 -215 8.5t-193.5 29t-173.5 53.5t-149.5 84t-126.5 118.5t-100 157.5t-74 202t-44.5 251.5t-15.5 304.5zM315 3103q141 7 271 7q106 0 321 -7q17 0 35 -12t26 -28
q37 -72 94.5 -109t121.5 -37q73 0 137 45.5t98 128.5q150 7 287 7q114 0 321 -7q17 0 17 -14q0 -25 -26.5 -89.5t-51.5 -106.5q-113 -192 -328 -299.5t-461 -107.5q-143 0 -278 38.5t-252.5 113.5t-205.5 198t-126 279z" />
    <glyph glyph-name="Gdotaccent" unicode="&#x120;" horiz-adv-x="2008" 
d="M104 1201q0 278 50.5 488.5t141.5 350t229.5 227t303.5 124.5t375 37q293 0 716 -68l-84 -632h-712q-36 0 -61 -9t-50 -40t-39.5 -87t-24 -154t-9.5 -237q0 -116 7 -204.5t21.5 -145t31.5 -93.5t42 -55t48 -24.5t54 -6.5h80q0 196 -16 608q176 8 316 8q148 0 348 -8
q16 -1 27.5 -12.5t12.5 -27.5q16 -370 16 -560q0 -329 -16 -612q-170 -30 -252 -43t-204 -23t-260 -10q-117 0 -215 8.5t-193.5 29t-173.5 53.5t-149.5 84t-126.5 118.5t-100 157.5t-74 202t-44.5 251.5t-15.5 304.5zM837 2831q0 121 3 265q146 7 293 7q127 0 339 -7
q16 0 28 -12t12 -28q3 -162 3 -296q0 -120 -3 -264q-98 -5 -222 -5q-171 0 -410 13q-17 1 -28.5 12.5t-11.5 27.5q-3 158 -3 287z" />
    <glyph glyph-name="gdotaccent" unicode="&#x121;" horiz-adv-x="2008" 
d="M104 1201q0 278 50.5 488.5t141.5 350t229.5 227t303.5 124.5t375 37q293 0 716 -68l-84 -632h-712q-36 0 -61 -9t-50 -40t-39.5 -87t-24 -154t-9.5 -237q0 -116 7 -204.5t21.5 -145t31.5 -93.5t42 -55t48 -24.5t54 -6.5h80q0 196 -16 608q176 8 316 8q148 0 348 -8
q16 -1 27.5 -12.5t12.5 -27.5q16 -370 16 -560q0 -329 -16 -612q-170 -30 -252 -43t-204 -23t-260 -10q-117 0 -215 8.5t-193.5 29t-173.5 53.5t-149.5 84t-126.5 118.5t-100 157.5t-74 202t-44.5 251.5t-15.5 304.5zM837 2831q0 121 3 265q146 7 293 7q127 0 339 -7
q16 0 28 -12t12 -28q3 -162 3 -296q0 -120 -3 -264q-98 -5 -222 -5q-171 0 -410 13q-17 1 -28.5 12.5t-11.5 27.5q-3 158 -3 287z" />
    <glyph glyph-name="Gcommaaccent" unicode="&#x122;" horiz-adv-x="2008" 
d="M104 1201q0 278 50.5 488.5t141.5 350t229.5 227t303.5 124.5t375 37q293 0 716 -68l-84 -632h-712q-36 0 -61 -9t-50 -40t-39.5 -87t-24 -154t-9.5 -237q0 -116 7 -204.5t21.5 -145t31.5 -93.5t42 -55t48 -24.5t54 -6.5h80q0 196 -16 608q176 8 316 8q148 0 348 -8
q16 -1 27.5 -12.5t12.5 -27.5q16 -370 16 -560q0 -329 -16 -612q-170 -30 -252 -43t-204 -23t-260 -10q-117 0 -215 8.5t-193.5 29t-173.5 53.5t-149.5 84t-126.5 118.5t-100 157.5t-74 202t-44.5 251.5t-15.5 304.5zM890 -81q247 10 576 0q15 0 25.5 -8.5t10.5 -20.5
q0 -50 1 -129t1 -124q-13 -84 -70.5 -225t-91.5 -205q-142 -5 -297 -5q19 151 30 326q-99 0 -149 2q-15 1 -25.5 9t-10.5 20q-6 200 0 360z" />
    <glyph glyph-name="gcommaaccent" unicode="&#x123;" horiz-adv-x="2008" 
d="M104 1201q0 278 50.5 488.5t141.5 350t229.5 227t303.5 124.5t375 37q293 0 716 -68l-84 -632h-712q-36 0 -61 -9t-50 -40t-39.5 -87t-24 -154t-9.5 -237q0 -116 7 -204.5t21.5 -145t31.5 -93.5t42 -55t48 -24.5t54 -6.5h80q0 196 -16 608q176 8 316 8q148 0 348 -8
q16 -1 27.5 -12.5t12.5 -27.5q16 -370 16 -560q0 -329 -16 -612q-170 -30 -252 -43t-204 -23t-260 -10q-117 0 -215 8.5t-193.5 29t-173.5 53.5t-149.5 84t-126.5 118.5t-100 157.5t-74 202t-44.5 251.5t-15.5 304.5zM890 -81q247 10 576 0q15 0 25.5 -8.5t10.5 -20.5
q0 -50 1 -129t1 -124q-13 -84 -70.5 -225t-91.5 -205q-142 -5 -297 -5q19 151 30 326q-99 0 -149 2q-15 1 -25.5 9t-10.5 20q-6 200 0 360z" />
    <glyph glyph-name="Hcircumflex" unicode="&#x124;" horiz-adv-x="2200" 
d="M184 1200q0 560 16 1200q190 9 350 9q165 0 410 -9q16 0 28 -12t12 -28q8 -367 8 -840h264q0 545 8 880q190 9 350 9q165 0 410 -9q16 0 28 -12t12 -28q16 -752 16 -1160q0 -560 -16 -1200q-190 -9 -350 -9q-165 0 -410 9q-16 0 -28 12t-12 28q-6 263 -8 800h-264
q0 -520 -8 -840q-190 -9 -350 -9q-165 0 -410 9q-16 0 -28 12t-12 28q-16 752 -16 1160zM275 2483q68 133 156.5 266.5t214.5 305.5q26 34 61 36q263 13 565 13q178 0 277 -1q147 -165 378 -472q3 -4 15.5 -19.5t22 -28t20.5 -27.5t17 -26.5t6 -17.5q0 -17 -21 -17
q-207 -7 -322 -7q-136 0 -286 7q-51 70 -98 146t-74 126.5t-72 137.5q-110 -221 -199 -382q-9 -17 -27 -28.5t-34 -11.5q-215 -7 -325 -7q-134 0 -275 7z" />
    <glyph glyph-name="hcircumflex" unicode="&#x125;" horiz-adv-x="2200" 
d="M184 1200q0 560 16 1200q190 9 350 9q165 0 410 -9q16 0 28 -12t12 -28q8 -367 8 -840h264q0 545 8 880q190 9 350 9q165 0 410 -9q16 0 28 -12t12 -28q16 -752 16 -1160q0 -560 -16 -1200q-190 -9 -350 -9q-165 0 -410 9q-16 0 -28 12t-12 28q-6 263 -8 800h-264
q0 -520 -8 -840q-190 -9 -350 -9q-165 0 -410 9q-16 0 -28 12t-12 28q-16 752 -16 1160zM275 2483q68 133 156.5 266.5t214.5 305.5q26 34 61 36q263 13 565 13q178 0 277 -1q147 -165 378 -472q3 -4 15.5 -19.5t22 -28t20.5 -27.5t17 -26.5t6 -17.5q0 -17 -21 -17
q-207 -7 -322 -7q-136 0 -286 7q-51 70 -98 146t-74 126.5t-72 137.5q-110 -221 -199 -382q-9 -17 -27 -28.5t-34 -11.5q-215 -7 -325 -7q-134 0 -275 7z" />
    <glyph glyph-name="Hbar" unicode="&#x126;" horiz-adv-x="2232" 
d="M92 1696q-4 155 -4 222q0 69 4 226q8 0 23.5 0.5t44 1t50.5 0.5q1 43 3 127.5t3 126.5q191 9 350 9q165 0 410 -9q16 0 28 -12t12 -28q0 -30 1.5 -99.5t2.5 -108.5h271q1 97 5 248q190 9 350 9q165 0 410 -9q16 0 28 -12t12 -28q2 -72 4 -214q15 0 43.5 -0.5t40.5 -1.5
q16 0 27.5 -11.5t12.5 -28.5q3 -83 3 -217q0 -121 -3 -239q-27 -1 -115 -3q3 -219 3 -445q0 -560 -16 -1200q-190 -9 -350 -9q-165 0 -410 9q-16 0 -28 12t-12 28q-6 268 -8 776h-264q0 -496 -8 -816q-190 -9 -350 -9q-165 0 -410 9q-16 0 -28 12t-12 28q-16 752 -16 1160
q0 303 2 454q-64 2 -70 2q-16 0 -27.5 11.5t-12.5 28.5zM1023 1644q0 -34 0.5 -99.5t0.5 -96.5h264v193q-100 1 -265 3z" />
    <glyph glyph-name="hbar" unicode="&#x127;" horiz-adv-x="2232" 
d="M92 1696q-4 155 -4 222q0 69 4 226q8 0 23.5 0.5t44 1t50.5 0.5q1 43 3 127.5t3 126.5q191 9 350 9q165 0 410 -9q16 0 28 -12t12 -28q0 -30 1.5 -99.5t2.5 -108.5h271q1 97 5 248q190 9 350 9q165 0 410 -9q16 0 28 -12t12 -28q2 -72 4 -214q15 0 43.5 -0.5t40.5 -1.5
q16 0 27.5 -11.5t12.5 -28.5q3 -83 3 -217q0 -121 -3 -239q-27 -1 -115 -3q3 -219 3 -445q0 -560 -16 -1200q-190 -9 -350 -9q-165 0 -410 9q-16 0 -28 12t-12 28q-6 268 -8 776h-264q0 -496 -8 -816q-190 -9 -350 -9q-165 0 -410 9q-16 0 -28 12t-12 28q-16 752 -16 1160
q0 303 2 454q-64 2 -70 2q-16 0 -27.5 11.5t-12.5 28.5zM1023 1644q0 -34 0.5 -99.5t0.5 -96.5h264v193q-100 1 -265 3z" />
    <glyph glyph-name="Itilde" unicode="&#x128;" horiz-adv-x="1120" 
d="M184 1200q0 560 16 1200q190 9 350 9q165 0 410 -9q16 0 28 -12t12 -28q16 -752 16 -1160q0 -560 -16 -1200q-190 -9 -350 -9q-165 0 -410 9q-16 0 -28 12t-12 28q-16 752 -16 1160zM-212 2915q0 24 20 35q160 100 265 139.5t199 42.5q92 0 255.5 -52t248.5 -52
q135 0 363 117q91 -149 170 -292q6 -12 27.5 -49.5t30.5 -56t9 -26.5q0 -23 -20 -36q-288 -197 -488 -197q-86 0 -233 44t-231 44q-145 0 -363 -113q-72 117 -163 280q-9 17 -24 43t-25 43.5t-20.5 36.5t-15.5 31.5t-5 17.5z" />
    <glyph glyph-name="itilde" unicode="&#x129;" horiz-adv-x="1120" 
d="M184 1200q0 560 16 1200q190 9 350 9q165 0 410 -9q16 0 28 -12t12 -28q16 -752 16 -1160q0 -560 -16 -1200q-190 -9 -350 -9q-165 0 -410 9q-16 0 -28 12t-12 28q-16 752 -16 1160zM-212 2915q0 24 20 35q160 100 265 139.5t199 42.5q92 0 255.5 -52t248.5 -52
q135 0 363 117q91 -149 170 -292q6 -12 27.5 -49.5t30.5 -56t9 -26.5q0 -23 -20 -36q-288 -197 -488 -197q-86 0 -233 44t-231 44q-145 0 -363 -113q-72 117 -163 280q-9 17 -24 43t-25 43.5t-20.5 36.5t-15.5 31.5t-5 17.5z" />
    <glyph glyph-name="Imacron" unicode="&#x12a;" horiz-adv-x="1120" 
d="M184 1200q0 560 16 1200q190 9 350 9q165 0 410 -9q16 0 28 -12t12 -28q16 -752 16 -1160q0 -560 -16 -1200q-190 -9 -350 -9q-165 0 -410 9q-16 0 -28 12t-12 28q-16 752 -16 1160zM-20 2825q0 115 4 259q191 9 710 9q205 0 450 -9q16 0 27.5 -11.5t12.5 -28.5
q2 -90 2 -263q0 -196 -2 -265q-196 -9 -550 -9q-148 0 -610 17q-16 0 -27.5 11.5t-12.5 28.5q-4 141 -4 261z" />
    <glyph glyph-name="imacron" unicode="&#x12b;" horiz-adv-x="1120" 
d="M184 1200q0 560 16 1200q190 9 350 9q165 0 410 -9q16 0 28 -12t12 -28q16 -752 16 -1160q0 -560 -16 -1200q-190 -9 -350 -9q-165 0 -410 9q-16 0 -28 12t-12 28q-16 752 -16 1160zM-20 2825q0 115 4 259q191 9 710 9q205 0 450 -9q16 0 27.5 -11.5t12.5 -28.5
q2 -90 2 -263q0 -196 -2 -265q-196 -9 -550 -9q-148 0 -610 17q-16 0 -27.5 11.5t-12.5 28.5q-4 141 -4 261z" />
    <glyph glyph-name="Ibreve" unicode="&#x12c;" horiz-adv-x="1120" 
d="M184 1200q0 560 16 1200q190 9 350 9q165 0 410 -9q16 0 28 -12t12 -28q16 -752 16 -1160q0 -560 -16 -1200q-190 -9 -350 -9q-165 0 -410 9q-16 0 -28 12t-12 28q-16 752 -16 1160zM-281 3103q141 7 271 7q106 0 321 -7q17 0 35 -12t26 -28q37 -72 94.5 -109t121.5 -37
q73 0 137 45.5t98 128.5q150 7 287 7q114 0 321 -7q17 0 17 -14q0 -25 -26.5 -89.5t-51.5 -106.5q-113 -192 -328 -299.5t-461 -107.5q-143 0 -278 38.5t-252.5 113.5t-205.5 198t-126 279z" />
    <glyph glyph-name="ibreve" unicode="&#x12d;" horiz-adv-x="1120" 
d="M184 1200q0 560 16 1200q190 9 350 9q165 0 410 -9q16 0 28 -12t12 -28q16 -752 16 -1160q0 -560 -16 -1200q-190 -9 -350 -9q-165 0 -410 9q-16 0 -28 12t-12 28q-16 752 -16 1160zM-281 3103q141 7 271 7q106 0 321 -7q17 0 35 -12t26 -28q37 -72 94.5 -109t121.5 -37
q73 0 137 45.5t98 128.5q150 7 287 7q114 0 321 -7q17 0 17 -14q0 -25 -26.5 -89.5t-51.5 -106.5q-113 -192 -328 -299.5t-461 -107.5q-143 0 -278 38.5t-252.5 113.5t-205.5 198t-126 279z" />
    <glyph glyph-name="Iogonek" unicode="&#x12e;" horiz-adv-x="1120" 
d="M84 -352q0 187 184 351q-4 0 -13.5 0.5t-14.5 0.5q-16 0 -28 12t-12 28q-16 752 -16 1160q0 560 16 1200q190 9 350 9q165 0 410 -9q16 0 28 -12t12 -28q16 -752 16 -1160q0 -560 -16 -1200q-88 -5 -155 -6q-84 -6 -130.5 -40.5t-46.5 -77.5q0 -46 49 -76t132 -19l195 24
l72 -560q-189 -35 -265 -40q-55 -4 -127 -4q-278 0 -459 130.5t-181 316.5z" />
    <glyph glyph-name="iogonek" unicode="&#x12f;" horiz-adv-x="1120" 
d="M84 -352q0 187 184 351q-4 0 -13.5 0.5t-14.5 0.5q-16 0 -28 12t-12 28q-16 752 -16 1160q0 560 16 1200q190 9 350 9q165 0 410 -9q16 0 28 -12t12 -28q16 -752 16 -1160q0 -560 -16 -1200q-88 -5 -155 -6q-84 -6 -130.5 -40.5t-46.5 -77.5q0 -46 49 -76t132 -19l195 24
l72 -560q-189 -35 -265 -40q-55 -4 -127 -4q-278 0 -459 130.5t-181 316.5z" />
    <glyph glyph-name="Idotaccent" unicode="&#x130;" horiz-adv-x="1120" 
d="M184 1200q0 560 16 1200q190 9 350 9q165 0 410 -9q16 0 28 -12t12 -28q16 -752 16 -1160q0 -560 -16 -1200q-190 -9 -350 -9q-165 0 -410 9q-16 0 -28 12t-12 28q-16 752 -16 1160zM253 2831q0 121 3 265q146 7 293 7q127 0 339 -7q16 0 28 -12t12 -28q3 -162 3 -296
q0 -120 -3 -264q-98 -5 -222 -5q-171 0 -410 13q-17 1 -28.5 12.5t-11.5 27.5q-3 158 -3 287z" />
    <glyph glyph-name="dotlessi" unicode="&#x131;" horiz-adv-x="1120" 
d="M184 1200q0 560 16 1200q190 9 350 9q165 0 410 -9q16 0 28 -12t12 -28q16 -752 16 -1160q0 -560 -16 -1200q-190 -9 -350 -9q-165 0 -410 9q-16 0 -28 12t-12 28q-16 752 -16 1160z" />
    <glyph glyph-name="IJ" unicode="&#x132;" horiz-adv-x="2856" 
d="M184 1200q0 560 16 1200q190 9 350 9q165 0 410 -9q16 0 28 -12t12 -28q16 -752 16 -1160q0 -560 -16 -1200q-190 -9 -350 -9q-165 0 -410 9q-16 0 -28 12t-12 28q-16 752 -16 1160zM1248 -16l30 656l397 -32q54 -5 90.5 0t73 28.5t58 69t34.5 126t13 196.5q0 362 4 685
q-306 6 -608 15q-16 0 -28 12t-12 28q-4 230 -4 328q0 161 4 304q190 9 878 9q297 0 542 -9q16 0 28 -12t12 -28q16 -752 16 -1311q0 -195 -26 -351.5t-73.5 -272.5t-122 -202t-162.5 -141.5t-204.5 -89t-238.5 -47t-273 -13.5q-30 0 -60 1t-52 2.5t-54 5.5t-47.5 5.5t-52 8
t-48.5 8.5t-56.5 10.5t-57.5 10.5z" />
    <glyph glyph-name="ij" unicode="&#x133;" horiz-adv-x="2856" 
d="M1248 -16l30 656l397 -32q54 -5 90.5 0t73 28.5t58 69t34.5 126t13 196.5q0 362 4 685q-306 6 -608 15q-16 0 -28 12t-12 28q-4 230 -4 328q0 161 4 304q190 9 878 9q297 0 542 -9q16 0 28 -12t12 -28q16 -752 16 -1311q0 -195 -26 -351.5t-73.5 -272.5t-122 -202
t-162.5 -141.5t-204.5 -89t-238.5 -47t-273 -13.5q-30 0 -60 1t-52 2.5t-54 5.5t-47.5 5.5t-52 8t-48.5 8.5t-56.5 10.5t-57.5 10.5zM184 1200q0 560 16 1200q190 9 350 9q165 0 410 -9q16 0 28 -12t12 -28q16 -752 16 -1160q0 -560 -16 -1200q-190 -9 -350 -9
q-165 0 -410 9q-16 0 -28 12t-12 28q-16 752 -16 1160z" />
    <glyph glyph-name="Jcircumflex" unicode="&#x134;" horiz-adv-x="1736" 
d="M128 -16l30 656l397 -32q54 -5 90.5 0t73 28.5t58 69t34.5 126t13 196.5q0 362 4 685q-306 6 -608 15q-16 0 -28 12t-12 28q-4 230 -4 328q0 161 4 304q190 9 878 9q297 0 542 -9q16 0 28 -12t12 -28q16 -752 16 -1311q0 -195 -26 -351.5t-73.5 -272.5t-122 -202
t-162.5 -141.5t-204.5 -89t-238.5 -47t-273 -13.5q-30 0 -60 1t-52 2.5t-54 5.5t-47.5 5.5t-52 8t-48.5 8.5t-56.5 10.5t-57.5 10.5zM51 2483q68 133 156.5 266.5t214.5 305.5q26 34 61 36q263 13 565 13q178 0 277 -1q147 -165 378 -472q3 -4 15.5 -19.5t22 -28t20.5 -27.5
t17 -26.5t6 -17.5q0 -17 -21 -17q-207 -7 -322 -7q-136 0 -286 7q-51 70 -98 146t-74 126.5t-72 137.5q-110 -221 -199 -382q-9 -17 -27 -28.5t-34 -11.5q-215 -7 -325 -7q-134 0 -275 7z" />
    <glyph glyph-name="jcircumflex" unicode="&#x135;" horiz-adv-x="1736" 
d="M128 -16l30 656l397 -32q54 -5 90.5 0t73 28.5t58 69t34.5 126t13 196.5q0 362 4 685q-306 6 -608 15q-16 0 -28 12t-12 28q-4 230 -4 328q0 161 4 304q190 9 878 9q297 0 542 -9q16 0 28 -12t12 -28q16 -752 16 -1311q0 -195 -26 -351.5t-73.5 -272.5t-122 -202
t-162.5 -141.5t-204.5 -89t-238.5 -47t-273 -13.5q-30 0 -60 1t-52 2.5t-54 5.5t-47.5 5.5t-52 8t-48.5 8.5t-56.5 10.5t-57.5 10.5zM51 2483q68 133 156.5 266.5t214.5 305.5q26 34 61 36q263 13 565 13q178 0 277 -1q147 -165 378 -472q3 -4 15.5 -19.5t22 -28t20.5 -27.5
t17 -26.5t6 -17.5q0 -17 -21 -17q-207 -7 -322 -7q-136 0 -286 7q-51 70 -98 146t-74 126.5t-72 137.5q-110 -221 -199 -382q-9 -17 -27 -28.5t-34 -11.5q-215 -7 -325 -7q-134 0 -275 7z" />
    <glyph glyph-name="Kcommaaccent" unicode="&#x136;" horiz-adv-x="2132" 
d="M184 1200q0 560 16 1200q190 9 350 9q165 0 410 -9q16 0 28 -12t12 -28q1 -47 1 -141q0 -100 -15 -660q14 0 43.5 0.5t44.5 0.5q37 112 133 389.5t143 420.5q6 17 24 28t37 12q151 10 321 10q215 0 399 -22q-123 -525 -338 -948q-118 -201 -312 -212v-6q102 -6 185 -61.5
t139 -150.5q176 -347 334 -1020q-184 -22 -419 -22q-170 0 -321 10q-19 1 -37 12t-24 28q-98 299 -278 951h-77q1 -33 10 -340.5t9 -467.5q0 -57 -2 -171q-190 -9 -350 -9q-165 0 -410 9q-16 0 -28 12t-12 28q-16 752 -16 1160zM863 -83q247 10 576 0q15 0 25.5 -8.5
t10.5 -20.5q0 -50 1 -129t1 -124q-13 -84 -70.5 -225t-91.5 -205q-142 -5 -297 -5q19 151 30 326q-99 0 -149 2q-15 1 -25.5 9t-10.5 20q-6 200 0 360z" />
    <glyph glyph-name="kcommaaccent" unicode="&#x137;" horiz-adv-x="2132" 
d="M184 1200q0 560 16 1200q190 9 350 9q165 0 410 -9q16 0 28 -12t12 -28q1 -47 1 -141q0 -100 -15 -660q14 0 43.5 0.5t44.5 0.5q37 112 133 389.5t143 420.5q6 17 24 28t37 12q151 10 321 10q215 0 399 -22q-123 -525 -338 -948q-118 -201 -312 -212v-6q102 -6 185 -61.5
t139 -150.5q176 -347 334 -1020q-184 -22 -419 -22q-170 0 -321 10q-19 1 -37 12t-24 28q-98 299 -278 951h-77q1 -33 10 -340.5t9 -467.5q0 -57 -2 -171q-190 -9 -350 -9q-165 0 -410 9q-16 0 -28 12t-12 28q-16 752 -16 1160zM863 -83q247 10 576 0q15 0 25.5 -8.5
t10.5 -20.5q0 -50 1 -129t1 -124q-13 -84 -70.5 -225t-91.5 -205q-142 -5 -297 -5q19 151 30 326q-99 0 -149 2q-15 1 -25.5 9t-10.5 20q-6 200 0 360z" />
    <glyph glyph-name="kgreenlandic" unicode="&#x138;" horiz-adv-x="2132" 
d="M184 1200q0 560 16 1200q190 9 350 9q165 0 410 -9q16 0 28 -12t12 -28q1 -47 1 -141q0 -100 -15 -660q14 0 43.5 0.5t44.5 0.5q37 112 133 389.5t143 420.5q6 17 24 28t37 12q151 10 321 10q215 0 399 -22q-123 -525 -338 -948q-118 -201 -312 -212v-6q102 -6 185 -61.5
t139 -150.5q176 -347 334 -1020q-184 -22 -419 -22q-170 0 -321 10q-19 1 -37 12t-24 28q-98 299 -278 951h-77q1 -33 10 -340.5t9 -467.5q0 -57 -2 -171q-190 -9 -350 -9q-165 0 -410 9q-16 0 -28 12t-12 28q-16 752 -16 1160z" />
    <glyph glyph-name="Lacute" unicode="&#x139;" horiz-adv-x="1640" 
d="M184 1200q0 560 16 1200q190 9 350 9q165 0 410 -9q16 0 28 -12t12 -28q16 -752 16 -1160q0 -266 -3 -519h17q365 0 610 -9q16 0 28 -12t12 -28q4 -244 4 -346q0 -157 -4 -294q-190 -9 -590 -9q-99 0 -421.5 6.5t-428.5 10.5q-16 0 -28 12t-12 28q-16 752 -16 1160z
M435 2521q0 15 71 125q124 200 309 454q150 7 322 7q160 0 366 -7q20 0 20 -17q0 -19 -81 -119q-55 -69 -195 -226t-210 -250q-293 0 -582 16q-20 2 -20 17z" />
    <glyph glyph-name="lacute" unicode="&#x13a;" horiz-adv-x="1640" 
d="M184 1200q0 560 16 1200q190 9 350 9q165 0 410 -9q16 0 28 -12t12 -28q16 -752 16 -1160q0 -266 -3 -519h17q365 0 610 -9q16 0 28 -12t12 -28q4 -244 4 -346q0 -157 -4 -294q-190 -9 -590 -9q-99 0 -421.5 6.5t-428.5 10.5q-16 0 -28 12t-12 28q-16 752 -16 1160z
M435 2521q0 15 71 125q124 200 309 454q150 7 322 7q160 0 366 -7q20 0 20 -17q0 -19 -81 -119q-55 -69 -195 -226t-210 -250q-293 0 -582 16q-20 2 -20 17z" />
    <glyph glyph-name="Lcommaaccent" unicode="&#x13b;" horiz-adv-x="1640" 
d="M184 1200q0 560 16 1200q190 9 350 9q165 0 410 -9q16 0 28 -12t12 -28q16 -752 16 -1160q0 -266 -3 -519h17q365 0 610 -9q16 0 28 -12t12 -28q4 -244 4 -346q0 -157 -4 -294q-190 -9 -590 -9q-99 0 -421.5 6.5t-428.5 10.5q-16 0 -28 12t-12 28q-16 752 -16 1160z
M665 -82q247 10 576 0q15 0 25.5 -8.5t10.5 -20.5q0 -50 1 -129t1 -124q-13 -84 -70.5 -225t-91.5 -205q-142 -5 -297 -5q19 151 30 326q-99 0 -149 2q-15 1 -25.5 9t-10.5 20q-6 200 0 360z" />
    <glyph glyph-name="lcommaaccent" unicode="&#x13c;" horiz-adv-x="1640" 
d="M184 1200q0 560 16 1200q190 9 350 9q165 0 410 -9q16 0 28 -12t12 -28q16 -752 16 -1160q0 -266 -3 -519h17q365 0 610 -9q16 0 28 -12t12 -28q4 -244 4 -346q0 -157 -4 -294q-190 -9 -590 -9q-99 0 -421.5 6.5t-428.5 10.5q-16 0 -28 12t-12 28q-16 752 -16 1160z
M665 -82q247 10 576 0q15 0 25.5 -8.5t10.5 -20.5q0 -50 1 -129t1 -124q-13 -84 -70.5 -225t-91.5 -205q-142 -5 -297 -5q19 151 30 326q-99 0 -149 2q-15 1 -25.5 9t-10.5 20q-6 200 0 360z" />
    <glyph glyph-name="Lcaron" unicode="&#x13d;" horiz-adv-x="1928" 
d="M184 1200q0 560 16 1200q190 9 350 9q165 0 410 -9q16 0 28 -12t12 -28q16 -752 16 -1160q0 -266 -3 -519h17q365 0 610 -9q16 0 28 -12t12 -28q4 -244 4 -346q0 -157 -4 -294q-190 -9 -590 -9q-99 0 -421.5 6.5t-428.5 10.5q-16 0 -28 12t-12 28q-16 752 -16 1160z
M1216 2146q0 131 3 275q146 7 296 7q132 0 344 -7q16 0 28 -12t12 -28q0 -69 1 -195.5t1 -188.5q-15 -120 -75.5 -362.5t-86.5 -313.5q-169 -8 -361 -8q0 22 6.5 226t9.5 267q-79 0 -135 3q-17 1 -28.5 12.5t-11.5 27.5q-3 157 -3 297z" />
    <glyph glyph-name="lcaron" unicode="&#x13e;" horiz-adv-x="1928" 
d="M184 1200q0 560 16 1200q190 9 350 9q165 0 410 -9q16 0 28 -12t12 -28q16 -752 16 -1160q0 -266 -3 -519h17q365 0 610 -9q16 0 28 -12t12 -28q4 -244 4 -346q0 -157 -4 -294q-190 -9 -590 -9q-99 0 -421.5 6.5t-428.5 10.5q-16 0 -28 12t-12 28q-16 752 -16 1160z
M1216 2146q0 131 3 275q146 7 296 7q132 0 344 -7q16 0 28 -12t12 -28q0 -69 1 -195.5t1 -188.5q-15 -120 -75.5 -362.5t-86.5 -313.5q-169 -8 -361 -8q0 22 6.5 226t9.5 267q-79 0 -135 3q-17 1 -28.5 12.5t-11.5 27.5q-3 157 -3 297z" />
    <glyph glyph-name="Lslash" unicode="&#x141;" horiz-adv-x="1760" 
d="M79 998q0 186 3 303q144 59 158 65q1 473 16 1034q190 9 350 9q165 0 410 -9q16 0 28 -12t12 -28q8 -323 12 -655q267 104 464 168q16 6 27 -2t12 -25q4 -122 4 -289q0 -177 -4 -338q-9 -4 -201 -83t-298 -122q-1 -113 -3 -333h41q382 0 634 -9q16 0 28 -12t12 -28
q4 -244 4 -346q0 -157 -4 -294q-196 -9 -614 -9q-100 0 -434.5 6.5t-439.5 10.5q-16 0 -28 12t-12 28q-8 325 -12 656q-14 -5 -39.5 -13.5t-45.5 -15t-38 -12.5q-16 -6 -27.5 2t-11.5 25q-3 150 -3 316z" />
    <glyph glyph-name="lslash" unicode="&#x142;" horiz-adv-x="1760" 
d="M79 998q0 186 3 303q144 59 158 65q1 473 16 1034q190 9 350 9q165 0 410 -9q16 0 28 -12t12 -28q8 -323 12 -655q267 104 464 168q16 6 27 -2t12 -25q4 -122 4 -289q0 -177 -4 -338q-9 -4 -201 -83t-298 -122q-1 -113 -3 -333h41q382 0 634 -9q16 0 28 -12t12 -28
q4 -244 4 -346q0 -157 -4 -294q-196 -9 -614 -9q-100 0 -434.5 6.5t-439.5 10.5q-16 0 -28 12t-12 28q-8 325 -12 656q-14 -5 -39.5 -13.5t-45.5 -15t-38 -12.5q-16 -6 -27.5 2t-11.5 25q-3 150 -3 316z" />
    <glyph glyph-name="Nacute" unicode="&#x143;" horiz-adv-x="2200" 
d="M184 1200q0 560 16 1200q190 9 330 9q119 0 346 -9q29 -1 44 -40l414 -1024l-14 1064q191 9 350 9q156 0 370 -9q17 -1 28.5 -12.5t11.5 -27.5q16 -752 16 -1160q0 -560 -16 -1200q-166 -9 -310 -9q-171 0 -366 9q-30 1 -44 40l-414 1024l14 -1064q-190 -9 -330 -9
q-158 0 -390 9q-17 1 -28.5 12.5t-11.5 27.5q-16 752 -16 1160zM787 2521q0 15 71 125q124 200 309 454q150 7 322 7q160 0 366 -7q20 0 20 -17q0 -19 -81 -119q-55 -69 -195 -226t-210 -250q-293 0 -582 16q-20 2 -20 17z" />
    <glyph glyph-name="nacute" unicode="&#x144;" horiz-adv-x="2200" 
d="M184 1200q0 560 16 1200q190 9 330 9q119 0 346 -9q29 -1 44 -40l414 -1024l-14 1064q191 9 350 9q156 0 370 -9q17 -1 28.5 -12.5t11.5 -27.5q16 -752 16 -1160q0 -560 -16 -1200q-166 -9 -310 -9q-171 0 -366 9q-30 1 -44 40l-414 1024l14 -1064q-190 -9 -330 -9
q-158 0 -390 9q-17 1 -28.5 12.5t-11.5 27.5q-16 752 -16 1160zM787 2521q0 15 71 125q124 200 309 454q150 7 322 7q160 0 366 -7q20 0 20 -17q0 -19 -81 -119q-55 -69 -195 -226t-210 -250q-293 0 -582 16q-20 2 -20 17z" />
    <glyph glyph-name="Ncommaaccent" unicode="&#x145;" horiz-adv-x="2200" 
d="M184 1200q0 560 16 1200q190 9 330 9q119 0 346 -9q29 -1 44 -40l414 -1024l-14 1064q191 9 350 9q156 0 370 -9q17 -1 28.5 -12.5t11.5 -27.5q16 -752 16 -1160q0 -560 -16 -1200q-166 -9 -310 -9q-171 0 -366 9q-30 1 -44 40l-414 1024l14 -1064q-190 -9 -330 -9
q-158 0 -390 9q-17 1 -28.5 12.5t-11.5 27.5q-16 752 -16 1160zM895 -82q247 10 576 0q15 0 25.5 -8.5t10.5 -20.5q0 -50 1 -129t1 -124q-13 -84 -70.5 -225t-91.5 -205q-142 -5 -297 -5q19 151 30 326q-99 0 -149 2q-15 1 -25.5 9t-10.5 20q-6 200 0 360z" />
    <glyph glyph-name="ncommaaccent" unicode="&#x146;" horiz-adv-x="2200" 
d="M184 1200q0 560 16 1200q190 9 330 9q119 0 346 -9q29 -1 44 -40l414 -1024l-14 1064q191 9 350 9q156 0 370 -9q17 -1 28.5 -12.5t11.5 -27.5q16 -752 16 -1160q0 -560 -16 -1200q-166 -9 -310 -9q-171 0 -366 9q-30 1 -44 40l-414 1024l14 -1064q-190 -9 -330 -9
q-158 0 -390 9q-17 1 -28.5 12.5t-11.5 27.5q-16 752 -16 1160zM895 -82q247 10 576 0q15 0 25.5 -8.5t10.5 -20.5q0 -50 1 -129t1 -124q-13 -84 -70.5 -225t-91.5 -205q-142 -5 -297 -5q19 151 30 326q-99 0 -149 2q-15 1 -25.5 9t-10.5 20q-6 200 0 360z" />
    <glyph glyph-name="Ncaron" unicode="&#x147;" horiz-adv-x="2200" 
d="M184 1200q0 560 16 1200q190 9 330 9q119 0 346 -9q29 -1 44 -40l414 -1024l-14 1064q191 9 350 9q156 0 370 -9q17 -1 28.5 -12.5t11.5 -27.5q16 -752 16 -1160q0 -560 -16 -1200q-166 -9 -310 -9q-171 0 -366 9q-30 1 -44 40l-414 1024l14 -1064q-190 -9 -330 -9
q-158 0 -390 9q-17 1 -28.5 12.5t-11.5 27.5q-16 752 -16 1160zM291 3085q141 7 275 7q110 0 325 -7q16 0 34 -11.5t27 -28.5q34 -65 100 -185.5t98 -182.5q132 257 245 412q150 7 286 7q115 0 322 -7q21 0 21 -17q0 -6 -10 -22.5t-27 -39.5t-32.5 -43.5t-34 -43.5
t-23.5 -30q-191 -254 -332 -412h-350q-236 0 -496 16q-35 2 -61 36q-82 108 -134 180t-119 176t-114 196z" />
    <glyph glyph-name="ncaron" unicode="&#x148;" horiz-adv-x="2200" 
d="M184 1200q0 560 16 1200q190 9 330 9q119 0 346 -9q29 -1 44 -40l414 -1024l-14 1064q191 9 350 9q156 0 370 -9q17 -1 28.5 -12.5t11.5 -27.5q16 -752 16 -1160q0 -560 -16 -1200q-166 -9 -310 -9q-171 0 -366 9q-30 1 -44 40l-414 1024l14 -1064q-190 -9 -330 -9
q-158 0 -390 9q-17 1 -28.5 12.5t-11.5 27.5q-16 752 -16 1160zM291 3085q141 7 275 7q110 0 325 -7q16 0 34 -11.5t27 -28.5q34 -65 100 -185.5t98 -182.5q132 257 245 412q150 7 286 7q115 0 322 -7q21 0 21 -17q0 -6 -10 -22.5t-27 -39.5t-32.5 -43.5t-34 -43.5
t-23.5 -30q-191 -254 -332 -412h-350q-236 0 -496 16q-35 2 -61 36q-82 108 -134 180t-119 176t-114 196z" />
    <glyph glyph-name="Omacron" unicode="&#x14c;" 
d="M104 1201q0 291 63 518.5t181.5 379.5t287 235t380.5 94q195 0 348 -26.5t280.5 -86t217.5 -154.5t152.5 -231t92 -317t29.5 -412q0 -291 -64 -518.5t-184.5 -379t-289.5 -234t-382 -93.5q-194 0 -346.5 26.5t-279 85.5t-216 153.5t-151 230.5t-90.5 316.5t-29 412.5z
M940 1201q0 -140 9.5 -238t24 -154.5t39.5 -87.5t50 -40t61 -9t60 9t48 40t37.5 87.5t22 154.5t8.5 238q0 116 -6 203.5t-19 144.5t-28 93.5t-38.5 54.5t-45 24.5t-51.5 6.5t-50.5 -6t-41.5 -24.5t-34.5 -55t-24.5 -94t-16 -144t-5 -203.5zM536 2825q0 115 4 259
q191 9 710 9q205 0 450 -9q16 0 27.5 -11.5t12.5 -28.5q2 -90 2 -263q0 -196 -2 -265q-196 -9 -550 -9q-148 0 -610 17q-16 0 -27.5 11.5t-12.5 28.5q-4 141 -4 261z" />
    <glyph glyph-name="omacron" unicode="&#x14d;" 
d="M104 1201q0 291 63 518.5t181.5 379.5t287 235t380.5 94q195 0 348 -26.5t280.5 -86t217.5 -154.5t152.5 -231t92 -317t29.5 -412q0 -291 -64 -518.5t-184.5 -379t-289.5 -234t-382 -93.5q-194 0 -346.5 26.5t-279 85.5t-216 153.5t-151 230.5t-90.5 316.5t-29 412.5z
M940 1201q0 -140 9.5 -238t24 -154.5t39.5 -87.5t50 -40t61 -9t60 9t48 40t37.5 87.5t22 154.5t8.5 238q0 116 -6 203.5t-19 144.5t-28 93.5t-38.5 54.5t-45 24.5t-51.5 6.5t-50.5 -6t-41.5 -24.5t-34.5 -55t-24.5 -94t-16 -144t-5 -203.5zM536 2825q0 115 4 259
q191 9 710 9q205 0 450 -9q16 0 27.5 -11.5t12.5 -28.5q2 -90 2 -263q0 -196 -2 -265q-196 -9 -550 -9q-148 0 -610 17q-16 0 -27.5 11.5t-12.5 28.5q-4 141 -4 261z" />
    <glyph glyph-name="Obreve" unicode="&#x14e;" 
d="M104 1201q0 291 63 518.5t181.5 379.5t287 235t380.5 94q195 0 348 -26.5t280.5 -86t217.5 -154.5t152.5 -231t92 -317t29.5 -412q0 -291 -64 -518.5t-184.5 -379t-289.5 -234t-382 -93.5q-194 0 -346.5 26.5t-279 85.5t-216 153.5t-151 230.5t-90.5 316.5t-29 412.5z
M940 1201q0 -140 9.5 -238t24 -154.5t39.5 -87.5t50 -40t61 -9t60 9t48 40t37.5 87.5t22 154.5t8.5 238q0 116 -6 203.5t-19 144.5t-28 93.5t-38.5 54.5t-45 24.5t-51.5 6.5t-50.5 -6t-41.5 -24.5t-34.5 -55t-24.5 -94t-16 -144t-5 -203.5zM275 3103q141 7 271 7
q106 0 321 -7q17 0 35 -12t26 -28q37 -72 94.5 -109t121.5 -37q73 0 137 45.5t98 128.5q150 7 287 7q114 0 321 -7q17 0 17 -14q0 -25 -26.5 -89.5t-51.5 -106.5q-113 -192 -328 -299.5t-461 -107.5q-143 0 -278 38.5t-252.5 113.5t-205.5 198t-126 279z" />
    <glyph glyph-name="obreve" unicode="&#x14f;" 
d="M104 1201q0 291 63 518.5t181.5 379.5t287 235t380.5 94q195 0 348 -26.5t280.5 -86t217.5 -154.5t152.5 -231t92 -317t29.5 -412q0 -291 -64 -518.5t-184.5 -379t-289.5 -234t-382 -93.5q-194 0 -346.5 26.5t-279 85.5t-216 153.5t-151 230.5t-90.5 316.5t-29 412.5z
M940 1201q0 -140 9.5 -238t24 -154.5t39.5 -87.5t50 -40t61 -9t60 9t48 40t37.5 87.5t22 154.5t8.5 238q0 116 -6 203.5t-19 144.5t-28 93.5t-38.5 54.5t-45 24.5t-51.5 6.5t-50.5 -6t-41.5 -24.5t-34.5 -55t-24.5 -94t-16 -144t-5 -203.5zM275 3103q141 7 271 7
q106 0 321 -7q17 0 35 -12t26 -28q37 -72 94.5 -109t121.5 -37q73 0 137 45.5t98 128.5q150 7 287 7q114 0 321 -7q17 0 17 -14q0 -25 -26.5 -89.5t-51.5 -106.5q-113 -192 -328 -299.5t-461 -107.5q-143 0 -278 38.5t-252.5 113.5t-205.5 198t-126 279z" />
    <glyph glyph-name="Ohungarumlaut" unicode="&#x150;" 
d="M104 1201q0 291 63 518.5t181.5 379.5t287 235t380.5 94q195 0 348 -26.5t280.5 -86t217.5 -154.5t152.5 -231t92 -317t29.5 -412q0 -291 -64 -518.5t-184.5 -379t-289.5 -234t-382 -93.5q-194 0 -346.5 26.5t-279 85.5t-216 153.5t-151 230.5t-90.5 316.5t-29 412.5z
M940 1201q0 -140 9.5 -238t24 -154.5t39.5 -87.5t50 -40t61 -9t60 9t48 40t37.5 87.5t22 154.5t8.5 238q0 116 -6 203.5t-19 144.5t-28 93.5t-38.5 54.5t-45 24.5t-51.5 6.5t-50.5 -6t-41.5 -24.5t-34.5 -55t-24.5 -94t-16 -144t-5 -203.5zM1167 2521q0 9 12 31t36 58l24 37
q137 220 308 453q93 4 239 4q176 0 277 -4q20 0 20 -17q0 -22 -126 -178q-116 -144 -380 -417q-77 0 -390 16q-20 2 -20 17zM447 2521q0 5 5 16t14.5 26.5t17 28t18 29t13.5 20.5q130 209 312 459q93 4 239 4q176 0 277 -4q20 0 20 -17q0 -18 -104 -151q-126 -159 -402 -444
q-77 0 -390 16q-20 2 -20 17z" />
    <glyph glyph-name="ohungarumlaut" unicode="&#x151;" 
d="M104 1201q0 291 63 518.5t181.5 379.5t287 235t380.5 94q195 0 348 -26.5t280.5 -86t217.5 -154.5t152.5 -231t92 -317t29.5 -412q0 -291 -64 -518.5t-184.5 -379t-289.5 -234t-382 -93.5q-194 0 -346.5 26.5t-279 85.5t-216 153.5t-151 230.5t-90.5 316.5t-29 412.5z
M940 1201q0 -140 9.5 -238t24 -154.5t39.5 -87.5t50 -40t61 -9t60 9t48 40t37.5 87.5t22 154.5t8.5 238q0 116 -6 203.5t-19 144.5t-28 93.5t-38.5 54.5t-45 24.5t-51.5 6.5t-50.5 -6t-41.5 -24.5t-34.5 -55t-24.5 -94t-16 -144t-5 -203.5zM1167 2521q0 9 12 31t36 58l24 37
q137 220 308 453q93 4 239 4q176 0 277 -4q20 0 20 -17q0 -22 -126 -178q-116 -144 -380 -417q-77 0 -390 16q-20 2 -20 17zM447 2521q0 5 5 16t14.5 26.5t17 28t18 29t13.5 20.5q130 209 312 459q93 4 239 4q176 0 277 -4q20 0 20 -17q0 -18 -104 -151q-126 -159 -402 -444
q-77 0 -390 16q-20 2 -20 17z" />
    <glyph glyph-name="OE" unicode="&#x152;" horiz-adv-x="2896" 
d="M940 1201q0 -140 9.5 -238t24 -154.5t39.5 -87.5t50 -40t61 -9t60 9t48 40t37.5 87.5t22 154.5t8.5 238q0 116 -6 203.5t-19 144.5t-28 93.5t-38.5 54.5t-45 24.5t-51.5 6.5t-50.5 -6t-41.5 -24.5t-34.5 -55t-24.5 -94t-16 -144t-5 -203.5zM104 1201q0 291 63 516.5
t182 375.5t286.5 231t380.5 92q152 0 273 -16q215 9 821 9q453 0 698 -9q16 0 28 -12t12 -28q4 -244 4 -346q0 -157 -4 -294q-169 -8 -636 -8q-83 0 -150 1q0 -34 -0.5 -104t-0.5 -106q304 -2 475 -7q16 0 28 -12t12 -28q3 -164 3 -301q0 -123 -3 -267h-515
q0 -35 0.5 -104.5t0.5 -103.5h46q490 0 708 -8q16 0 28 -12t12 -28q4 -244 4 -346q0 -157 -4 -294q-190 -9 -686 -9q-314 0 -838 17q-55 -9 -116 -12q-234 0 -408 37.5t-311 123t-221.5 226t-128 345t-43.5 481.5z" />
    <glyph glyph-name="oe" unicode="&#x153;" horiz-adv-x="2896" 
d="M940 1201q0 -140 9.5 -238t24 -154.5t39.5 -87.5t50 -40t61 -9t60 9t48 40t37.5 87.5t22 154.5t8.5 238q0 116 -6 203.5t-19 144.5t-28 93.5t-38.5 54.5t-45 24.5t-51.5 6.5t-50.5 -6t-41.5 -24.5t-34.5 -55t-24.5 -94t-16 -144t-5 -203.5zM104 1201q0 291 63 516.5
t182 375.5t286.5 231t380.5 92q152 0 273 -16q215 9 821 9q453 0 698 -9q16 0 28 -12t12 -28q4 -244 4 -346q0 -157 -4 -294q-169 -8 -636 -8q-83 0 -150 1q0 -34 -0.5 -104t-0.5 -106q304 -2 475 -7q16 0 28 -12t12 -28q3 -164 3 -301q0 -123 -3 -267h-515
q0 -35 0.5 -104.5t0.5 -103.5h46q490 0 708 -8q16 0 28 -12t12 -28q4 -244 4 -346q0 -157 -4 -294q-190 -9 -686 -9q-314 0 -838 17q-55 -9 -116 -12q-234 0 -408 37.5t-311 123t-221.5 226t-128 345t-43.5 481.5z" />
    <glyph glyph-name="Racute" unicode="&#x154;" horiz-adv-x="2104" 
d="M192 1252q0 200 4 554t4 554q200 31 425.5 49.5t394.5 18.5q146 0 245 -4.5t213.5 -20t188.5 -44.5t148 -80t115.5 -124t67.5 -179t26 -243q0 -217 -112 -382t-312 -259q136 -47 221 -192q199 -391 318 -900q-184 -22 -419 -22q-170 0 -321 10q-19 1 -37 12t-24 28
q-195 592 -303 956h-53q2 -112 9.5 -459t8.5 -525q-164 -7 -351 -7q-169 0 -409 7q-17 0 -28.5 11.5t-11.5 28.5q0 185 -4 597t-4 615zM980 1476h68q95 0 153.5 47.5t58.5 125.5q0 98 -40 145.5t-142 47.5q-52 0 -96 -3q-2 -234 -2 -363zM683 2521q0 15 71 125
q124 200 309 454q150 7 322 7q160 0 366 -7q20 0 20 -17q0 -19 -81 -119q-55 -69 -195 -226t-210 -250q-293 0 -582 16q-20 2 -20 17z" />
    <glyph glyph-name="racute" unicode="&#x155;" horiz-adv-x="2104" 
d="M192 1252q0 200 4 554t4 554q200 31 425.5 49.5t394.5 18.5q146 0 245 -4.5t213.5 -20t188.5 -44.5t148 -80t115.5 -124t67.5 -179t26 -243q0 -217 -112 -382t-312 -259q136 -47 221 -192q199 -391 318 -900q-184 -22 -419 -22q-170 0 -321 10q-19 1 -37 12t-24 28
q-195 592 -303 956h-53q2 -112 9.5 -459t8.5 -525q-164 -7 -351 -7q-169 0 -409 7q-17 0 -28.5 11.5t-11.5 28.5q0 185 -4 597t-4 615zM980 1476h68q95 0 153.5 47.5t58.5 125.5q0 98 -40 145.5t-142 47.5q-52 0 -96 -3q-2 -234 -2 -363zM683 2521q0 15 71 125
q124 200 309 454q150 7 322 7q160 0 366 -7q20 0 20 -17q0 -19 -81 -119q-55 -69 -195 -226t-210 -250q-293 0 -582 16q-20 2 -20 17z" />
    <glyph glyph-name="Rcommaaccent" unicode="&#x156;" horiz-adv-x="2104" 
d="M192 1252q0 200 4 554t4 554q200 31 425.5 49.5t394.5 18.5q146 0 245 -4.5t213.5 -20t188.5 -44.5t148 -80t115.5 -124t67.5 -179t26 -243q0 -217 -112 -382t-312 -259q136 -47 221 -192q199 -391 318 -900q-184 -22 -419 -22q-170 0 -321 10q-19 1 -37 12t-24 28
q-195 592 -303 956h-53q2 -112 9.5 -459t8.5 -525q-164 -7 -351 -7q-169 0 -409 7q-17 0 -28.5 11.5t-11.5 28.5q0 185 -4 597t-4 615zM980 1476h68q95 0 153.5 47.5t58.5 125.5q0 98 -40 145.5t-142 47.5q-52 0 -96 -3q-2 -234 -2 -363zM859 -79q247 10 576 0
q15 0 25.5 -8.5t10.5 -20.5q0 -50 1 -129t1 -124q-13 -84 -70.5 -225t-91.5 -205q-142 -5 -297 -5q19 151 30 326q-99 0 -149 2q-15 1 -25.5 9t-10.5 20q-6 200 0 360z" />
    <glyph glyph-name="rcommaaccent" unicode="&#x157;" horiz-adv-x="2104" 
d="M192 1252q0 200 4 554t4 554q200 31 425.5 49.5t394.5 18.5q146 0 245 -4.5t213.5 -20t188.5 -44.5t148 -80t115.5 -124t67.5 -179t26 -243q0 -217 -112 -382t-312 -259q136 -47 221 -192q199 -391 318 -900q-184 -22 -419 -22q-170 0 -321 10q-19 1 -37 12t-24 28
q-195 592 -303 956h-53q2 -112 9.5 -459t8.5 -525q-164 -7 -351 -7q-169 0 -409 7q-17 0 -28.5 11.5t-11.5 28.5q0 185 -4 597t-4 615zM980 1476h68q95 0 153.5 47.5t58.5 125.5q0 98 -40 145.5t-142 47.5q-52 0 -96 -3q-2 -234 -2 -363zM859 -79q247 10 576 0
q15 0 25.5 -8.5t10.5 -20.5q0 -50 1 -129t1 -124q-13 -84 -70.5 -225t-91.5 -205q-142 -5 -297 -5q19 151 30 326q-99 0 -149 2q-15 1 -25.5 9t-10.5 20q-6 200 0 360z" />
    <glyph glyph-name="Rcaron" unicode="&#x158;" horiz-adv-x="2104" 
d="M192 1252q0 200 4 554t4 554q200 31 425.5 49.5t394.5 18.5q146 0 245 -4.5t213.5 -20t188.5 -44.5t148 -80t115.5 -124t67.5 -179t26 -243q0 -217 -112 -382t-312 -259q136 -47 221 -192q199 -391 318 -900q-184 -22 -419 -22q-170 0 -321 10q-19 1 -37 12t-24 28
q-195 592 -303 956h-53q2 -112 9.5 -459t8.5 -525q-164 -7 -351 -7q-169 0 -409 7q-17 0 -28.5 11.5t-11.5 28.5q0 185 -4 597t-4 615zM980 1476h68q95 0 153.5 47.5t58.5 125.5q0 98 -40 145.5t-142 47.5q-52 0 -96 -3q-2 -234 -2 -363zM187 3085q141 7 275 7q110 0 325 -7
q16 0 34 -11.5t27 -28.5q34 -65 100 -185.5t98 -182.5q132 257 245 412q150 7 286 7q115 0 322 -7q21 0 21 -17q0 -6 -10 -22.5t-27 -39.5t-32.5 -43.5t-34 -43.5t-23.5 -30q-191 -254 -332 -412h-350q-236 0 -496 16q-35 2 -61 36q-82 108 -134 180t-119 176t-114 196z" />
    <glyph glyph-name="rcaron" unicode="&#x159;" horiz-adv-x="2104" 
d="M192 1252q0 200 4 554t4 554q200 31 425.5 49.5t394.5 18.5q146 0 245 -4.5t213.5 -20t188.5 -44.5t148 -80t115.5 -124t67.5 -179t26 -243q0 -217 -112 -382t-312 -259q136 -47 221 -192q199 -391 318 -900q-184 -22 -419 -22q-170 0 -321 10q-19 1 -37 12t-24 28
q-195 592 -303 956h-53q2 -112 9.5 -459t8.5 -525q-164 -7 -351 -7q-169 0 -409 7q-17 0 -28.5 11.5t-11.5 28.5q0 185 -4 597t-4 615zM980 1476h68q95 0 153.5 47.5t58.5 125.5q0 98 -40 145.5t-142 47.5q-52 0 -96 -3q-2 -234 -2 -363zM187 3085q141 7 275 7q110 0 325 -7
q16 0 34 -11.5t27 -28.5q34 -65 100 -185.5t98 -182.5q132 257 245 412q150 7 286 7q115 0 322 -7q21 0 21 -17q0 -6 -10 -22.5t-27 -39.5t-32.5 -43.5t-34 -43.5t-23.5 -30q-191 -254 -332 -412h-350q-236 0 -496 16q-35 2 -61 36q-82 108 -134 180t-119 176t-114 196z" />
    <glyph glyph-name="Sacute" unicode="&#x15a;" horiz-adv-x="1968" 
d="M136 24l98 723q442 -139 709 -139q104 0 158.5 43.5t54.5 97.5q0 20 -8 36.5t-28.5 31t-39 25t-56 23t-62.5 20t-74 21.5q-89 25 -138.5 40.5t-140 52.5t-144.5 74.5t-123.5 102t-108 139.5t-66 182.5t-27.5 235.5q0 137 25 243t65.5 179t111.5 124t141.5 80t178 44.5
t200 20t226.5 4.5q329 0 772 -88l-90 -665q-153 69 -349 116t-372 47q-93 0 -147 -29.5t-54 -83.5q0 -17 8.5 -32t30.5 -29t42 -24.5t60 -24.5t66.5 -22l79.5 -24q246 -74 371 -134q328 -157 418 -430q36 -110 36 -240q0 -134 -26.5 -244t-73 -190.5t-116.5 -142
t-151 -100.5t-183 -63.5t-205.5 -34.5t-224.5 -10q-419 0 -844 44zM659 2521q0 15 71 125q124 200 309 454q150 7 322 7q160 0 366 -7q20 0 20 -17q0 -19 -81 -119q-55 -69 -195 -226t-210 -250q-293 0 -582 16q-20 2 -20 17z" />
    <glyph glyph-name="sacute" unicode="&#x15b;" horiz-adv-x="1968" 
d="M136 24l98 723q442 -139 709 -139q104 0 158.5 43.5t54.5 97.5q0 20 -8 36.5t-28.5 31t-39 25t-56 23t-62.5 20t-74 21.5q-89 25 -138.5 40.5t-140 52.5t-144.5 74.5t-123.5 102t-108 139.5t-66 182.5t-27.5 235.5q0 137 25 243t65.5 179t111.5 124t141.5 80t178 44.5
t200 20t226.5 4.5q329 0 772 -88l-90 -665q-153 69 -349 116t-372 47q-93 0 -147 -29.5t-54 -83.5q0 -17 8.5 -32t30.5 -29t42 -24.5t60 -24.5t66.5 -22l79.5 -24q246 -74 371 -134q328 -157 418 -430q36 -110 36 -240q0 -134 -26.5 -244t-73 -190.5t-116.5 -142
t-151 -100.5t-183 -63.5t-205.5 -34.5t-224.5 -10q-419 0 -844 44zM659 2521q0 15 71 125q124 200 309 454q150 7 322 7q160 0 366 -7q20 0 20 -17q0 -19 -81 -119q-55 -69 -195 -226t-210 -250q-293 0 -582 16q-20 2 -20 17z" />
    <glyph glyph-name="Scircumflex" unicode="&#x15c;" horiz-adv-x="1968" 
d="M136 24l98 723q442 -139 709 -139q104 0 158.5 43.5t54.5 97.5q0 20 -8 36.5t-28.5 31t-39 25t-56 23t-62.5 20t-74 21.5q-89 25 -138.5 40.5t-140 52.5t-144.5 74.5t-123.5 102t-108 139.5t-66 182.5t-27.5 235.5q0 137 25 243t65.5 179t111.5 124t141.5 80t178 44.5
t200 20t226.5 4.5q329 0 772 -88l-90 -665q-153 69 -349 116t-372 47q-93 0 -147 -29.5t-54 -83.5q0 -17 8.5 -32t30.5 -29t42 -24.5t60 -24.5t66.5 -22l79.5 -24q246 -74 371 -134q328 -157 418 -430q36 -110 36 -240q0 -134 -26.5 -244t-73 -190.5t-116.5 -142
t-151 -100.5t-183 -63.5t-205.5 -34.5t-224.5 -10q-419 0 -844 44zM163 2483q68 133 156.5 266.5t214.5 305.5q26 34 61 36q263 13 565 13q178 0 277 -1q147 -165 378 -472q3 -4 15.5 -19.5t22 -28t20.5 -27.5t17 -26.5t6 -17.5q0 -17 -21 -17q-207 -7 -322 -7
q-136 0 -286 7q-51 70 -98 146t-74 126.5t-72 137.5q-110 -221 -199 -382q-9 -17 -27 -28.5t-34 -11.5q-215 -7 -325 -7q-134 0 -275 7z" />
    <glyph glyph-name="scircumflex" unicode="&#x15d;" horiz-adv-x="1968" 
d="M136 24l98 723q442 -139 709 -139q104 0 158.5 43.5t54.5 97.5q0 20 -8 36.5t-28.5 31t-39 25t-56 23t-62.5 20t-74 21.5q-89 25 -138.5 40.5t-140 52.5t-144.5 74.5t-123.5 102t-108 139.5t-66 182.5t-27.5 235.5q0 137 25 243t65.5 179t111.5 124t141.5 80t178 44.5
t200 20t226.5 4.5q329 0 772 -88l-90 -665q-153 69 -349 116t-372 47q-93 0 -147 -29.5t-54 -83.5q0 -17 8.5 -32t30.5 -29t42 -24.5t60 -24.5t66.5 -22l79.5 -24q246 -74 371 -134q328 -157 418 -430q36 -110 36 -240q0 -134 -26.5 -244t-73 -190.5t-116.5 -142
t-151 -100.5t-183 -63.5t-205.5 -34.5t-224.5 -10q-419 0 -844 44zM163 2483q68 133 156.5 266.5t214.5 305.5q26 34 61 36q263 13 565 13q178 0 277 -1q147 -165 378 -472q3 -4 15.5 -19.5t22 -28t20.5 -27.5t17 -26.5t6 -17.5q0 -17 -21 -17q-207 -7 -322 -7
q-136 0 -286 7q-51 70 -98 146t-74 126.5t-72 137.5q-110 -221 -199 -382q-9 -17 -27 -28.5t-34 -11.5q-215 -7 -325 -7q-134 0 -275 7z" />
    <glyph glyph-name="Scedilla" unicode="&#x15e;" horiz-adv-x="1968" 
d="M136 24l98 723q442 -139 709 -139q104 0 158.5 43.5t54.5 97.5q0 20 -8 36.5t-28.5 31t-39 25t-56 23t-62.5 20t-74 21.5q-89 25 -138.5 40.5t-140 52.5t-144.5 74.5t-123.5 102t-108 139.5t-66 182.5t-27.5 235.5q0 137 25 243t65.5 179t111.5 124t141.5 80t178 44.5
t200 20t226.5 4.5q329 0 772 -88l-90 -665q-153 69 -349 116t-372 47q-93 0 -147 -29.5t-54 -83.5q0 -17 8.5 -32t30.5 -29t42 -24.5t60 -24.5t66.5 -22l79.5 -24q246 -74 371 -134q328 -157 418 -430q36 -110 36 -240q0 -160 -37.5 -285.5t-102.5 -210.5t-161.5 -144
t-206 -90.5t-244.5 -44.5q315 -133 315 -396q0 -177 -163.5 -285t-473.5 -108q-59 0 -102 3t-64.5 6.5t-67 12t-78.5 14.5l52 400l95 -12q79 -10 124 16t45 68q0 39 -41.5 69t-116.5 35l21 170q-308 9 -617 41z" />
    <glyph glyph-name="scedilla" unicode="&#x15f;" horiz-adv-x="1968" 
d="M136 24l98 723q442 -139 709 -139q104 0 158.5 43.5t54.5 97.5q0 20 -8 36.5t-28.5 31t-39 25t-56 23t-62.5 20t-74 21.5q-89 25 -138.5 40.5t-140 52.5t-144.5 74.5t-123.5 102t-108 139.5t-66 182.5t-27.5 235.5q0 137 25 243t65.5 179t111.5 124t141.5 80t178 44.5
t200 20t226.5 4.5q329 0 772 -88l-90 -665q-153 69 -349 116t-372 47q-93 0 -147 -29.5t-54 -83.5q0 -17 8.5 -32t30.5 -29t42 -24.5t60 -24.5t66.5 -22l79.5 -24q246 -74 371 -134q328 -157 418 -430q36 -110 36 -240q0 -160 -37.5 -285.5t-102.5 -210.5t-161.5 -144
t-206 -90.5t-244.5 -44.5q315 -133 315 -396q0 -177 -163.5 -285t-473.5 -108q-59 0 -102 3t-64.5 6.5t-67 12t-78.5 14.5l52 400l95 -12q79 -10 124 16t45 68q0 39 -41.5 69t-116.5 35l21 170q-308 9 -617 41z" />
    <glyph glyph-name="Scaron" unicode="&#x160;" horiz-adv-x="1968" 
d="M136 24l98 723q442 -139 709 -139q104 0 158.5 43.5t54.5 97.5q0 20 -8 36.5t-28.5 31t-39 25t-56 23t-62.5 20t-74 21.5q-89 25 -138.5 40.5t-140 52.5t-144.5 74.5t-123.5 102t-108 139.5t-66 182.5t-27.5 235.5q0 137 25 243t65.5 179t111.5 124t141.5 80t178 44.5
t200 20t226.5 4.5q329 0 772 -88l-90 -665q-153 69 -349 116t-372 47q-93 0 -147 -29.5t-54 -83.5q0 -17 8.5 -32t30.5 -29t42 -24.5t60 -24.5t66.5 -22l79.5 -24q246 -74 371 -134q328 -157 418 -430q36 -110 36 -240q0 -134 -26.5 -244t-73 -190.5t-116.5 -142
t-151 -100.5t-183 -63.5t-205.5 -34.5t-224.5 -10q-419 0 -844 44zM163 3085q141 7 275 7q110 0 325 -7q16 0 34 -11.5t27 -28.5q34 -65 100 -185.5t98 -182.5q132 257 245 412q150 7 286 7q115 0 322 -7q21 0 21 -17q0 -6 -10 -22.5t-27 -39.5t-32.5 -43.5t-34 -43.5
t-23.5 -30q-191 -254 -332 -412h-350q-236 0 -496 16q-35 2 -61 36q-82 108 -134 180t-119 176t-114 196z" />
    <glyph glyph-name="scaron" unicode="&#x161;" horiz-adv-x="1968" 
d="M136 24l98 723q442 -139 709 -139q104 0 158.5 43.5t54.5 97.5q0 20 -8 36.5t-28.5 31t-39 25t-56 23t-62.5 20t-74 21.5q-89 25 -138.5 40.5t-140 52.5t-144.5 74.5t-123.5 102t-108 139.5t-66 182.5t-27.5 235.5q0 137 25 243t65.5 179t111.5 124t141.5 80t178 44.5
t200 20t226.5 4.5q329 0 772 -88l-90 -665q-153 69 -349 116t-372 47q-93 0 -147 -29.5t-54 -83.5q0 -17 8.5 -32t30.5 -29t42 -24.5t60 -24.5t66.5 -22l79.5 -24q246 -74 371 -134q328 -157 418 -430q36 -110 36 -240q0 -134 -26.5 -244t-73 -190.5t-116.5 -142
t-151 -100.5t-183 -63.5t-205.5 -34.5t-224.5 -10q-419 0 -844 44zM163 3085q141 7 275 7q110 0 325 -7q16 0 34 -11.5t27 -28.5q34 -65 100 -185.5t98 -182.5q132 257 245 412q150 7 286 7q115 0 322 -7q21 0 21 -17q0 -6 -10 -22.5t-27 -39.5t-32.5 -43.5t-34 -43.5
t-23.5 -30q-191 -254 -332 -412h-350q-236 0 -496 16q-35 2 -61 36q-82 108 -134 180t-119 176t-114 196z" />
    <glyph glyph-name="Tcedilla" unicode="&#x162;" horiz-adv-x="1840" 
d="M60 2096q0 161 4 304q191 9 926 9q581 0 826 -9q16 0 28 -12t12 -28q4 -226 4 -340q0 -163 -4 -300q-65 -3 -484 -7q4 -216 4 -513q0 -560 -16 -1200q-152 -6 -194 -7q323 -133 323 -400q0 -177 -163 -285t-473 -108q-59 0 -102 3t-64.5 6.5t-67 12t-78.5 14.5l52 400
l95 -12q79 -10 123.5 16t44.5 68q0 39 -41 69t-116 35l22 184q-20 0 -60.5 2t-60.5 2q-16 0 -28 12t-12 28q-16 752 -16 1160q0 185 4 517q-230 5 -444 11q-16 0 -28 12t-12 28q-4 230 -4 328z" />
    <glyph glyph-name="tcedilla" unicode="&#x163;" horiz-adv-x="1840" 
d="M60 2096q0 161 4 304q191 9 926 9q581 0 826 -9q16 0 28 -12t12 -28q4 -226 4 -340q0 -163 -4 -300q-65 -3 -484 -7q4 -216 4 -513q0 -560 -16 -1200q-152 -6 -194 -7q323 -133 323 -400q0 -177 -163 -285t-473 -108q-59 0 -102 3t-64.5 6.5t-67 12t-78.5 14.5l52 400
l95 -12q79 -10 123.5 16t44.5 68q0 39 -41 69t-116 35l22 184q-20 0 -60.5 2t-60.5 2q-16 0 -28 12t-12 28q-16 752 -16 1160q0 185 4 517q-230 5 -444 11q-16 0 -28 12t-12 28q-4 230 -4 328z" />
    <glyph glyph-name="Tcaron" unicode="&#x164;" horiz-adv-x="1840" 
d="M60 2096q0 161 4 304q191 9 926 9q581 0 826 -9q16 0 28 -12t12 -28q4 -226 4 -340q0 -163 -4 -300q-65 -3 -484 -7q4 -216 4 -513q0 -560 -16 -1200q-190 -9 -350 -9q-165 0 -410 9q-16 0 -28 12t-12 28q-16 752 -16 1160q0 185 4 517q-230 5 -444 11q-16 0 -28 12
t-12 28q-4 230 -4 328zM99 3085q141 7 275 7q110 0 325 -7q16 0 34 -11.5t27 -28.5q34 -65 100 -185.5t98 -182.5q132 257 245 412q150 7 286 7q115 0 322 -7q21 0 21 -17q0 -6 -10 -22.5t-27 -39.5t-32.5 -43.5t-34 -43.5t-23.5 -30q-191 -254 -332 -412h-350
q-236 0 -496 16q-35 2 -61 36q-82 108 -134 180t-119 176t-114 196z" />
    <glyph glyph-name="tcaron" unicode="&#x165;" horiz-adv-x="1840" 
d="M60 2096q0 161 4 304q191 9 926 9q581 0 826 -9q16 0 28 -12t12 -28q4 -226 4 -340q0 -163 -4 -300q-65 -3 -484 -7q4 -216 4 -513q0 -560 -16 -1200q-190 -9 -350 -9q-165 0 -410 9q-16 0 -28 12t-12 28q-16 752 -16 1160q0 185 4 517q-230 5 -444 11q-16 0 -28 12
t-12 28q-4 230 -4 328zM99 3085q141 7 275 7q110 0 325 -7q16 0 34 -11.5t27 -28.5q34 -65 100 -185.5t98 -182.5q132 257 245 412q150 7 286 7q115 0 322 -7q21 0 21 -17q0 -6 -10 -22.5t-27 -39.5t-32.5 -43.5t-34 -43.5t-23.5 -30q-191 -254 -332 -412h-350
q-236 0 -496 16q-35 2 -61 36q-82 108 -134 180t-119 176t-114 196z" />
    <glyph glyph-name="Tbar" unicode="&#x166;" horiz-adv-x="1840" 
d="M60 2096q0 161 4 304q191 9 926 9q581 0 826 -9q16 0 28 -12t12 -28q4 -226 4 -340q0 -163 -4 -300q-65 -3 -484 -7q1 -35 1.5 -105.5t0.5 -106.5q124 -1 214 -5q16 0 27.5 -11.5t12.5 -28.5q6 -207 0 -456q-16 -1 -253 -5q-3 -497 -15 -995q-190 -9 -350 -9
q-165 0 -410 9q-16 0 -28 12t-12 28q-13 562 -15 961q-41 1 -114 3.5t-99 3.5q-16 0 -27.5 11.5t-12.5 28.5q-4 182 -4 216.5t4 231.5q119 5 253 6q1 73 3 215q-230 5 -444 11q-16 0 -28 12t-12 28q-4 230 -4 328z" />
    <glyph glyph-name="tbar" unicode="&#x167;" horiz-adv-x="1840" 
d="M60 2096q0 161 4 304q191 9 926 9q581 0 826 -9q16 0 28 -12t12 -28q4 -226 4 -340q0 -163 -4 -300q-65 -3 -484 -7q1 -35 1.5 -105.5t0.5 -106.5q124 -1 214 -5q16 0 27.5 -11.5t12.5 -28.5q6 -207 0 -456q-16 -1 -253 -5q-3 -497 -15 -995q-190 -9 -350 -9
q-165 0 -410 9q-16 0 -28 12t-12 28q-13 562 -15 961q-41 1 -114 3.5t-99 3.5q-16 0 -27.5 11.5t-12.5 28.5q-4 182 -4 216.5t4 231.5q119 5 253 6q1 73 3 215q-230 5 -444 11q-16 0 -28 12t-12 28q-4 230 -4 328z" />
    <glyph glyph-name="Utilde" unicode="&#x168;" horiz-adv-x="2112" 
d="M108 1185q0 575 16 1215q190 9 350 9q165 0 410 -9q16 0 28 -12t12 -28q16 -752 16 -1296q0 -131 9 -213t31 -124.5t49 -56.5t71 -14q59 0 89 27t46.5 116.5t16.5 265.5q0 695 16 1335q191 9 350 9q165 0 410 -9q16 0 28 -12t12 -28q16 -752 16 -1175q0 -257 -39 -457
t-112 -340.5t-183.5 -233.5t-247.5 -139t-310 -55q-141 0 -254 11.5t-219 38.5t-187 72.5t-151.5 113t-119.5 160t-84.5 213.5t-52 274.5t-16.5 341.5zM304 2915q0 24 20 35q160 100 265 139.5t199 42.5q92 0 255.5 -52t248.5 -52q135 0 363 117q91 -149 170 -292
q6 -12 27.5 -49.5t30.5 -56t9 -26.5q0 -23 -20 -36q-288 -197 -488 -197q-86 0 -233 44t-231 44q-145 0 -363 -113q-72 117 -163 280q-9 17 -24 43t-25 43.5t-20.5 36.5t-15.5 31.5t-5 17.5z" />
    <glyph glyph-name="utilde" unicode="&#x169;" horiz-adv-x="2112" 
d="M108 1185q0 575 16 1215q190 9 350 9q165 0 410 -9q16 0 28 -12t12 -28q16 -752 16 -1296q0 -131 9 -213t31 -124.5t49 -56.5t71 -14q59 0 89 27t46.5 116.5t16.5 265.5q0 695 16 1335q191 9 350 9q165 0 410 -9q16 0 28 -12t12 -28q16 -752 16 -1175q0 -257 -39 -457
t-112 -340.5t-183.5 -233.5t-247.5 -139t-310 -55q-141 0 -254 11.5t-219 38.5t-187 72.5t-151.5 113t-119.5 160t-84.5 213.5t-52 274.5t-16.5 341.5zM304 2915q0 24 20 35q160 100 265 139.5t199 42.5q92 0 255.5 -52t248.5 -52q135 0 363 117q91 -149 170 -292
q6 -12 27.5 -49.5t30.5 -56t9 -26.5q0 -23 -20 -36q-288 -197 -488 -197q-86 0 -233 44t-231 44q-145 0 -363 -113q-72 117 -163 280q-9 17 -24 43t-25 43.5t-20.5 36.5t-15.5 31.5t-5 17.5z" />
    <glyph glyph-name="Umacron" unicode="&#x16a;" horiz-adv-x="2112" 
d="M108 1185q0 575 16 1215q190 9 350 9q165 0 410 -9q16 0 28 -12t12 -28q16 -752 16 -1296q0 -131 9 -213t31 -124.5t49 -56.5t71 -14q59 0 89 27t46.5 116.5t16.5 265.5q0 695 16 1335q191 9 350 9q165 0 410 -9q16 0 28 -12t12 -28q16 -752 16 -1175q0 -257 -39 -457
t-112 -340.5t-183.5 -233.5t-247.5 -139t-310 -55q-141 0 -254 11.5t-219 38.5t-187 72.5t-151.5 113t-119.5 160t-84.5 213.5t-52 274.5t-16.5 341.5zM496 2825q0 115 4 259q191 9 710 9q205 0 450 -9q16 0 27.5 -11.5t12.5 -28.5q2 -90 2 -263q0 -196 -2 -265
q-196 -9 -550 -9q-148 0 -610 17q-16 0 -27.5 11.5t-12.5 28.5q-4 141 -4 261z" />
    <glyph glyph-name="umacron" unicode="&#x16b;" horiz-adv-x="2112" 
d="M108 1185q0 575 16 1215q190 9 350 9q165 0 410 -9q16 0 28 -12t12 -28q16 -752 16 -1296q0 -131 9 -213t31 -124.5t49 -56.5t71 -14q59 0 89 27t46.5 116.5t16.5 265.5q0 695 16 1335q191 9 350 9q165 0 410 -9q16 0 28 -12t12 -28q16 -752 16 -1175q0 -257 -39 -457
t-112 -340.5t-183.5 -233.5t-247.5 -139t-310 -55q-141 0 -254 11.5t-219 38.5t-187 72.5t-151.5 113t-119.5 160t-84.5 213.5t-52 274.5t-16.5 341.5zM496 2825q0 115 4 259q191 9 710 9q205 0 450 -9q16 0 27.5 -11.5t12.5 -28.5q2 -90 2 -263q0 -196 -2 -265
q-196 -9 -550 -9q-148 0 -610 17q-16 0 -27.5 11.5t-12.5 28.5q-4 141 -4 261z" />
    <glyph glyph-name="Ubreve" unicode="&#x16c;" horiz-adv-x="2112" 
d="M108 1185q0 575 16 1215q190 9 350 9q165 0 410 -9q16 0 28 -12t12 -28q16 -752 16 -1296q0 -131 9 -213t31 -124.5t49 -56.5t71 -14q59 0 89 27t46.5 116.5t16.5 265.5q0 695 16 1335q191 9 350 9q165 0 410 -9q16 0 28 -12t12 -28q16 -752 16 -1175q0 -257 -39 -457
t-112 -340.5t-183.5 -233.5t-247.5 -139t-310 -55q-141 0 -254 11.5t-219 38.5t-187 72.5t-151.5 113t-119.5 160t-84.5 213.5t-52 274.5t-16.5 341.5zM235 3103q141 7 271 7q106 0 321 -7q17 0 35 -12t26 -28q37 -72 94.5 -109t121.5 -37q73 0 137 45.5t98 128.5
q150 7 287 7q114 0 321 -7q17 0 17 -14q0 -25 -26.5 -89.5t-51.5 -106.5q-113 -192 -328 -299.5t-461 -107.5q-143 0 -278 38.5t-252.5 113.5t-205.5 198t-126 279z" />
    <glyph glyph-name="ubreve" unicode="&#x16d;" horiz-adv-x="2112" 
d="M108 1185q0 575 16 1215q190 9 350 9q165 0 410 -9q16 0 28 -12t12 -28q16 -752 16 -1296q0 -131 9 -213t31 -124.5t49 -56.5t71 -14q59 0 89 27t46.5 116.5t16.5 265.5q0 695 16 1335q191 9 350 9q165 0 410 -9q16 0 28 -12t12 -28q16 -752 16 -1175q0 -257 -39 -457
t-112 -340.5t-183.5 -233.5t-247.5 -139t-310 -55q-141 0 -254 11.5t-219 38.5t-187 72.5t-151.5 113t-119.5 160t-84.5 213.5t-52 274.5t-16.5 341.5zM235 3103q141 7 271 7q106 0 321 -7q17 0 35 -12t26 -28q37 -72 94.5 -109t121.5 -37q73 0 137 45.5t98 128.5
q150 7 287 7q114 0 321 -7q17 0 17 -14q0 -25 -26.5 -89.5t-51.5 -106.5q-113 -192 -328 -299.5t-461 -107.5q-143 0 -278 38.5t-252.5 113.5t-205.5 198t-126 279z" />
    <glyph glyph-name="Uring" unicode="&#x16e;" horiz-adv-x="2112" 
d="M108 1185q0 575 16 1215q190 9 350 9q165 0 410 -9q16 0 28 -12t12 -28q16 -752 16 -1296q0 -131 9 -213t31 -124.5t49 -56.5t71 -14q59 0 89 27t46.5 116.5t16.5 265.5q0 695 16 1335q191 9 350 9q165 0 410 -9q16 0 28 -12t12 -28q16 -752 16 -1175q0 -257 -39 -457
t-112 -340.5t-183.5 -233.5t-247.5 -139t-310 -55q-141 0 -254 11.5t-219 38.5t-187 72.5t-151.5 113t-119.5 160t-84.5 213.5t-52 274.5t-16.5 341.5zM683 2757q0 164 101 263.5t271 107.5q247 0 350.5 -88.5t103.5 -282.5q0 -164 -98 -262.5t-267 -106.5q-248 0 -354.5 88
t-106.5 281zM1016 2757q0 -53 18 -71.5t62 -18.5q42 0 61 18t19 72t-21 71.5t-68 17.5q-35 0 -53 -18.5t-18 -70.5z" />
    <glyph glyph-name="uring" unicode="&#x16f;" horiz-adv-x="2112" 
d="M108 1185q0 575 16 1215q190 9 350 9q165 0 410 -9q16 0 28 -12t12 -28q16 -752 16 -1296q0 -131 9 -213t31 -124.5t49 -56.5t71 -14q59 0 89 27t46.5 116.5t16.5 265.5q0 695 16 1335q191 9 350 9q165 0 410 -9q16 0 28 -12t12 -28q16 -752 16 -1175q0 -257 -39 -457
t-112 -340.5t-183.5 -233.5t-247.5 -139t-310 -55q-141 0 -254 11.5t-219 38.5t-187 72.5t-151.5 113t-119.5 160t-84.5 213.5t-52 274.5t-16.5 341.5zM683 2757q0 164 101 263.5t271 107.5q247 0 350.5 -88.5t103.5 -282.5q0 -164 -98 -262.5t-267 -106.5q-248 0 -354.5 88
t-106.5 281zM1016 2757q0 -53 18 -71.5t62 -18.5q42 0 61 18t19 72t-21 71.5t-68 17.5q-35 0 -53 -18.5t-18 -70.5z" />
    <glyph glyph-name="Uhungarumlaut" unicode="&#x170;" horiz-adv-x="2112" 
d="M108 1185q0 575 16 1215q190 9 350 9q165 0 410 -9q16 0 28 -12t12 -28q16 -752 16 -1296q0 -131 9 -213t31 -124.5t49 -56.5t71 -14q59 0 89 27t46.5 116.5t16.5 265.5q0 695 16 1335q191 9 350 9q165 0 410 -9q16 0 28 -12t12 -28q16 -752 16 -1175q0 -257 -39 -457
t-112 -340.5t-183.5 -233.5t-247.5 -139t-310 -55q-141 0 -254 11.5t-219 38.5t-187 72.5t-151.5 113t-119.5 160t-84.5 213.5t-52 274.5t-16.5 341.5zM1127 2521q0 9 12 31t36 58l24 37q137 220 308 453q93 4 239 4q176 0 277 -4q20 0 20 -17q0 -22 -126 -178
q-116 -144 -380 -417q-77 0 -390 16q-20 2 -20 17zM407 2521q0 5 5 16t14.5 26.5t17 28t18 29t13.5 20.5q130 209 312 459q93 4 239 4q176 0 277 -4q20 0 20 -17q0 -18 -104 -151q-126 -159 -402 -444q-77 0 -390 16q-20 2 -20 17z" />
    <glyph glyph-name="uhungarumlaut" unicode="&#x171;" horiz-adv-x="2112" 
d="M108 1185q0 575 16 1215q190 9 350 9q165 0 410 -9q16 0 28 -12t12 -28q16 -752 16 -1296q0 -131 9 -213t31 -124.5t49 -56.5t71 -14q59 0 89 27t46.5 116.5t16.5 265.5q0 695 16 1335q191 9 350 9q165 0 410 -9q16 0 28 -12t12 -28q16 -752 16 -1175q0 -257 -39 -457
t-112 -340.5t-183.5 -233.5t-247.5 -139t-310 -55q-141 0 -254 11.5t-219 38.5t-187 72.5t-151.5 113t-119.5 160t-84.5 213.5t-52 274.5t-16.5 341.5zM1127 2521q0 9 12 31t36 58l24 37q137 220 308 453q93 4 239 4q176 0 277 -4q20 0 20 -17q0 -22 -126 -178
q-116 -144 -380 -417q-77 0 -390 16q-20 2 -20 17zM407 2521q0 5 5 16t14.5 26.5t17 28t18 29t13.5 20.5q130 209 312 459q93 4 239 4q176 0 277 -4q20 0 20 -17q0 -18 -104 -151q-126 -159 -402 -444q-77 0 -390 16q-20 2 -20 17z" />
    <glyph glyph-name="Uogonek" unicode="&#x172;" horiz-adv-x="2112" 
d="M108 1185q0 575 16 1215q190 9 350 9q165 0 410 -9q16 0 28 -12t12 -28q16 -752 16 -1296q0 -131 9 -213t31 -124.5t49 -56.5t71 -14q59 0 89 27t46.5 116.5t16.5 265.5q0 695 16 1335q191 9 350 9q165 0 410 -9q16 0 28 -12t12 -28q16 -752 16 -1175q0 -278 -45 -489.5
t-133.5 -355t-212 -229.5t-289.5 -123q-61 -14 -92.5 -44t-31.5 -68q0 -40 38.5 -68.5t103.5 -28.5q18 0 37 3l195 24l72 -560q-134 -26 -206 -35t-186 -9q-139 0 -259.5 36t-204 97t-131 143t-47.5 173q0 175 165 331q-154 23 -269.5 73.5t-208.5 141.5t-151.5 225t-89 324
t-30.5 439z" />
    <glyph glyph-name="uogonek" unicode="&#x173;" horiz-adv-x="2112" 
d="M108 1185q0 575 16 1215q190 9 350 9q165 0 410 -9q16 0 28 -12t12 -28q16 -752 16 -1296q0 -131 9 -213t31 -124.5t49 -56.5t71 -14q59 0 89 27t46.5 116.5t16.5 265.5q0 695 16 1335q191 9 350 9q165 0 410 -9q16 0 28 -12t12 -28q16 -752 16 -1175q0 -278 -45 -489.5
t-133.5 -355t-212 -229.5t-289.5 -123q-61 -14 -92.5 -44t-31.5 -68q0 -40 38.5 -68.5t103.5 -28.5q18 0 37 3l195 24l72 -560q-134 -26 -206 -35t-186 -9q-139 0 -259.5 36t-204 97t-131 143t-47.5 173q0 175 165 331q-154 23 -269.5 73.5t-208.5 141.5t-151.5 225t-89 324
t-30.5 439z" />
    <glyph glyph-name="Wcircumflex" unicode="&#x174;" horiz-adv-x="2728" 
d="M23 2400q189 9 364 9q255 0 392 -9q17 -1 31 -12.5t17 -27.5q74 -375 155 -1007q153 629 254 923l188 8l184 -8q104 -291 253 -907q90 688 146 1031q192 9 319 9q182 0 425 -9q15 0 24 -9.5t9 -24.5q0 -3 -18 -126q-161 -1103 -455 -2240q-256 -12 -587 -12
q-41 145 -148 470t-155 502q-47 -165 -159 -487.5t-158 -484.5q-232 0 -561 12q-16 0 -29 11.5t-18 28.5q-325 1278 -473 2360zM559 2483q68 133 156.5 266.5t214.5 305.5q26 34 61 36q263 13 565 13q178 0 277 -1q147 -165 378 -472q3 -4 15.5 -19.5t22 -28t20.5 -27.5
t17 -26.5t6 -17.5q0 -17 -21 -17q-207 -7 -322 -7q-136 0 -286 7q-51 70 -98 146t-74 126.5t-72 137.5q-110 -221 -199 -382q-9 -17 -27 -28.5t-34 -11.5q-215 -7 -325 -7q-134 0 -275 7z" />
    <glyph glyph-name="wcircumflex" unicode="&#x175;" horiz-adv-x="2728" 
d="M23 2400q189 9 364 9q255 0 392 -9q17 -1 31 -12.5t17 -27.5q74 -375 155 -1007q153 629 254 923l188 8l184 -8q104 -291 253 -907q90 688 146 1031q192 9 319 9q182 0 425 -9q15 0 24 -9.5t9 -24.5q0 -3 -18 -126q-161 -1103 -455 -2240q-256 -12 -587 -12
q-41 145 -148 470t-155 502q-47 -165 -159 -487.5t-158 -484.5q-232 0 -561 12q-16 0 -29 11.5t-18 28.5q-325 1278 -473 2360zM559 2483q68 133 156.5 266.5t214.5 305.5q26 34 61 36q263 13 565 13q178 0 277 -1q147 -165 378 -472q3 -4 15.5 -19.5t22 -28t20.5 -27.5
t17 -26.5t6 -17.5q0 -17 -21 -17q-207 -7 -322 -7q-136 0 -286 7q-51 70 -98 146t-74 126.5t-72 137.5q-110 -221 -199 -382q-9 -17 -27 -28.5t-34 -11.5q-215 -7 -325 -7q-134 0 -275 7z" />
    <glyph glyph-name="Ycircumflex" unicode="&#x176;" horiz-adv-x="2100" 
d="M32 2386q184 22 419 22q170 0 321 -10q19 -1 37 -12t24 -28q95 -291 256 -872q155 561 257 872q6 17 24 28t37 12q151 10 321 10q235 0 419 -22q-158 -673 -334 -1020q-125 -214 -323 -377q8 -661 10 -989q-190 -9 -358 -9q-173 0 -418 9q-16 0 -28 12t-12 28
q0 299 6 949q-201 166 -325 377q-174 343 -333 1020zM227 2483q68 133 156.5 266.5t214.5 305.5q26 34 61 36q263 13 565 13q178 0 277 -1q147 -165 378 -472q3 -4 15.5 -19.5t22 -28t20.5 -27.5t17 -26.5t6 -17.5q0 -17 -21 -17q-207 -7 -322 -7q-136 0 -286 7
q-51 70 -98 146t-74 126.5t-72 137.5q-110 -221 -199 -382q-9 -17 -27 -28.5t-34 -11.5q-215 -7 -325 -7q-134 0 -275 7z" />
    <glyph glyph-name="ycircumflex" unicode="&#x177;" horiz-adv-x="2100" 
d="M32 2386q184 22 419 22q170 0 321 -10q19 -1 37 -12t24 -28q95 -291 256 -872q155 561 257 872q6 17 24 28t37 12q151 10 321 10q235 0 419 -22q-158 -673 -334 -1020q-125 -214 -323 -377q8 -661 10 -989q-190 -9 -358 -9q-173 0 -418 9q-16 0 -28 12t-12 28
q0 299 6 949q-201 166 -325 377q-174 343 -333 1020zM227 2483q68 133 156.5 266.5t214.5 305.5q26 34 61 36q263 13 565 13q178 0 277 -1q147 -165 378 -472q3 -4 15.5 -19.5t22 -28t20.5 -27.5t17 -26.5t6 -17.5q0 -17 -21 -17q-207 -7 -322 -7q-136 0 -286 7
q-51 70 -98 146t-74 126.5t-72 137.5q-110 -221 -199 -382q-9 -17 -27 -28.5t-34 -11.5q-215 -7 -325 -7q-134 0 -275 7z" />
    <glyph glyph-name="Ydieresis" unicode="&#x178;" horiz-adv-x="2100" 
d="M32 2386q184 22 419 22q170 0 321 -10q19 -1 37 -12t24 -28q95 -291 256 -872q155 561 257 872q6 17 24 28t37 12q151 10 321 10q235 0 419 -22q-158 -673 -334 -1020q-125 -214 -323 -377q8 -661 10 -989q-190 -9 -358 -9q-173 0 -418 9q-16 0 -28 12t-12 28
q0 299 6 949q-201 166 -325 377q-174 343 -333 1020zM1221 2831q0 113 3 257q119 6 265 6q157 0 311 -6q16 0 28 -12t12 -28q3 -162 3 -288q0 -112 -3 -256q-120 -5 -203 -5q-139 0 -373 13q-17 1 -28.5 12.5t-11.5 27.5q-3 158 -3 279zM333 2831q0 113 3 257q119 6 273 6
q149 0 303 -6q16 0 28 -12t12 -28q3 -162 3 -288q0 -112 -3 -256q-120 -5 -203 -5q-139 0 -373 13q-17 1 -28.5 12.5t-11.5 27.5q-3 157 -3 279z" />
    <glyph glyph-name="Zacute" unicode="&#x179;" horiz-adv-x="1776" 
d="M116 2096q0 161 4 304q190 9 870 9q453 0 698 -9q16 0 28 -12t12 -28v-400q-389 -765 -707 -1279q484 -3 675 -9q16 0 28 -12t12 -28q4 -240 4 -344q0 -159 -4 -296q-190 -9 -686 -9q-100 0 -443 6.5t-447 10.5q-16 0 -28 12t-12 28q-3 129 -3 245q0 107 3 227
q93 183 197.5 365.5t278 467t223.5 369.5q-462 8 -659 14q-16 0 -28 12t-12 28q-4 230 -4 328zM587 2521q0 15 71 125q124 200 309 454q150 7 322 7q160 0 366 -7q20 0 20 -17q0 -19 -81 -119q-55 -69 -195 -226t-210 -250q-293 0 -582 16q-20 2 -20 17z" />
    <glyph glyph-name="zacute" unicode="&#x17a;" horiz-adv-x="1776" 
d="M116 2096q0 161 4 304q190 9 870 9q453 0 698 -9q16 0 28 -12t12 -28v-400q-389 -765 -707 -1279q484 -3 675 -9q16 0 28 -12t12 -28q4 -240 4 -344q0 -159 -4 -296q-190 -9 -686 -9q-100 0 -443 6.5t-447 10.5q-16 0 -28 12t-12 28q-3 129 -3 245q0 107 3 227
q93 183 197.5 365.5t278 467t223.5 369.5q-462 8 -659 14q-16 0 -28 12t-12 28q-4 230 -4 328zM587 2521q0 15 71 125q124 200 309 454q150 7 322 7q160 0 366 -7q20 0 20 -17q0 -19 -81 -119q-55 -69 -195 -226t-210 -250q-293 0 -582 16q-20 2 -20 17z" />
    <glyph glyph-name="Zdotaccent" unicode="&#x17b;" horiz-adv-x="1776" 
d="M116 2096q0 161 4 304q190 9 870 9q453 0 698 -9q16 0 28 -12t12 -28v-400q-389 -765 -707 -1279q484 -3 675 -9q16 0 28 -12t12 -28q4 -240 4 -344q0 -159 -4 -296q-190 -9 -686 -9q-100 0 -443 6.5t-447 10.5q-16 0 -28 12t-12 28q-3 129 -3 245q0 107 3 227
q93 183 197.5 365.5t278 467t223.5 369.5q-462 8 -659 14q-16 0 -28 12t-12 28q-4 230 -4 328zM613 2831q0 121 3 265q146 7 293 7q127 0 339 -7q16 0 28 -12t12 -28q3 -162 3 -296q0 -120 -3 -264q-98 -5 -222 -5q-171 0 -410 13q-17 1 -28.5 12.5t-11.5 27.5
q-3 158 -3 287z" />
    <glyph glyph-name="zdotaccent" unicode="&#x17c;" horiz-adv-x="1776" 
d="M116 2096q0 161 4 304q190 9 870 9q453 0 698 -9q16 0 28 -12t12 -28v-400q-389 -765 -707 -1279q484 -3 675 -9q16 0 28 -12t12 -28q4 -240 4 -344q0 -159 -4 -296q-190 -9 -686 -9q-100 0 -443 6.5t-447 10.5q-16 0 -28 12t-12 28q-3 129 -3 245q0 107 3 227
q93 183 197.5 365.5t278 467t223.5 369.5q-462 8 -659 14q-16 0 -28 12t-12 28q-4 230 -4 328zM613 2831q0 121 3 265q146 7 293 7q127 0 339 -7q16 0 28 -12t12 -28q3 -162 3 -296q0 -120 -3 -264q-98 -5 -222 -5q-171 0 -410 13q-17 1 -28.5 12.5t-11.5 27.5
q-3 158 -3 287z" />
    <glyph glyph-name="Zcaron" unicode="&#x17d;" horiz-adv-x="1776" 
d="M116 2096q0 161 4 304q190 9 870 9q453 0 698 -9q16 0 28 -12t12 -28v-400q-389 -765 -707 -1279q484 -3 675 -9q16 0 28 -12t12 -28q4 -240 4 -344q0 -159 -4 -296q-190 -9 -686 -9q-100 0 -443 6.5t-447 10.5q-16 0 -28 12t-12 28q-3 129 -3 245q0 107 3 227
q93 183 197.5 365.5t278 467t223.5 369.5q-462 8 -659 14q-16 0 -28 12t-12 28q-4 230 -4 328zM91 3085q141 7 275 7q110 0 325 -7q16 0 34 -11.5t27 -28.5q34 -65 100 -185.5t98 -182.5q132 257 245 412q150 7 286 7q115 0 322 -7q21 0 21 -17q0 -6 -10 -22.5t-27 -39.5
t-32.5 -43.5t-34 -43.5t-23.5 -30q-191 -254 -332 -412h-350q-236 0 -496 16q-35 2 -61 36q-82 108 -134 180t-119 176t-114 196z" />
    <glyph glyph-name="zcaron" unicode="&#x17e;" horiz-adv-x="1776" 
d="M116 2096q0 161 4 304q190 9 870 9q453 0 698 -9q16 0 28 -12t12 -28v-400q-389 -765 -707 -1279q484 -3 675 -9q16 0 28 -12t12 -28q4 -240 4 -344q0 -159 -4 -296q-190 -9 -686 -9q-100 0 -443 6.5t-447 10.5q-16 0 -28 12t-12 28q-3 129 -3 245q0 107 3 227
q93 183 197.5 365.5t278 467t223.5 369.5q-462 8 -659 14q-16 0 -28 12t-12 28q-4 230 -4 328zM91 3085q141 7 275 7q110 0 325 -7q16 0 34 -11.5t27 -28.5q34 -65 100 -185.5t98 -182.5q132 257 245 412q150 7 286 7q115 0 322 -7q21 0 21 -17q0 -6 -10 -22.5t-27 -39.5
t-32.5 -43.5t-34 -43.5t-23.5 -30q-191 -254 -332 -412h-350q-236 0 -496 16q-35 2 -61 36q-82 108 -134 180t-119 176t-114 196z" />
    <glyph glyph-name="uni01CD" unicode="&#x1cd;" horiz-adv-x="2080" 
d="M39 33q0 16 19 125q53 329 121 681.5t176 875t141 685.5q200 9 550 9q326 0 570 -9q16 0 30 -11.5t17 -28.5q44 -223 149.5 -729t180 -894.5t127.5 -736.5q-189 -9 -348 -9q-255 0 -392 9q-17 1 -30.5 12.5t-16.5 27.5q-45 230 -73 400h-371q-32 -214 -77 -440
q-192 -9 -331 -9q-166 0 -409 9q-15 0 -24 9.5t-9 23.5zM956 960h225q-24 164 -65 467.5t-59 429.5q-20 -163 -53 -467.5t-48 -429.5zM219 3085q141 7 275 7q110 0 325 -7q16 0 34 -11.5t27 -28.5q34 -65 100 -185.5t98 -182.5q132 257 245 412q150 7 286 7q115 0 322 -7
q21 0 21 -17q0 -6 -10 -22.5t-27 -39.5t-32.5 -43.5t-34 -43.5t-23.5 -30q-191 -254 -332 -412h-350q-236 0 -496 16q-35 2 -61 36q-82 108 -134 180t-119 176t-114 196z" />
    <glyph glyph-name="uni01CE" unicode="&#x1ce;" horiz-adv-x="2080" 
d="M39 33q0 16 19 125q53 329 121 681.5t176 875t141 685.5q200 9 550 9q326 0 570 -9q16 0 30 -11.5t17 -28.5q44 -223 149.5 -729t180 -894.5t127.5 -736.5q-189 -9 -348 -9q-255 0 -392 9q-17 1 -30.5 12.5t-16.5 27.5q-45 230 -73 400h-371q-32 -214 -77 -440
q-192 -9 -331 -9q-166 0 -409 9q-15 0 -24 9.5t-9 23.5zM956 960h225q-24 164 -65 467.5t-59 429.5q-20 -163 -53 -467.5t-48 -429.5zM219 3085q141 7 275 7q110 0 325 -7q16 0 34 -11.5t27 -28.5q34 -65 100 -185.5t98 -182.5q132 257 245 412q150 7 286 7q115 0 322 -7
q21 0 21 -17q0 -6 -10 -22.5t-27 -39.5t-32.5 -43.5t-34 -43.5t-23.5 -30q-191 -254 -332 -412h-350q-236 0 -496 16q-35 2 -61 36q-82 108 -134 180t-119 176t-114 196z" />
    <glyph glyph-name="uni01CF" unicode="&#x1cf;" horiz-adv-x="1120" 
d="M184 1200q0 560 16 1200q190 9 350 9q165 0 410 -9q16 0 28 -12t12 -28q16 -752 16 -1160q0 -560 -16 -1200q-190 -9 -350 -9q-165 0 -410 9q-16 0 -28 12t-12 28q-16 752 -16 1160zM-281 3085q141 7 275 7q110 0 325 -7q16 0 34 -11.5t27 -28.5q34 -65 100 -185.5
t98 -182.5q132 257 245 412q150 7 286 7q115 0 322 -7q21 0 21 -17q0 -6 -10 -22.5t-27 -39.5t-32.5 -43.5t-34 -43.5t-23.5 -30q-191 -254 -332 -412h-350q-236 0 -496 16q-35 2 -61 36q-82 108 -134 180t-119 176t-114 196z" />
    <glyph glyph-name="uni01D0" unicode="&#x1d0;" horiz-adv-x="1120" 
d="M184 1200q0 560 16 1200q190 9 350 9q165 0 410 -9q16 0 28 -12t12 -28q16 -752 16 -1160q0 -560 -16 -1200q-190 -9 -350 -9q-165 0 -410 9q-16 0 -28 12t-12 28q-16 752 -16 1160zM-281 3085q141 7 275 7q110 0 325 -7q16 0 34 -11.5t27 -28.5q34 -65 100 -185.5
t98 -182.5q132 257 245 412q150 7 286 7q115 0 322 -7q21 0 21 -17q0 -6 -10 -22.5t-27 -39.5t-32.5 -43.5t-34 -43.5t-23.5 -30q-191 -254 -332 -412h-350q-236 0 -496 16q-35 2 -61 36q-82 108 -134 180t-119 176t-114 196z" />
    <glyph glyph-name="uni01D1" unicode="&#x1d1;" 
d="M104 1201q0 291 63 518.5t181.5 379.5t287 235t380.5 94q195 0 348 -26.5t280.5 -86t217.5 -154.5t152.5 -231t92 -317t29.5 -412q0 -291 -64 -518.5t-184.5 -379t-289.5 -234t-382 -93.5q-194 0 -346.5 26.5t-279 85.5t-216 153.5t-151 230.5t-90.5 316.5t-29 412.5z
M940 1201q0 -140 9.5 -238t24 -154.5t39.5 -87.5t50 -40t61 -9t60 9t48 40t37.5 87.5t22 154.5t8.5 238q0 116 -6 203.5t-19 144.5t-28 93.5t-38.5 54.5t-45 24.5t-51.5 6.5t-50.5 -6t-41.5 -24.5t-34.5 -55t-24.5 -94t-16 -144t-5 -203.5zM275 3085q141 7 275 7
q110 0 325 -7q16 0 34 -11.5t27 -28.5q34 -65 100 -185.5t98 -182.5q132 257 245 412q150 7 286 7q115 0 322 -7q21 0 21 -17q0 -6 -10 -22.5t-27 -39.5t-32.5 -43.5t-34 -43.5t-23.5 -30q-191 -254 -332 -412h-350q-236 0 -496 16q-35 2 -61 36q-82 108 -134 180t-119 176
t-114 196z" />
    <glyph glyph-name="uni01D2" unicode="&#x1d2;" 
d="M104 1201q0 291 63 518.5t181.5 379.5t287 235t380.5 94q195 0 348 -26.5t280.5 -86t217.5 -154.5t152.5 -231t92 -317t29.5 -412q0 -291 -64 -518.5t-184.5 -379t-289.5 -234t-382 -93.5q-194 0 -346.5 26.5t-279 85.5t-216 153.5t-151 230.5t-90.5 316.5t-29 412.5z
M940 1201q0 -140 9.5 -238t24 -154.5t39.5 -87.5t50 -40t61 -9t60 9t48 40t37.5 87.5t22 154.5t8.5 238q0 116 -6 203.5t-19 144.5t-28 93.5t-38.5 54.5t-45 24.5t-51.5 6.5t-50.5 -6t-41.5 -24.5t-34.5 -55t-24.5 -94t-16 -144t-5 -203.5zM275 3085q141 7 275 7
q110 0 325 -7q16 0 34 -11.5t27 -28.5q34 -65 100 -185.5t98 -182.5q132 257 245 412q150 7 286 7q115 0 322 -7q21 0 21 -17q0 -6 -10 -22.5t-27 -39.5t-32.5 -43.5t-34 -43.5t-23.5 -30q-191 -254 -332 -412h-350q-236 0 -496 16q-35 2 -61 36q-82 108 -134 180t-119 176
t-114 196z" />
    <glyph glyph-name="uni01D3" unicode="&#x1d3;" horiz-adv-x="2112" 
d="M108 1185q0 575 16 1215q190 9 350 9q165 0 410 -9q16 0 28 -12t12 -28q16 -752 16 -1296q0 -131 9 -213t31 -124.5t49 -56.5t71 -14q59 0 89 27t46.5 116.5t16.5 265.5q0 695 16 1335q191 9 350 9q165 0 410 -9q16 0 28 -12t12 -28q16 -752 16 -1175q0 -257 -39 -457
t-112 -340.5t-183.5 -233.5t-247.5 -139t-310 -55q-141 0 -254 11.5t-219 38.5t-187 72.5t-151.5 113t-119.5 160t-84.5 213.5t-52 274.5t-16.5 341.5zM235 3085q141 7 275 7q110 0 325 -7q16 0 34 -11.5t27 -28.5q34 -65 100 -185.5t98 -182.5q132 257 245 412q150 7 286 7
q115 0 322 -7q21 0 21 -17q0 -6 -10 -22.5t-27 -39.5t-32.5 -43.5t-34 -43.5t-23.5 -30q-191 -254 -332 -412h-350q-236 0 -496 16q-35 2 -61 36q-82 108 -134 180t-119 176t-114 196z" />
    <glyph glyph-name="uni01D4" unicode="&#x1d4;" horiz-adv-x="2112" 
d="M108 1185q0 575 16 1215q190 9 350 9q165 0 410 -9q16 0 28 -12t12 -28q16 -752 16 -1296q0 -131 9 -213t31 -124.5t49 -56.5t71 -14q59 0 89 27t46.5 116.5t16.5 265.5q0 695 16 1335q191 9 350 9q165 0 410 -9q16 0 28 -12t12 -28q16 -752 16 -1175q0 -257 -39 -457
t-112 -340.5t-183.5 -233.5t-247.5 -139t-310 -55q-141 0 -254 11.5t-219 38.5t-187 72.5t-151.5 113t-119.5 160t-84.5 213.5t-52 274.5t-16.5 341.5zM235 3085q141 7 275 7q110 0 325 -7q16 0 34 -11.5t27 -28.5q34 -65 100 -185.5t98 -182.5q132 257 245 412q150 7 286 7
q115 0 322 -7q21 0 21 -17q0 -6 -10 -22.5t-27 -39.5t-32.5 -43.5t-34 -43.5t-23.5 -30q-191 -254 -332 -412h-350q-236 0 -496 16q-35 2 -61 36q-82 108 -134 180t-119 176t-114 196z" />
    <glyph glyph-name="uni01E2" unicode="&#x1e2;" horiz-adv-x="2896" 
d="M39 33q0 16 19 125q53 329 121 681.5t176 875t141 685.5q445 13 1162 13q636 0 1150 -13q17 -1 28.5 -12.5t11.5 -27.5q4 -244 4 -346q0 -157 -4 -294q-169 -8 -636 -8q-79 0 -152 1q-2 -104 -3 -210q358 -2 479 -7q16 0 28 -12t12 -28q3 -164 3 -301q0 -123 -3 -267
h-519q1 -70 3 -208h48q490 0 708 -8q16 0 28 -12t12 -28q4 -244 4 -346q0 -157 -4 -294q-190 -9 -686 -9q-99 0 -421.5 6.5t-428.5 10.5q-16 0 -28 12t-12 28q-10 453 -14 832h-320q-61 -512 -134 -872q-192 -9 -331 -9q-166 0 -409 9q-15 0 -24 9.5t-9 23.5zM1012 1460h253
q1 44 1 143.5t1 142.5q-40 0 -81.5 1t-83.5 2t-60 1q-18 -114 -30 -290zM1064 2825q0 115 4 259q191 9 710 9q205 0 450 -9q16 0 27.5 -11.5t12.5 -28.5q2 -90 2 -263q0 -196 -2 -265q-196 -9 -550 -9q-148 0 -610 17q-16 0 -27.5 11.5t-12.5 28.5q-4 141 -4 261z" />
    <glyph glyph-name="uni01E3" unicode="&#x1e3;" horiz-adv-x="2896" 
d="M39 33q0 16 19 125q53 329 121 681.5t176 875t141 685.5q445 13 1162 13q636 0 1150 -13q17 -1 28.5 -12.5t11.5 -27.5q4 -244 4 -346q0 -157 -4 -294q-169 -8 -636 -8q-79 0 -152 1q-2 -104 -3 -210q358 -2 479 -7q16 0 28 -12t12 -28q3 -164 3 -301q0 -123 -3 -267
h-519q1 -70 3 -208h48q490 0 708 -8q16 0 28 -12t12 -28q4 -244 4 -346q0 -157 -4 -294q-190 -9 -686 -9q-99 0 -421.5 6.5t-428.5 10.5q-16 0 -28 12t-12 28q-10 453 -14 832h-320q-61 -512 -134 -872q-192 -9 -331 -9q-166 0 -409 9q-15 0 -24 9.5t-9 23.5zM1012 1460h253
q1 44 1 143.5t1 142.5q-40 0 -81.5 1t-83.5 2t-60 1q-18 -114 -30 -290zM1064 2825q0 115 4 259q191 9 710 9q205 0 450 -9q16 0 27.5 -11.5t12.5 -28.5q2 -90 2 -263q0 -196 -2 -265q-196 -9 -550 -9q-148 0 -610 17q-16 0 -27.5 11.5t-12.5 28.5q-4 141 -4 261z" />
    <glyph glyph-name="Gcaron" unicode="&#x1e6;" horiz-adv-x="2008" 
d="M104 1201q0 278 50.5 488.5t141.5 350t229.5 227t303.5 124.5t375 37q293 0 716 -68l-84 -632h-712q-36 0 -61 -9t-50 -40t-39.5 -87t-24 -154t-9.5 -237q0 -116 7 -204.5t21.5 -145t31.5 -93.5t42 -55t48 -24.5t54 -6.5h80q0 196 -16 608q176 8 316 8q148 0 348 -8
q16 -1 27.5 -12.5t12.5 -27.5q16 -370 16 -560q0 -329 -16 -612q-170 -30 -252 -43t-204 -23t-260 -10q-117 0 -215 8.5t-193.5 29t-173.5 53.5t-149.5 84t-126.5 118.5t-100 157.5t-74 202t-44.5 251.5t-15.5 304.5zM315 3085q141 7 275 7q110 0 325 -7q16 0 34 -11.5
t27 -28.5q34 -65 100 -185.5t98 -182.5q132 257 245 412q150 7 286 7q115 0 322 -7q21 0 21 -17q0 -6 -10 -22.5t-27 -39.5t-32.5 -43.5t-34 -43.5t-23.5 -30q-191 -254 -332 -412h-350q-236 0 -496 16q-35 2 -61 36q-82 108 -134 180t-119 176t-114 196z" />
    <glyph glyph-name="gcaron" unicode="&#x1e7;" horiz-adv-x="2008" 
d="M104 1201q0 278 50.5 488.5t141.5 350t229.5 227t303.5 124.5t375 37q293 0 716 -68l-84 -632h-712q-36 0 -61 -9t-50 -40t-39.5 -87t-24 -154t-9.5 -237q0 -116 7 -204.5t21.5 -145t31.5 -93.5t42 -55t48 -24.5t54 -6.5h80q0 196 -16 608q176 8 316 8q148 0 348 -8
q16 -1 27.5 -12.5t12.5 -27.5q16 -370 16 -560q0 -329 -16 -612q-170 -30 -252 -43t-204 -23t-260 -10q-117 0 -215 8.5t-193.5 29t-173.5 53.5t-149.5 84t-126.5 118.5t-100 157.5t-74 202t-44.5 251.5t-15.5 304.5zM315 3085q141 7 275 7q110 0 325 -7q16 0 34 -11.5
t27 -28.5q34 -65 100 -185.5t98 -182.5q132 257 245 412q150 7 286 7q115 0 322 -7q21 0 21 -17q0 -6 -10 -22.5t-27 -39.5t-32.5 -43.5t-34 -43.5t-23.5 -30q-191 -254 -332 -412h-350q-236 0 -496 16q-35 2 -61 36q-82 108 -134 180t-119 176t-114 196z" />
    <glyph glyph-name="uni01E8" unicode="&#x1e8;" horiz-adv-x="2132" 
d="M184 1200q0 560 16 1200q190 9 350 9q165 0 410 -9q16 0 28 -12t12 -28q1 -47 1 -141q0 -100 -15 -660q14 0 43.5 0.5t44.5 0.5q37 112 133 389.5t143 420.5q6 17 24 28t37 12q151 10 321 10q215 0 399 -22q-123 -525 -338 -948q-118 -201 -312 -212v-6q102 -6 185 -61.5
t139 -150.5q176 -347 334 -1020q-184 -22 -419 -22q-170 0 -321 10q-19 1 -37 12t-24 28q-98 299 -278 951h-77q1 -33 10 -340.5t9 -467.5q0 -57 -2 -171q-190 -9 -350 -9q-165 0 -410 9q-16 0 -28 12t-12 28q-16 752 -16 1160zM291 3085q141 7 275 7q110 0 325 -7
q16 0 34 -11.5t27 -28.5q34 -65 100 -185.5t98 -182.5q132 257 245 412q150 7 286 7q115 0 322 -7q21 0 21 -17q0 -6 -10 -22.5t-27 -39.5t-32.5 -43.5t-34 -43.5t-23.5 -30q-191 -254 -332 -412h-350q-236 0 -496 16q-35 2 -61 36q-82 108 -134 180t-119 176t-114 196z" />
    <glyph glyph-name="uni01E9" unicode="&#x1e9;" horiz-adv-x="2132" 
d="M184 1200q0 560 16 1200q190 9 350 9q165 0 410 -9q16 0 28 -12t12 -28q1 -47 1 -141q0 -100 -15 -660q14 0 43.5 0.5t44.5 0.5q37 112 133 389.5t143 420.5q6 17 24 28t37 12q151 10 321 10q215 0 399 -22q-123 -525 -338 -948q-118 -201 -312 -212v-6q102 -6 185 -61.5
t139 -150.5q176 -347 334 -1020q-184 -22 -419 -22q-170 0 -321 10q-19 1 -37 12t-24 28q-98 299 -278 951h-77q1 -33 10 -340.5t9 -467.5q0 -57 -2 -171q-190 -9 -350 -9q-165 0 -410 9q-16 0 -28 12t-12 28q-16 752 -16 1160zM291 3085q141 7 275 7q110 0 325 -7
q16 0 34 -11.5t27 -28.5q34 -65 100 -185.5t98 -182.5q132 257 245 412q150 7 286 7q115 0 322 -7q21 0 21 -17q0 -6 -10 -22.5t-27 -39.5t-32.5 -43.5t-34 -43.5t-23.5 -30q-191 -254 -332 -412h-350q-236 0 -496 16q-35 2 -61 36q-82 108 -134 180t-119 176t-114 196z" />
    <glyph glyph-name="uni01EA" unicode="&#x1ea;" 
d="M940 1201q0 -140 9.5 -238t24 -154.5t39.5 -87.5t50 -40t61 -9t60 9t48 40t37.5 87.5t22 154.5t8.5 238q0 116 -6 203.5t-19 144.5t-28 93.5t-38.5 54.5t-45 24.5t-51.5 6.5t-50.5 -6t-41.5 -24.5t-34.5 -55t-24.5 -94t-16 -144t-5 -203.5zM104 1201q0 291 63 518.5
t181.5 379.5t287 235t380.5 94q195 0 348 -26.5t280.5 -86t217.5 -154.5t152.5 -231t92 -317t29.5 -412q0 -492 -178.5 -793t-502.5 -394q-185 -54 -185 -143q0 -43 50.5 -70.5t126.5 -18.5l195 24l72 -560q-134 -26 -206 -35t-186 -9q-139 0 -259.5 36t-204 97.5
t-131 143.5t-47.5 173q0 185 189 351q-265 46 -431 180t-250 384t-84 634z" />
    <glyph glyph-name="uni01EB" unicode="&#x1eb;" 
d="M940 1201q0 -140 9.5 -238t24 -154.5t39.5 -87.5t50 -40t61 -9t60 9t48 40t37.5 87.5t22 154.5t8.5 238q0 116 -6 203.5t-19 144.5t-28 93.5t-38.5 54.5t-45 24.5t-51.5 6.5t-50.5 -6t-41.5 -24.5t-34.5 -55t-24.5 -94t-16 -144t-5 -203.5zM104 1201q0 291 63 518.5
t181.5 379.5t287 235t380.5 94q195 0 348 -26.5t280.5 -86t217.5 -154.5t152.5 -231t92 -317t29.5 -412q0 -492 -178.5 -793t-502.5 -394q-185 -54 -185 -143q0 -43 50.5 -70.5t126.5 -18.5l195 24l72 -560q-134 -26 -206 -35t-186 -9q-139 0 -259.5 36t-204 97.5
t-131 143.5t-47.5 173q0 185 189 351q-265 46 -431 180t-250 384t-84 634z" />
    <glyph glyph-name="uni01EC" unicode="&#x1ec;" 
d="M940 1201q0 -140 9.5 -238t24 -154.5t39.5 -87.5t50 -40t61 -9t60 9t48 40t37.5 87.5t22 154.5t8.5 238q0 116 -6 203.5t-19 144.5t-28 93.5t-38.5 54.5t-45 24.5t-51.5 6.5t-50.5 -6t-41.5 -24.5t-34.5 -55t-24.5 -94t-16 -144t-5 -203.5zM104 1201q0 291 63 518.5
t181.5 379.5t287 235t380.5 94q195 0 348 -26.5t280.5 -86t217.5 -154.5t152.5 -231t92 -317t29.5 -412q0 -492 -178.5 -793t-502.5 -394q-185 -54 -185 -143q0 -43 50.5 -70.5t126.5 -18.5l195 24l72 -560q-134 -26 -206 -35t-186 -9q-139 0 -259.5 36t-204 97.5
t-131 143.5t-47.5 173q0 185 189 351q-265 46 -431 180t-250 384t-84 634zM536 2825q0 115 4 259q191 9 710 9q205 0 450 -9q16 0 27.5 -11.5t12.5 -28.5q2 -90 2 -263q0 -196 -2 -265q-196 -9 -550 -9q-148 0 -610 17q-16 0 -27.5 11.5t-12.5 28.5q-4 141 -4 261z" />
    <glyph glyph-name="uni01ED" unicode="&#x1ed;" 
d="M940 1201q0 -140 9.5 -238t24 -154.5t39.5 -87.5t50 -40t61 -9t60 9t48 40t37.5 87.5t22 154.5t8.5 238q0 116 -6 203.5t-19 144.5t-28 93.5t-38.5 54.5t-45 24.5t-51.5 6.5t-50.5 -6t-41.5 -24.5t-34.5 -55t-24.5 -94t-16 -144t-5 -203.5zM104 1201q0 291 63 518.5
t181.5 379.5t287 235t380.5 94q195 0 348 -26.5t280.5 -86t217.5 -154.5t152.5 -231t92 -317t29.5 -412q0 -492 -178.5 -793t-502.5 -394q-185 -54 -185 -143q0 -43 50.5 -70.5t126.5 -18.5l195 24l72 -560q-134 -26 -206 -35t-186 -9q-139 0 -259.5 36t-204 97.5
t-131 143.5t-47.5 173q0 185 189 351q-265 46 -431 180t-250 384t-84 634zM536 2825q0 115 4 259q191 9 710 9q205 0 450 -9q16 0 27.5 -11.5t12.5 -28.5q2 -90 2 -263q0 -196 -2 -265q-196 -9 -550 -9q-148 0 -610 17q-16 0 -27.5 11.5t-12.5 28.5q-4 141 -4 261z" />
    <glyph glyph-name="uni01F8" unicode="&#x1f8;" horiz-adv-x="2200" 
d="M184 1200q0 560 16 1200q190 9 330 9q119 0 346 -9q29 -1 44 -40l414 -1024l-14 1064q191 9 350 9q156 0 370 -9q17 -1 28.5 -12.5t11.5 -27.5q16 -752 16 -1160q0 -560 -16 -1200q-166 -9 -310 -9q-171 0 -366 9q-30 1 -44 40l-414 1024l14 -1064q-190 -9 -330 -9
q-158 0 -390 9q-17 1 -28.5 12.5t-11.5 27.5q-16 752 -16 1160zM531 3100q141 7 292 7q133 0 348 -7q16 0 34 -11.5t27 -28.5q36 -69 98.5 -185t112.5 -210t96 -185q-336 0 -644 16q-17 1 -34.5 12.5t-26.5 27.5q-218 394 -303 564z" />
    <glyph glyph-name="uni01F9" unicode="&#x1f9;" horiz-adv-x="2200" 
d="M184 1200q0 560 16 1200q190 9 330 9q119 0 346 -9q29 -1 44 -40l414 -1024l-14 1064q191 9 350 9q156 0 370 -9q17 -1 28.5 -12.5t11.5 -27.5q16 -752 16 -1160q0 -560 -16 -1200q-166 -9 -310 -9q-171 0 -366 9q-30 1 -44 40l-414 1024l14 -1064q-190 -9 -330 -9
q-158 0 -390 9q-17 1 -28.5 12.5t-11.5 27.5q-16 752 -16 1160zM531 3100q141 7 292 7q133 0 348 -7q16 0 34 -11.5t27 -28.5q36 -69 98.5 -185t112.5 -210t96 -185q-336 0 -644 16q-17 1 -34.5 12.5t-26.5 27.5q-218 394 -303 564z" />
    <glyph glyph-name="AEacute" unicode="&#x1fc;" horiz-adv-x="2896" 
d="M39 33q0 16 19 125q53 329 121 681.5t176 875t141 685.5q445 13 1162 13q636 0 1150 -13q17 -1 28.5 -12.5t11.5 -27.5q4 -244 4 -346q0 -157 -4 -294q-169 -8 -636 -8q-79 0 -152 1q-2 -104 -3 -210q358 -2 479 -7q16 0 28 -12t12 -28q3 -164 3 -301q0 -123 -3 -267
h-519q1 -70 3 -208h48q490 0 708 -8q16 0 28 -12t12 -28q4 -244 4 -346q0 -157 -4 -294q-190 -9 -686 -9q-99 0 -421.5 6.5t-428.5 10.5q-16 0 -28 12t-12 28q-10 453 -14 832h-320q-61 -512 -134 -872q-192 -9 -331 -9q-166 0 -409 9q-15 0 -24 9.5t-9 23.5zM1012 1460h253
q1 44 1 143.5t1 142.5q-40 0 -81.5 1t-83.5 2t-60 1q-18 -114 -30 -290zM1299 2521q0 15 71 125q124 200 309 454q150 7 322 7q160 0 366 -7q20 0 20 -17q0 -19 -81 -119q-55 -69 -195 -226t-210 -250q-293 0 -582 16q-20 2 -20 17z" />
    <glyph glyph-name="aeacute" unicode="&#x1fd;" horiz-adv-x="2896" 
d="M39 33q0 16 19 125q53 329 121 681.5t176 875t141 685.5q445 13 1162 13q636 0 1150 -13q17 -1 28.5 -12.5t11.5 -27.5q4 -244 4 -346q0 -157 -4 -294q-169 -8 -636 -8q-79 0 -152 1q-2 -104 -3 -210q358 -2 479 -7q16 0 28 -12t12 -28q3 -164 3 -301q0 -123 -3 -267
h-519q1 -70 3 -208h48q490 0 708 -8q16 0 28 -12t12 -28q4 -244 4 -346q0 -157 -4 -294q-190 -9 -686 -9q-99 0 -421.5 6.5t-428.5 10.5q-16 0 -28 12t-12 28q-10 453 -14 832h-320q-61 -512 -134 -872q-192 -9 -331 -9q-166 0 -409 9q-15 0 -24 9.5t-9 23.5zM1012 1460h253
q1 44 1 143.5t1 142.5q-40 0 -81.5 1t-83.5 2t-60 1q-18 -114 -30 -290zM1299 2521q0 15 71 125q124 200 309 454q150 7 322 7q160 0 366 -7q20 0 20 -17q0 -19 -81 -119q-55 -69 -195 -226t-210 -250q-293 0 -582 16q-20 2 -20 17z" />
    <glyph glyph-name="Oslashacute" unicode="&#x1fe;" 
d="M104 1201q0 291 63 518.5t181.5 379.5t287 235t380.5 94q343 0 562 -84l174 351l216 -102l-189 -359q182 -137 269.5 -389t87.5 -644q0 -291 -64 -518.5t-184.5 -379t-289.5 -234t-382 -93.5q-332 0 -552 81l-176 -352l-216 102l189 358q-182 137 -269.5 389t-87.5 647z
M940 1201q0 -48 2 -124l118 223l178 359q-23 40 -53.5 54.5t-72.5 14.5q-30 0 -50.5 -6t-41.5 -24.5t-34.5 -55t-24.5 -94t-16 -144t-5 -203.5zM1002 737q22 -38 51.5 -51.5t70.5 -13.5q36 0 60 9t48 40t37.5 87.5t22 154.5t8.5 238q0 48 -2 122l-63 -119zM771 2521
q0 15 71 125q124 200 309 454q150 7 322 7q160 0 366 -7q20 0 20 -17q0 -19 -81 -119q-55 -69 -195 -226t-210 -250q-293 0 -582 16q-20 2 -20 17z" />
    <glyph glyph-name="oslashacute" unicode="&#x1ff;" 
d="M104 1201q0 291 63 518.5t181.5 379.5t287 235t380.5 94q343 0 562 -84l174 351l216 -102l-189 -359q182 -137 269.5 -389t87.5 -644q0 -291 -64 -518.5t-184.5 -379t-289.5 -234t-382 -93.5q-332 0 -552 81l-176 -352l-216 102l189 358q-182 137 -269.5 389t-87.5 647z
M940 1201q0 -48 2 -124l118 223l178 359q-23 40 -53.5 54.5t-72.5 14.5q-30 0 -50.5 -6t-41.5 -24.5t-34.5 -55t-24.5 -94t-16 -144t-5 -203.5zM1002 737q22 -38 51.5 -51.5t70.5 -13.5q36 0 60 9t48 40t37.5 87.5t22 154.5t8.5 238q0 48 -2 122l-63 -119zM771 2521
q0 15 71 125q124 200 309 454q150 7 322 7q160 0 366 -7q20 0 20 -17q0 -19 -81 -119q-55 -69 -195 -226t-210 -250q-293 0 -582 16q-20 2 -20 17z" />
    <glyph glyph-name="uni0200" unicode="&#x200;" horiz-adv-x="2080" 
d="M39 33q0 16 19 125q53 329 121 681.5t176 875t141 685.5q200 9 550 9q326 0 570 -9q16 0 30 -11.5t17 -28.5q44 -223 149.5 -729t180 -894.5t127.5 -736.5q-189 -9 -348 -9q-255 0 -392 9q-17 1 -30.5 12.5t-16.5 27.5q-45 230 -73 400h-371q-32 -214 -77 -440
q-192 -9 -331 -9q-166 0 -409 9q-15 0 -24 9.5t-9 23.5zM956 960h225q-24 164 -65 467.5t-59 429.5q-20 -163 -53 -467.5t-48 -429.5zM839 3100q141 7 239 7q73 0 281 -7q32 -1 61 -40q87 -122 137 -193.5t119 -182.5t115 -204q-205 0 -404 8q-33 1 -69 40
q-380 394 -479 572zM119 3100q141 7 239 7q73 0 281 -7q32 -1 61 -40q87 -122 137 -193.5t119 -182.5t115 -204q-205 0 -404 8q-33 1 -69 40q-380 394 -479 572z" />
    <glyph glyph-name="uni0201" unicode="&#x201;" horiz-adv-x="2080" 
d="M39 33q0 16 19 125q53 329 121 681.5t176 875t141 685.5q200 9 550 9q326 0 570 -9q16 0 30 -11.5t17 -28.5q44 -223 149.5 -729t180 -894.5t127.5 -736.5q-189 -9 -348 -9q-255 0 -392 9q-17 1 -30.5 12.5t-16.5 27.5q-45 230 -73 400h-371q-32 -214 -77 -440
q-192 -9 -331 -9q-166 0 -409 9q-15 0 -24 9.5t-9 23.5zM956 960h225q-24 164 -65 467.5t-59 429.5q-20 -163 -53 -467.5t-48 -429.5zM839 3100q141 7 239 7q73 0 281 -7q32 -1 61 -40q87 -122 137 -193.5t119 -182.5t115 -204q-205 0 -404 8q-33 1 -69 40
q-380 394 -479 572zM119 3100q141 7 239 7q73 0 281 -7q32 -1 61 -40q87 -122 137 -193.5t119 -182.5t115 -204q-205 0 -404 8q-33 1 -69 40q-380 394 -479 572z" />
    <glyph glyph-name="uni0202" unicode="&#x202;" horiz-adv-x="2080" 
d="M39 33q0 16 19 125q53 329 121 681.5t176 875t141 685.5q200 9 550 9q326 0 570 -9q16 0 30 -11.5t17 -28.5q44 -223 149.5 -729t180 -894.5t127.5 -736.5q-189 -9 -348 -9q-255 0 -392 9q-17 1 -30.5 12.5t-16.5 27.5q-45 230 -73 400h-371q-32 -214 -77 -440
q-192 -9 -331 -9q-166 0 -409 9q-15 0 -24 9.5t-9 23.5zM956 960h225q-24 164 -65 467.5t-59 429.5q-20 -163 -53 -467.5t-48 -429.5zM219 2483q38 156 126 279t205.5 198t252.5 113.5t278 38.5q145 0 283 -39.5t253.5 -111.5t201.5 -182t123 -244q7 -19 5.5 -29.5
t-16.5 -10.5q-343 -13 -608 0q-34 83 -98 128.5t-137 45.5q-64 0 -121.5 -37t-94.5 -109q-8 -16 -26 -28t-35 -12q-349 -12 -592 0z" />
    <glyph glyph-name="uni0203" unicode="&#x203;" horiz-adv-x="2080" 
d="M39 33q0 16 19 125q53 329 121 681.5t176 875t141 685.5q200 9 550 9q326 0 570 -9q16 0 30 -11.5t17 -28.5q44 -223 149.5 -729t180 -894.5t127.5 -736.5q-189 -9 -348 -9q-255 0 -392 9q-17 1 -30.5 12.5t-16.5 27.5q-45 230 -73 400h-371q-32 -214 -77 -440
q-192 -9 -331 -9q-166 0 -409 9q-15 0 -24 9.5t-9 23.5zM956 960h225q-24 164 -65 467.5t-59 429.5q-20 -163 -53 -467.5t-48 -429.5zM219 2483q38 156 126 279t205.5 198t252.5 113.5t278 38.5q145 0 283 -39.5t253.5 -111.5t201.5 -182t123 -244q7 -19 5.5 -29.5
t-16.5 -10.5q-343 -13 -608 0q-34 83 -98 128.5t-137 45.5q-64 0 -121.5 -37t-94.5 -109q-8 -16 -26 -28t-35 -12q-349 -12 -592 0z" />
    <glyph glyph-name="uni0204" unicode="&#x204;" horiz-adv-x="1816" 
d="M184 1200q0 560 16 1200q190 9 830 9q453 0 698 -9q16 0 28 -12t12 -28q4 -244 4 -346q0 -157 -4 -294q-169 -8 -636 -8q-84 0 -152 1q-2 -138 -3 -210q358 -2 479 -7q16 0 28 -12t12 -28q3 -164 3 -301q0 -123 -3 -267h-519q1 -70 3 -208h48q490 0 708 -8q16 0 28 -12
t12 -28q4 -244 4 -346q0 -157 -4 -294q-190 -9 -686 -9q-99 0 -421.5 6.5t-428.5 10.5q-16 0 -28 12t-12 28q-16 752 -16 1160zM731 3100q141 7 239 7q73 0 281 -7q32 -1 61 -40q87 -122 137 -193.5t119 -182.5t115 -204q-205 0 -404 8q-33 1 -69 40q-380 394 -479 572z
M11 3100q141 7 239 7q73 0 281 -7q32 -1 61 -40q87 -122 137 -193.5t119 -182.5t115 -204q-205 0 -404 8q-33 1 -69 40q-380 394 -479 572z" />
    <glyph glyph-name="uni0205" unicode="&#x205;" horiz-adv-x="1816" 
d="M184 1200q0 560 16 1200q190 9 830 9q453 0 698 -9q16 0 28 -12t12 -28q4 -244 4 -346q0 -157 -4 -294q-169 -8 -636 -8q-84 0 -152 1q-2 -138 -3 -210q358 -2 479 -7q16 0 28 -12t12 -28q3 -164 3 -301q0 -123 -3 -267h-519q1 -70 3 -208h48q490 0 708 -8q16 0 28 -12
t12 -28q4 -244 4 -346q0 -157 -4 -294q-190 -9 -686 -9q-99 0 -421.5 6.5t-428.5 10.5q-16 0 -28 12t-12 28q-16 752 -16 1160zM731 3100q141 7 239 7q73 0 281 -7q32 -1 61 -40q87 -122 137 -193.5t119 -182.5t115 -204q-205 0 -404 8q-33 1 -69 40q-380 394 -479 572z
M11 3100q141 7 239 7q73 0 281 -7q32 -1 61 -40q87 -122 137 -193.5t119 -182.5t115 -204q-205 0 -404 8q-33 1 -69 40q-380 394 -479 572z" />
    <glyph glyph-name="uni0206" unicode="&#x206;" horiz-adv-x="1816" 
d="M184 1200q0 560 16 1200q190 9 830 9q453 0 698 -9q16 0 28 -12t12 -28q4 -244 4 -346q0 -157 -4 -294q-169 -8 -636 -8q-84 0 -152 1q-2 -138 -3 -210q358 -2 479 -7q16 0 28 -12t12 -28q3 -164 3 -301q0 -123 -3 -267h-519q1 -70 3 -208h48q490 0 708 -8q16 0 28 -12
t12 -28q4 -244 4 -346q0 -157 -4 -294q-190 -9 -686 -9q-99 0 -421.5 6.5t-428.5 10.5q-16 0 -28 12t-12 28q-16 752 -16 1160zM111 2483q38 156 126 279t205.5 198t252.5 113.5t278 38.5q145 0 283 -39.5t253.5 -111.5t201.5 -182t123 -244q7 -19 5.5 -29.5t-16.5 -10.5
q-343 -13 -608 0q-34 83 -98 128.5t-137 45.5q-64 0 -121.5 -37t-94.5 -109q-8 -16 -26 -28t-35 -12q-349 -12 -592 0z" />
    </font>
</defs>
</svg>
