<?xml version="1.0" standalone="no"?>
<!DOCTYPE svg PUBLIC "-//W3C//DTD SVG 1.1//EN" "http://www.w3.org/Graphics/SVG/1.1/DTD/svg11.dtd" >
<svg xmlns="http://www.w3.org/2000/svg" xmlns:xlink="http://www.w3.org/1999/xlink" version="1.1">
<metadata>
Created by FontForge 20170731 at Thu Dec 15 21:52:02 2011
 By Aleksey,,,
Copyright (c) 1993 , Monotype Typography ltd.
</metadata>
<defs>
<font id="BrushScriptMT" horiz-adv-x="1174" >
  <font-face 
    font-family="Brush Script MT"
    font-weight="400"
    font-style="italic"
    font-stretch="normal"
    units-per-em="2048"
    panose-1="3 6 8 2 4 4 6 7 3 4"
    ascent="1638"
    descent="-410"
    x-height="670"
    cap-height="1341"
    bbox="-750 -692 3967 1983"
    underline-thickness="102"
    underline-position="-358"
    slope="-37"
    unicode-range="U+0020-FE48"
  />
<missing-glyph horiz-adv-x="1024" 
d="M82 1365h860v-1365h-860v1365zM123 1324v-1283h778v1283h-778z" />
    <glyph glyph-name="fi" unicode="fi" horiz-adv-x="1024" 
d="M985 764q-29 0 -48 19t-19 46t19 64t47.5 62.5t57.5 25.5q32 0 50 -19.5t18 -50.5q0 -46 -41 -96.5t-84 -50.5zM1053 315v-73q-98 -123 -181.5 -188.5t-144.5 -65.5q-143 0 -154 243q-95 -91 -170 -133q1 -7 3 -16t3 -15.5t1 -19.5q0 -107 -40 -208.5t-102 -182.5
t-125 -126.5t-104 -45.5q-34 0 -71.5 63t-37.5 146q0 101 30 199.5t97 267.5q-22 30 -33.5 57t-11.5 70q0 51 21.5 76t70.5 49q64 91 152 198q108 244 270 529q36 60 48.5 79t29.5 19q12 0 25.5 -37.5t13.5 -77.5q0 -80 -49 -174.5t-168.5 -290t-183.5 -319.5
q40 -33 75.5 -71.5t65.5 -92.5q77 33 190 129q4 48 34.5 114t79 129.5t103 102.5t101.5 39q63 0 63 -49q0 -24 -26.5 -73.5t-67 -99.5t-72.5 -75q-81 -66 -81 -143q0 -34 25.5 -57t66.5 -23q51 0 111.5 37t142.5 110zM283 63h-29q-47 0 -119 37q-74 -187 -74 -325
q0 -48 19 -91.5t41 -43.5q12 0 37.5 18.5t55 66t49.5 131t20 207.5z" />
    <glyph glyph-name="fl" unicode="fl" horiz-adv-x="1024" 
d="M1057 324v-70q-103 -138 -189 -209.5t-151 -71.5q-60 0 -107 66.5t-43 191.5q-91 -86 -166 -131q1 -5 3 -23t2 -28q0 -142 -66.5 -271.5t-157 -210.5t-147.5 -81q-21 0 -46.5 29t-43 77.5t-17.5 102.5q0 69 16 141t42.5 146.5t68.5 177.5q-47 67 -47 114q0 59 23 87.5
t69 50.5q41 58 154 198q58 136 113 246.5t105.5 199t83.5 136t42 47.5q15 0 28 -37t13 -80q0 -58 -32.5 -134t-99 -188t-135 -224.5t-134.5 -237.5q53 -47 84.5 -80.5t58.5 -83.5q46 19 82 45.5t106 83.5q21 199 128 408t233 351t182 142q39 0 39 -71q0 -104 -48 -223
t-143.5 -255.5t-238.5 -289.5q-6 -57 -6 -72q0 -72 26 -112t72 -40q44 0 93 38t151 145zM754 502q136 146 212 285.5t76 197.5q0 25 -20 25q-22 0 -72 -66.5t-104 -183.5t-92 -258zM281 63h-29q-43 0 -119 37q-74 -187 -74 -321q0 -28 6.5 -61t18 -54.5t25.5 -21.5
q37 0 76.5 42.5t67 136.5t28.5 242z" />
    <glyph glyph-name=".notdef" horiz-adv-x="1024" 
d="M82 1365h860v-1365h-860v1365zM123 1324v-1283h778v1283h-778z" />
    <glyph glyph-name=".null" horiz-adv-x="0" 
 />
    <glyph glyph-name="nonmarkingreturn" horiz-adv-x="682" 
 />
    <glyph glyph-name="space" unicode=" " horiz-adv-x="575" 
 />
    <glyph glyph-name="exclam" unicode="!" horiz-adv-x="705" 
d="M713 1282q21 6 37 6q33 0 72.5 -21t66.5 -59q-47 -69 -152.5 -226t-157.5 -235t-107 -162t-83 -130q19 -4 19 -23q0 -12 -23.5 -41t-42.5 -29q-22 0 -56 40t-34 69q0 14 15.5 48t54.5 102.5t87.5 151.5t118.5 204q137 235 185 305zM219 8q-30 0 -59 26.5t-29 74.5
q0 63 32.5 142t67.5 79q22 0 44.5 -15.5t38.5 -43.5t16 -62q0 -55 -37 -128t-74 -73z" />
    <glyph glyph-name="quotedbl" unicode="&#x22;" horiz-adv-x="618" 
d="M221 1010v237h150v-237l-31 -271h-88zM485 1010v237h152v-237l-31 -271h-88z" />
    <glyph glyph-name="numbersign" unicode="#" horiz-adv-x="1245" 
d="M111 768v131h292l78 363h129l-78 -363h365l78 363h131l-78 -363h172v-131h-199l-65 -317h264v-132h-289l-77 -360h-132l78 360h-366l-76 -360h-131l76 360h-172v132h200l66 317h-266zM872 768h-366l-66 -317h367z" />
    <glyph glyph-name="dollar" unicode="$" horiz-adv-x="961" 
d="M641 1104l129 14q21 55 34 84.5t39.5 57.5t61.5 28q19 0 19 -14q0 -6 -23.5 -57t-40.5 -95q96 -2 139 -21.5t43 -82.5q0 -80 -71 -113q-25 -11 -70 -24t-51 -13q-12 0 -12 9q0 4 4 8q19 10 28 15.5t9 17.5q0 11 -26.5 16.5t-66.5 5.5l-79 -215q221 -25 221 -182
q0 -80 -42 -145t-126.5 -111.5t-212.5 -75.5q-16 -48 -33.5 -110.5t-28.5 -88.5t-26 -26t-25 27t-10 63q0 50 27 121q-50 -4 -127 -4q-22 -63 -37.5 -132t-24.5 -69q-12 0 -26.5 44t-14.5 64q0 19 25 109q-86 29 -107.5 37.5t-35 25.5t-13.5 50q0 82 94 151
q36 -34 58.5 -48.5t68.5 -25.5l84 250q-59 2 -101.5 14t-66.5 43t-24 85q0 28 13 66.5t36 72.5q45 66 116 98.5t191 56.5q6 15 12.5 33.5t11.5 31t18.5 39t21.5 42.5q67 11 67 -12q0 -6 -6.5 -21.5t-21 -46t-21.5 -47.5zM438 770l56 152q-82 -21 -127 -49t-45 -58
q0 -38 116 -45zM705 944l-132 -10l-63 -174l123 -19zM674 621l-64 -203q89 32 129.5 59t40.5 62q0 36 -23.5 50.5t-82.5 31.5zM596 631l-127 10l-84 -252q12 -2 43 -2q49 0 90 10z" />
    <glyph glyph-name="percent" unicode="%" horiz-adv-x="1409" 
d="M731 1137q30 -8 45 -29.5t15 -69.5q0 -81 -46 -179.5t-123.5 -167t-164.5 -68.5q-66 0 -109 50t-43 136q0 87 51 175t134 146t167 58q28 0 43.5 -12.5t30.5 -38.5zM475 748q63 0 122 50t94.5 118.5t35.5 115.5q0 55 -31 55q-4 0 -38.5 -8t-51.5 2q-2 2 -5.5 4t-6.5 2
q-13 0 -60 -41.5t-83.5 -102t-36.5 -124.5q0 -32 18 -51.5t43 -19.5zM1143 467q36 -13 47.5 -34.5t11.5 -82.5q0 -93 -57 -184.5t-131.5 -150t-118.5 -58.5q-46 0 -93.5 60t-47.5 145q0 70 47 153t121.5 140t148.5 57q41 0 72 -45zM840 156q0 -55 22.5 -76t60.5 -2t85 76
q50 63 79 128t29 99q0 47 -31 47q-25 0 -86.5 -37.5t-110 -99.5t-48.5 -135zM215 41q0 47 73 135.5t281 308.5q100 105 191.5 191t143.5 130t156 129.5t122 102.5q74 67 104.5 83t30.5 -31q0 -36 -40 -84.5t-157 -159.5t-240.5 -236t-267.5 -291q-72 -83 -136 -167
t-108 -146.5t-61 -82t-33 -19.5q-21 0 -40 51t-19 86z" />
    <glyph glyph-name="ampersand" unicode="&#x26;" horiz-adv-x="1004" 
d="M365 8q-71 0 -137 44t-106 122t-40 174q0 128 97.5 233t287.5 207q-10 63 -10 89q0 101 42.5 190t110.5 151.5t144 96t145 33.5q80 0 129 -38.5t49 -99.5q0 -81 -41.5 -145t-106 -114.5t-158.5 -109t-114 -73.5q32 -126 97 -258q90 61 141 109.5t86 89.5t47 41
q9 0 15 -22t6 -48q0 -61 -22 -115t-62.5 -108t-100.5 -115l66 -72q9 8 22 23t20 20.5t15 5.5q10 0 15.5 -8t5.5 -18q0 -41 -58 -137.5t-96 -96.5q-20 0 -39 16.5t-46 53t-44 61.5q-115 -88 -204.5 -135t-155.5 -47zM635 956v-41q144 81 223.5 171t79.5 143q0 45 -45 45
q-41 0 -104 -48.5t-108.5 -122t-45.5 -147.5zM500 657q-74 -51 -131.5 -110t-91 -114.5t-33.5 -92.5q0 -74 67 -74q49 0 133 32.5t168 94.5q-44 102 -112 264z" />
    <glyph glyph-name="quotesingle" unicode="'" horiz-adv-x="449" 
d="M270 1010v237h148v-237l-25 -269h-92z" />
    <glyph glyph-name="parenleft" unicode="(" horiz-adv-x="682" 
d="M436 147q19 29 27 29q5 0 8.5 -19.5t3.5 -47.5q0 -51 -30 -82.5t-72.5 -19t-77.5 70.5q-34 58 -59 161.5t-25 213.5q0 173 64.5 337t156 292t177 207t114.5 79q13 0 20 -16.5t7 -38.5q0 -54 -84 -146q-133 -146 -216 -342.5t-83 -388.5q0 -87 19 -167t50 -122z" />
    <glyph glyph-name="parenright" unicode=")" horiz-adv-x="682" 
d="M397 1194q-10 -20 -18 -20q-5 0 -4.5 9.5t0.5 16.5q0 59 30 96t66 37q32 0 63 -36t51.5 -104.5t20.5 -160.5q0 -87 -16 -178.5t-49 -193.5t-82 -205q-101 -221 -179 -334t-130 -113q-23 0 -38.5 18t-15.5 44q0 21 13 41q90 143 150 266t101 241.5t59.5 215t18.5 180.5
q0 69 -11 119.5t-30 60.5z" />
    <glyph glyph-name="asterisk" unicode="*" horiz-adv-x="662" 
d="M-72 893q0 16 18.5 24.5t74 24.5t89.5 27.5t83 36.5q-52 20 -138.5 39.5t-107.5 26t-21 28.5q0 15 32 64.5t52 49.5t75.5 -31t152.5 -93q0 73 -24 150t-24 91q0 19 12.5 25t39.5 6q106 0 106 -70q0 -16 -13.5 -82t-17.5 -123q29 15 50 38.5t53.5 67t54.5 64.5t43 21
q16 0 35.5 -29t34 -65.5t14.5 -50.5q0 -30 -19.5 -38.5t-94 -27.5t-123.5 -45q40 -11 111 -25.5t95.5 -24.5t24.5 -32q0 -31 -33 -74t-57 -43q-6 0 -59.5 38t-120.5 79q4 -51 18 -113t14 -82q0 -25 -14 -42t-41 -17q-113 0 -113 53q0 3 10 27.5t20.5 65.5t15.5 108
q-42 -28 -75 -55t-57.5 -45.5t-46.5 -25.5t-53 -7q-17 0 -46.5 30.5t-29.5 55.5z" />
    <glyph glyph-name="plus" unicode="+" horiz-adv-x="1366" 
d="M170 547v158h469v471h158v-471h471v-158h-471v-465h-158v465h-469z" />
    <glyph glyph-name="comma" unicode="," horiz-adv-x="682" 
d="M184 -25q-32 12 -41.5 18t-9.5 25q0 27 31.5 71.5t71.5 78t65 33.5q37 0 37 -45q0 -51 -60.5 -135.5t-109.5 -116.5q-33 -22 -33 -6q0 7 5.5 13.5t20 26t23.5 37.5z" />
    <glyph glyph-name="hyphen" unicode="-" horiz-adv-x="1044" 
d="M688 588q34 8 41 8.5t53 -8.5q16 -2 26.5 -4t19 -5.5t8.5 -7.5q0 -9 -54 -54.5t-108 -59.5q-34 -11 -122 -19t-196 -8q-57 0 -85.5 4.5t-28.5 20.5q0 8 14.5 29.5t38.5 45.5q67 68 246 68q30 0 147 -10z" />
    <glyph glyph-name="hyphen" unicode="&#xad;" horiz-adv-x="1044" 
d="M688 588q34 8 41 8.5t53 -8.5q16 -2 26.5 -4t19 -5.5t8.5 -7.5q0 -9 -54 -54.5t-108 -59.5q-34 -11 -122 -19t-196 -8q-57 0 -85.5 4.5t-28.5 20.5q0 8 14.5 29.5t38.5 45.5q67 68 246 68q30 0 147 -10z" />
    <glyph glyph-name="period" unicode="." horiz-adv-x="682" 
d="M158 -4q-17 0 -29 13t-12 36q0 18 21.5 64.5t54 83t67.5 36.5q43 0 43 -51q0 -28 -23 -72.5t-57 -77t-65 -32.5z" />
    <glyph glyph-name="slash" unicode="/" horiz-adv-x="575" 
d="M150 -135h-146l424 1515h145z" />
    <glyph glyph-name="zero" unicode="0" horiz-adv-x="897" 
d="M887 1161q47 -21 68.5 -68.5t21.5 -140.5q0 -141 -56.5 -304t-158 -306t-232.5 -236q-147 -104 -241 -104q-73 0 -137 44t-102 125.5t-38 190.5q0 152 83.5 319.5t212 302.5t268 208t239.5 51q65 -14 72 -82zM657 965l35 73q-59 -30 -104 -59t-103.5 -82t-122.5 -133
q-104 -133 -157 -257.5t-53 -211.5q0 -125 84 -125q48 0 137.5 52t189.5 143q96 88 168.5 197t111 215t38.5 181q0 48 -21 74.5t-53 26.5q-30 0 -63.5 -23t-86.5 -71z" />
    <glyph glyph-name="one" unicode="1" horiz-adv-x="555" 
d="M201 956v82q36 32 73 62t82.5 65t94 67t110.5 66q55 -80 55 -153q0 -40 -17 -89t-46.5 -112t-73.5 -158q-118 -261 -176.5 -430.5t-58.5 -230.5q0 -5 7 -39t7 -51q0 -29 -16.5 -31t-46.5 12q-77 38 -103 72t-26 88q0 97 71 301q36 103 84 205t106.5 206.5t110.5 192.5
q-113 -47 -237 -125z" />
    <glyph glyph-name="two" unicode="2" horiz-adv-x="897" 
d="M311 879q105 -5 150 -14t45 -36q0 -12 -7.5 -16.5t-24.5 -7t-40 -6.5q-34 -6 -112 -23.5t-86 -17.5q-39 0 -39 49q0 44 18.5 113t50 128.5t66.5 84.5q41 29 127.5 58.5t194 50t196.5 20.5q45 0 66.5 -12.5t30.5 -34t30 -87.5q20 -61 20 -139q0 -95 -44 -164t-122 -127
t-272.5 -179.5t-302.5 -194.5q-10 -7 -41 -26.5t-55 -40.5t-49 -54q134 13 424 73q79 17 153.5 37.5t89.5 20.5q25 0 25 -25q0 -23 -10.5 -56.5t-30.5 -68t-47 -59.5q-132 -123 -510 -123q-98 0 -131 31q-20 18 -42 81t-22 93q0 52 51 127.5t140 155t196 141.5
q326 186 346 200q73 50 114.5 101t41.5 82q0 28 -22.5 43.5t-63.5 15.5q-65 0 -156.5 -23.5t-185 -68t-160.5 -102.5z" />
    <glyph glyph-name="three" unicode="3" horiz-adv-x="1044" 
d="M319 915q-29 17 -41 37t-12 66q0 64 67 116t189 81.5t273 29.5q161 0 242 -59t81 -174q0 -68 -30.5 -120.5t-100.5 -96.5q-78 -48 -524 -140q135 -12 229 -37t149.5 -78t55.5 -143q0 -98 -85.5 -195t-238.5 -159.5t-340 -62.5q-134 0 -208 41.5t-74 105.5q0 37 24 78.5
t57 71.5t56 30q14 0 14 -10q0 -7 -10 -27q-10 -10 -10 -22q0 -24 46.5 -41t119.5 -17q100 0 194 22.5t168.5 59t118 77.5t43.5 75q0 69 -88.5 94t-267.5 25q-61 0 -117.5 -10.5t-54.5 -10.5q-15 0 -15 25q0 39 21.5 100t50.5 80q18 12 139.5 33t209 39.5t208.5 62.5
q76 29 114 67.5t38 69.5q0 78 -193 78q-94 0 -183 -11.5t-139.5 -28t-50.5 -31.5q0 -13 10.5 -21t21 -12t34.5 -12q6 -2 12 -8.5t6 -14.5q0 -28 -209 -23z" />
    <glyph glyph-name="four" unicode="4" horiz-adv-x="874" 
d="M817 348l-211 -45q-29 -77 -39 -172q27 -25 27 -51q0 -23 -71.5 -71t-94.5 -48q-47 0 -47 72q0 122 31 237q-41 0 -111 -8t-96 -8q-61 0 -95.5 10t-52.5 37q-17 30 -32 84t-15 80q0 22 28 81t84.5 137.5t129.5 147.5q78 74 188.5 150.5t212.5 134t183 94.5t96 37
q49 0 49 -55q0 -10 -20 -57q32 -30 32 -54q0 -34 -9 -62t-24.5 -52.5t-35.5 -55.5q-43 -68 -64.5 -101t-58 -90t-60 -98t-49.5 -100q158 27 174 27q45 0 45 -35q0 -46 -94 -166zM498 489q79 167 166 286.5t171.5 217t84.5 111.5q0 9 -6.5 13.5t-16.5 4.5q-20 0 -164 -90
q-152 -96 -258 -179t-189.5 -181t-138.5 -213q194 12 351 30z" />
    <glyph glyph-name="five" unicode="5" horiz-adv-x="874" 
d="M498 1210q172 -8 264 -8q135 0 258 6q-44 -93 -83.5 -154.5t-55.5 -68.5q-26 -8 -195 -8q-156 0 -223 2q-112 -95 -180 -238q187 64 280 64q121 0 188.5 -69t67.5 -199q0 -165 -107.5 -295t-274 -201.5t-339.5 -71.5q-99 0 -140.5 31t-41.5 113q0 47 18 77.5t60 57.5
q103 67 215 67q12 0 12 -8q0 -4 -7.5 -8t-8.5 -4q-127 -47 -127 -74q0 -26 84 -26q123 0 256.5 61.5t224 145.5t90.5 137q0 40 -37.5 63t-107.5 23q-68 0 -123.5 -11.5t-125.5 -31t-87 -19.5q-33 0 -45 29q-12 24 -23.5 47.5t-19 49t-8.5 42.5q60 216 342 479z" />
    <glyph glyph-name="six" unicode="6" horiz-adv-x="854" 
d="M750 1198l104 -6q64 -4 86.5 -8t22.5 -17q0 -11 -93 -62.5t-155 -89t-172 -126.5t-219 -213q-22 -26 -41 -51.5t-33.5 -48.5t-16.5 -25q107 114 191.5 169.5t177.5 55.5q97 0 153 -58.5t56 -160.5q0 -114 -79 -252.5t-199 -234t-232 -95.5q-69 0 -135 54t-106 139.5
t-40 175.5q0 122 87.5 281.5t253.5 313t389 259.5zM260 137q53 0 149.5 72t170 176t73.5 197q0 84 -63 84q-72 0 -225 -129q-92 -78 -134.5 -141.5t-42.5 -143.5q0 -61 16.5 -88t55.5 -27z" />
    <glyph glyph-name="seven" unicode="7" horiz-adv-x="895" 
d="M481 137l15 -18q-88 -68 -153.5 -103.5t-111.5 -35.5q-40 0 -60.5 26t-20.5 70q0 83 77 236.5t239.5 344t397.5 369.5q-128 18 -258 18q-110 0 -174 -15t-123 -42q-21 -9 -46.5 -26t-29.5 -17q-9 0 -21.5 10.5t-12.5 24.5q0 21 43 78t65 96q29 50 60 70q25 13 143.5 26
t292.5 13q28 0 67.5 -1.5t85 -5t66.5 -4.5q20 -42 30.5 -90t10.5 -78q0 -27 -8.5 -42t-32.5 -35q-47 -42 -98.5 -90t-119.5 -121t-130.5 -154.5t-124.5 -179.5q-62 -97 -95.5 -176.5t-33.5 -132.5q0 -27 18 -27q19 0 43 12z" />
    <glyph glyph-name="eight" unicode="8" horiz-adv-x="918" 
d="M623 664q46 -84 72 -145t26 -113q0 -133 -61.5 -225.5t-152.5 -136.5t-185 -44q-80 0 -150 44t-70 112q0 49 39 119t115 160.5t188 205.5q-147 172 -147 313q0 100 42 172.5t125.5 119.5t205 69t286.5 22q105 0 146 -8.5t41 -42.5q0 -10 -11 -36.5t-31.5 -61.5t-45.5 -66
q-13 -17 -27.5 -21t-50.5 -1q18 -30 18 -49q0 -27 -26.5 -55t-106 -97.5t-137.5 -128.5q-21 -21 -51 -53t-51 -53zM563 750q55 49 130 114l135 117t84 77t24 32q0 28 -133 28q-168 0 -253 -47t-85 -131q0 -36 26 -86t72 -104zM510 551q-134 -142 -208.5 -243t-74.5 -130
q0 -65 113 -65q36 0 77 17.5t74 48.5t54.5 78.5t21.5 104.5q0 109 -57 189z" />
    <glyph glyph-name="nine" unicode="9" horiz-adv-x="938" 
d="M795 731q-105 -85 -181 -140t-136.5 -85.5t-108.5 -30.5q-35 0 -86.5 49.5t-88 122.5t-36.5 141q0 125 126.5 258t294.5 222.5t263 89.5q50 0 94 -33t69 -73t25 -62q0 -32 -43 -77.5t-94.5 -82.5t-65.5 -37q-6 0 -6 8q0 12 58 70q32 32 32 53q0 13 -12 13q-20 0 -102 -34
t-176 -91t-170 -133q-57 -59 -86 -123t-29 -97q0 -47 55 -47q32 0 99.5 27t142 73t125.5 97q108 107 150.5 139.5t76.5 32.5q24 0 40.5 -12.5t16.5 -32.5q0 -7 -61 -105q-171 -280 -251.5 -408t-150 -226.5t-133 -155.5t-112.5 -57q-29 0 -29 39q0 32 40.5 111t100.5 77
q119 167 191 276.5t158 243.5z" />
    <glyph glyph-name="colon" unicode=":" horiz-adv-x="682" 
d="M176 -4q-49 0 -49 51q0 37 31.5 77t75 68.5t75 29.5t31.5 -36q0 -29 -27.5 -74.5t-67 -80.5t-69.5 -35zM375 426q-24 0 -36.5 16.5t-12.5 42.5q0 31 30.5 76t72.5 78t71 33q21 0 33 -13.5t12 -35.5q0 -27 -29 -76t-68.5 -85t-72.5 -36z" />
    <glyph glyph-name="semicolon" unicode=";" horiz-adv-x="682" 
d="M381 408q-23 0 -40 17t-17 42q0 32 31.5 78t74.5 80t70 34q19 0 32 -13.5t13 -39.5q0 -33 -27 -80t-65.5 -82.5t-71.5 -35.5zM182 -18q-61 3 -61 51q0 26 29.5 69t70.5 76t74 33q39 0 39 -47q0 -40 -49.5 -124.5t-104.5 -127.5q-22 -17 -37.5 -21t-15.5 9q0 5 19.5 27
t35.5 55z" />
    <glyph glyph-name="less" unicode="&#x3c;" horiz-adv-x="1366" 
d="M1266 268v-172l-1094 461v141l1094 459v-170l-881 -358z" />
    <glyph glyph-name="equal" unicode="=" horiz-adv-x="1366" 
d="M172 786v158h1094v-158h-1094zM172 315v158h1094v-158h-1094z" />
    <glyph glyph-name="greater" unicode="&#x3e;" horiz-adv-x="1366" 
d="M172 987v170l1094 -459v-141l-1094 -461v172l881 359z" />
    <glyph glyph-name="question" unicode="?" horiz-adv-x="662" 
d="M301 1090q0 -9 13 -16t24 -13q43 -17 43 -41q0 -14 -5.5 -14.5t-20.5 6.5t-21 8q-36 9 -79 9.5t-58 8t-15 41.5q0 33 25.5 90.5t54.5 85.5q22 21 79.5 45t128 41t126.5 17q90 0 142.5 -52t52.5 -151q0 -50 -20 -116.5t-58 -140.5t-90 -148.5t-121 -147.5
q-58 -58 -89.5 -101.5t-31.5 -80.5q0 -3 1.5 -10.5t2.5 -15t1.5 -12t0.5 -13.5q0 -43 -31 -43q-27 0 -55.5 44t-28.5 99q0 76 82.5 181.5t263.5 262.5q58 50 81.5 78.5t23.5 69.5q0 49 -34.5 75.5t-104.5 26.5q-50 0 -120 -12t-116.5 -29.5t-46.5 -31.5zM207 6
q-18 0 -54 30.5t-36 78.5q0 36 19 84t44.5 84t42.5 36t38 -20t34.5 -48t13.5 -54t-17 -73.5t-41 -82.5t-44 -35z" />
    <glyph glyph-name="at" unicode="@" horiz-adv-x="2068" 
d="M1012 971q91 0 169.5 -47.5t131.5 -135.5l33 156h180l-144 -672q-8 -41 -19 -89.5t-11 -67.5q0 -24 21 -44t52 -20q62 0 153.5 71t160.5 198t69 284q0 135 -53.5 251t-150.5 201.5t-229 132t-283 46.5q-182 0 -335 -65t-265.5 -183t-173 -276.5t-60.5 -337.5
q0 -180 57.5 -322.5t170 -242t274 -151.5t364.5 -52q242 0 424 81.5t277 219.5h180q-30 -62 -82.5 -123t-126 -118t-160 -100t-178.5 -69q-145 -39 -336 -39q-317 0 -545.5 110.5t-347 313.5t-118.5 475q0 202 67.5 387t192.5 330q89 104 200 172.5t243 101.5t286 33
q195 0 353.5 -61t270.5 -167t172 -244t60 -292q0 -151 -51.5 -284.5t-139.5 -235t-195 -157.5t-210 -56q-114 0 -153 43.5t-46 124.5q-43 -50 -96 -88.5t-105.5 -58t-101.5 -19.5q-101 0 -185.5 58t-132.5 162t-48 233q0 113 42 226t115.5 206t167 147t195.5 54zM676 322
q0 -88 28.5 -153t78.5 -100.5t114 -35.5q60 0 124.5 39t117 108t84.5 160t32 192q0 136 -63.5 213.5t-169.5 77.5q-96 0 -175.5 -76.5t-125 -195t-45.5 -229.5z" />
    <glyph glyph-name="A" unicode="A" horiz-adv-x="1300" 
d="M891 412q-120 -4 -176 -4q-86 0 -238 4q-32 -35 -78 -82.5t-87 -88t-70.5 -69t-48.5 -47.5q-111 -108 -144.5 -141t-70.5 -59.5t-68 -26.5q-35 0 -35 32q0 35 50 108t113 129t103 56q11 0 31 -10l190 203q-36 5 -94 6.5t-78 8.5t-20 34q0 43 92 135q50 51 94 65t168 15
q-73 -10 -103.5 -23.5t-33.5 -40.5h53.5t64 0.5t58.5 1.5q164 160 298 278.5t282.5 225t316.5 195.5q33 -43 33 -90q0 -39 -25.5 -90t-108 -191.5t-167.5 -298.5q28 0 46.5 -0.5t39.5 -1.5q57 0 69.5 -2t12.5 -20q0 -8 -15.5 -28.5t-54.5 -68t-76 -96.5l-147 -12
q-117 -220 -117 -248q0 -41 43 -41q21 0 174 88l-8 -53q-82 -62 -127.5 -97.5t-79 -59t-61 -35t-55.5 -11.5q-33 0 -65 30.5t-32 86.5q0 23 17 65.5t36.5 81.5t98.5 187zM702 639l324 6q57 97 92.5 157t78 130.5t73 119.5t67.5 111q-72 -45 -147 -100t-169 -132.5t-167 -144
t-152 -147.5z" />
    <glyph glyph-name="B" unicode="B" horiz-adv-x="1130" 
d="M563 676l-51 -60q89 -8 159 -21.5t129.5 -30t104.5 -34.5q158 -66 158 -184q0 -72 -66 -141t-171.5 -123t-217 -84.5t-202.5 -30.5q-152 0 -237 56.5t-85 154.5q0 68 52 160t161 229q-82 4 -116 24.5t-34 57.5q0 23 13 35t35 17.5t84.5 13.5t160.5 20
q109 134 195.5 201.5t185.5 77.5q8 1 17.5 1t9.5 -5q0 -6 -22.5 -32t-73 -83t-119.5 -135q188 25 307.5 57.5t180.5 77.5t61 100q0 67 -65 97t-199 30q-74 0 -169.5 -15t-173 -34t-138 -40.5t-60.5 -31.5q0 -3 6 -6q49 -18 49 -30q0 -16 -150 -61.5t-202 -45.5q-37 0 -37 37
q0 44 80.5 158.5t146.5 146.5q23 11 107 35t184.5 46t204.5 37t184 15q189 0 284 -67.5t95 -169.5q0 -69 -43.5 -133t-135.5 -121t-239.5 -100t-347.5 -66zM457 547q-52 -62 -92.5 -109.5t-58 -77t-17.5 -59.5q0 -48 49.5 -85.5t142.5 -37.5q86 0 183.5 30.5t164 79.5
t66.5 99q0 43 -49 71t-149 49.5t-240 39.5z" />
    <glyph glyph-name="C" unicode="C" horiz-adv-x="1237" 
d="M1262 319v-65q-168 -187 -308.5 -308.5t-274.5 -187t-259 -65.5q-108 0 -185.5 43t-117 125.5t-39.5 195.5q0 89 28.5 188.5t82.5 201t132.5 209.5t184.5 227q110 123 217 212.5t194 140.5t161.5 76t123.5 25q50 0 85 -24t54 -70t19 -106q0 -113 -77 -251.5t-192 -267.5
t-219.5 -210.5t-150.5 -81.5q-31 0 -57.5 24.5t-26.5 55.5q0 57 60.5 138t132 148.5t85.5 67.5q7 0 7 -6q0 -9 -10.5 -31t-10.5 -27q0 -8 6 -8q17 0 98 91t148.5 200.5t67.5 179.5q0 29 -12.5 44.5t-37.5 15.5q-70 0 -212.5 -113.5t-292 -289t-249.5 -362.5t-100 -329
q0 -82 24.5 -137t72 -85t114.5 -30q145 0 329 113t405 333z" />
    <glyph glyph-name="D" unicode="D" horiz-adv-x="1323" 
d="M106 879q0 -7 13 -7q9 0 81.5 12t131.5 13q-66 -18 -113.5 -36.5t-98 -41t-72.5 -30t-38 -7.5q-51 0 -51 66q0 170 86 239q35 28 112.5 66.5t175 73t214.5 59.5t231 25q117 0 215 -34t164 -95.5t101.5 -150.5t35.5 -200q0 -169 -97.5 -328t-260 -280.5t-366.5 -192.5
t-402 -71q-37 0 -58.5 8t-30.5 31.5t-9 69.5q0 57 9 93t30 83q144 319 501 803q-72 -8 -158 -30.5t-163 -49.5t-130 -52t-53 -36zM639 1053q0 -2 4 -22.5t4 -35.5q0 -23 -23.5 -64.5t-92.5 -147.5t-118 -186t-116 -206q-21 -40 -29 -54t-25.5 -46t-25.5 -55t-8 -35
q0 -26 28.5 -36.5t81.5 -10.5q136 0 288 49.5t285.5 137.5t213.5 199t80 232q0 138 -101 212.5t-294 74.5q-81 0 -152 -6z" />
    <glyph glyph-name="E" unicode="E" horiz-adv-x="1260" 
d="M1333 1260v-68q0 -42 -16.5 -53t-121 -59t-200.5 -113q37 54 67.5 80t82.5 65q-45 18 -125 18q-124 0 -267.5 -49t-244 -117t-100.5 -114q0 -24 30.5 -39.5t98 -24t168.5 -11.5t249 -3q108 0 139 -8t31 -37q0 -37 -36.5 -84.5t-96.5 -56.5q-93 -15 -148 -25.5
t-130.5 -35.5t-167.5 -72q-137 -72 -214 -146t-77 -131q0 -49 55 -76.5t158 -27.5q355 0 723 319q2 -98 -21.5 -172.5t-95.5 -142.5q-60 -57 -175.5 -109t-252 -83t-256.5 -31q-139 0 -230 66.5t-91 176.5q0 80 44 159t135 151.5t230.5 131.5t321.5 93q26 5 26 16
q0 12 -30.5 14.5t-112 3.5t-143.5 7t-131 26q-71 22 -109.5 77t-38.5 122q0 86 62 173t175 157t273.5 112.5t351.5 42.5q110 0 153.5 -12.5t50.5 -33t7 -76.5z" />
    <glyph glyph-name="F" unicode="F" horiz-adv-x="1153" 
d="M664 498h151q131 176 199.5 307t68.5 172q0 57 -98 57q-57 -5 -202 -24.5t-281 -46.5q-122 -23 -195.5 -47.5t-103.5 -40.5t-37 -23q74 4 125 4q80 0 80 -18q0 -8 -56 -20.5t-106 -26.5q-49 -14 -95.5 -33t-56.5 -19q-23 0 -38 17.5t-15 42.5q0 17 27.5 88.5t77.5 144
t124 107.5q27 13 172.5 47t328.5 62t335 28q92 0 147.5 -25.5t55.5 -109.5q0 -27 -20 -83.5t-63.5 -144.5t-106 -193t-142.5 -222h154l-133 -191q-27 -2 -67.5 -3t-88.5 -3q-123 -160 -266.5 -301t-260 -226t-163.5 -85q-19 0 -33 12.5t-14 32.5q0 17 44.5 87t123.5 131
t180 68q41 43 70.5 76.5t83.5 97t83 97.5l-301 -15q-49 -2 -67.5 4.5t-18.5 32.5l10 25.5t21 44.5q16 29 25.5 35t54.5 16l184 45q74 19 103 19z" />
    <glyph glyph-name="G" unicode="G" horiz-adv-x="1153" 
d="M1174 319v-53q-114 -96 -226 -183.5t-272 -195.5q-82 -112 -141 -183.5t-102 -118.5t-44 -48q-14 -17 -47 -34t-55 -17q-31 0 -51.5 22.5t-20.5 53.5q0 80 84 170.5t246 185.5q80 115 153 231.5t127.5 212.5t100.5 189q-72 -60 -143 -115.5t-139 -106t-84 -62.5l-28 -21
q-174 -152 -260 -152q-82 0 -138 78t-56 197q0 75 24 156.5t73.5 167.5t118.5 166t152 147q128 102 287 182.5t296 123t202 42.5q38 0 60.5 -18.5t32 -50t9.5 -66.5q0 -32 -20 -64q-29 -43 -102 -90.5t-147 -84t-85 -36.5q-6 0 -6 4q0 9 23 29t51 41q62 47 73 100
q-97 -27 -193 -71t-190 -105t-188 -139q-106 -89 -180.5 -185.5t-113 -178.5t-38.5 -126q0 -33 21 -57.5t57 -24.5q42 0 104 37q67 40 147.5 102.5t148.5 118.5t147 123q73 61 113.5 98.5t60.5 65.5q42 58 83.5 67t71 -16.5t29.5 -62.5q0 -12 -43.5 -93.5t-133 -236
t-220.5 -364.5q116 62 371 249z" />
    <glyph glyph-name="H" unicode="H" horiz-adv-x="1323" 
d="M229 878l-215 -113q-50 -25 -67 -25q-31 0 -45.5 19.5t-14.5 60.5q0 47 20 108.5t46 90.5q27 30 126.5 82.5t239.5 105.5t292 88t278 35q88 0 130 -28t42 -148q0 -65 -44.5 -144.5t-107 -154.5t-231.5 -266q90 14 132 18t157 17q133 192 215 306.5t139 190t68 86.5
q20 23 33.5 17.5t13.5 -41.5q0 -41 -8.5 -67t-26.5 -51.5t-19 -27.5q-26 -43 -75 -112.5t-96 -137.5t-107 -161q112 -4 221 -29l-180 -244q-74 10 -197 10q-30 -60 -46.5 -94t-28 -64.5t-11.5 -56.5q0 -16 9.5 -42.5t9.5 -30.5q0 -20 -29.5 -42.5t-69 -39.5t-61.5 -17
q-37 0 -37 56q0 116 119 323q-158 -13 -363 -47q-59 -78 -107 -148t-78.5 -118t-45 -64t-31.5 -16q-29 0 -49 25q-9 10 -11.5 20t-2.5 22v21q0 12 13 35t62 91.5t72 103.5q-26 -3 -67 -3q-52 0 -84.5 19t-32.5 47q0 32 17 68.5t44 61t54 24.5q18 0 43 -11l258 64
q216 234 322 370t106 175q0 22 -12 36.5t-33.5 22.5t-49.5 8q-33 0 -104.5 -18t-170.5 -53t-247 -97q-110 -45 -110 -57q0 -14 15 -18t38.5 -6t23.5 -7q0 -4 -11.5 -11t-31.5 -17z" />
    <glyph glyph-name="I" unicode="I" horiz-adv-x="897" 
d="M365 -29l-62 45q-14 12 -14 25t47 90q34 55 91.5 151t92.5 158t85.5 162.5t92.5 196.5q97 221 97 282q0 72 -56 72q-42 0 -119.5 -42.5t-160.5 -111.5t-138 -144t-55 -132q0 -9 5 -13.5t18 -4.5q24 0 78 28q24 12 24 -4t-76 -82.5t-112 -66.5q-31 0 -86.5 53.5
t-55.5 97.5q0 17 31 81t85 144.5t114 139.5q69 69 157.5 123t170 84t131.5 30q72 0 112.5 -54.5t40.5 -152.5q0 -130 -102 -376t-314 -576q3 -10 7 -21.5t4 -21.5q0 -2 -3 -7.5t-7 -11.5t-5 -8l-73 -120q-12 -21 -25 -21q-12 0 -20 8z" />
    <glyph glyph-name="J" unicode="J" horiz-adv-x="768" 
d="M782 244l-266 -150q-88 -149 -176.5 -281.5t-157 -219t-118.5 -132t-74 -45.5q-32 0 -52 21.5t-20 50.5q0 108 121.5 270.5t384.5 345.5q114 219 188 398t113 306t54.5 204t15.5 98q0 43 -33 43q-27 0 -79.5 -31t-113.5 -92.5t-114 -142.5q-53 -80 -96.5 -179.5
t-67 -183.5t-23.5 -135q0 -13 4 -57q9 14 22 34t33 41t42 35q13 10 31 16.5t18 -1.5q0 -6 -57 -75.5t-99 -125.5q-24 -32 -64 -60t-65 -28q-30 0 -39.5 28t-9.5 89q0 147 50.5 327t135.5 316q69 108 169 195.5t194.5 136.5t148.5 49q66 0 102 -41.5t36 -114.5
q0 -36 -8.5 -81t-21.5 -91t-45 -148t-42 -135q-31 -103 -81.5 -211.5t-143.5 -287.5l204 110v-65z" />
    <glyph glyph-name="K" unicode="K" horiz-adv-x="1343" 
d="M1214 -115q-12 0 -35.5 13t-68 44.5t-100.5 69.5l-541 363l-160 -211q0 -27 -7 -40.5t-30 -37.5q-55 -57 -93.5 -87t-69.5 -30q-15 0 -26 12.5t-11 30.5q0 24 28 64l293 364q-26 41 -26 84q0 44 24.5 75t56.5 50t177 96q206 273 206 306q0 22 -26 22q-27 0 -119.5 -32
t-243 -98.5t-356.5 -170.5q-17 -9 -38.5 -7.5t-36.5 17t-15 41.5q0 8 3.5 19t11.5 34.5t14 41.5q2 6 9.5 43t25.5 67.5t61.5 67.5t124.5 78q15 9 28 11.5t13 -7.5q0 -3 -29.5 -24.5t-64.5 -70.5q292 102 430.5 143.5t222.5 41.5q46 0 77 -62.5t31 -81.5q0 -28 -22 -63
l-160 -240q190 94 295.5 149.5t229.5 121t157 82t43 16.5q23 0 23 -21q0 -12 -34.5 -65.5t-76.5 -96t-70 -42.5q-7 0 -17 3.5t-19 6.5q-135 -70 -330.5 -166t-308.5 -150l-86 -129l507 -344q70 -47 101.5 -75t47 -61t15.5 -83q0 -82 -35 -82z" />
    <glyph glyph-name="L" unicode="L" horiz-adv-x="1217" 
d="M1075 758l31 -31q-82 -103 -143.5 -150t-90.5 -47q-24 0 -24 43q0 107 141 330q119 193 119 215q0 19 -16 19q-28 0 -141 -126t-279 -356q-188 -256 -258 -366q133 -13 218.5 -33.5t248 -66.5t239.5 -54q-94 -107 -129.5 -145.5t-54.5 -46.5q-30 -13 -89 -1.5t-187 44.5
t-239.5 55t-203.5 22q-52 0 -89.5 -12t-104 -39.5t-93.5 -27.5q-39 0 -39 32q0 18 13 41q33 53 64 101t66 75t101 42t174 16q163 250 304 443.5t256.5 326.5t202.5 201.5t138 68.5q36 0 56 -20t20 -56q0 -120 -211 -497z" />
    <glyph glyph-name="M" unicode="M" horiz-adv-x="1706" 
d="M1729 319v-69q-95 -89 -161.5 -143.5t-132.5 -98t-109.5 -62t-74.5 -18.5q-74 0 -121 55t-47 142q0 100 40.5 198t115.5 202.5t188 234.5q84 96 84 108q0 7 -5 12t-11 5q-19 0 -117 -84t-251.5 -247t-331.5 -388q-10 -12 -63.5 -81.5t-75.5 -90.5t-38 -21
q-28 0 -48.5 56.5t-20.5 120.5q0 39 25.5 84t111 161.5t141.5 196.5t123 194q47 79 69.5 126t22.5 83q0 31 -18 31q-38 0 -143 -101.5t-259.5 -301.5t-322.5 -463q-55 -90 -78 -121t-51 -31q-35 0 -65.5 74.5t-30.5 120.5q0 15 12 33q132 176 217 299t151 233.5t96 182
t30 112.5q0 43 -39 43q-32 0 -109 -41t-194.5 -112t-188.5 -108.5t-106 -37.5q-33 0 -33 37q0 21 14 96.5t29 106.5q21 40 107.5 106t95.5 66q8 0 8 -7q0 -4 -8 -12q-41 -33 -61 -54t-25 -46q183 110 327.5 167.5t200.5 57.5q28 0 53 -37.5t42.5 -87t17.5 -63.5
q0 -51 -26 -120.5t-70.5 -161.5t-110.5 -230q52 67 99 124t93.5 111t94.5 109q65 75 146 143.5t151.5 112t95.5 43.5q35 0 62.5 -38.5t27.5 -82.5q0 -29 -38 -111t-111 -210t-193 -330q114 121 237 249t183 187t100 90q55 42 110.5 90.5t87.5 76.5t57 43t46 15
q26 0 65.5 -60t39.5 -77q0 -21 -23.5 -50t-97.5 -108q-136 -146 -236 -294.5t-151.5 -271t-51.5 -193.5q0 -44 16.5 -64t51.5 -20q32 0 59.5 12t61 34t63.5 42q42 25 82.5 53.5t63 45t33.5 23.5z" />
    <glyph glyph-name="N" unicode="N" 
d="M219 387q179 293 267.5 461.5t88.5 214.5q0 17 -12 28t-28 11q-31 0 -175 -60q-119 -50 -174 -79.5t-151.5 -84.5t-110.5 -55q-28 0 -28 39q0 74 97 199t261 219q20 13 20 -2q0 -5 -24 -23t-42.5 -36.5t-41.5 -55.5q210 105 308.5 148t168.5 43q61 0 96 -25.5t35 -73.5
q0 -42 -33.5 -122t-97.5 -194.5t-130.5 -226.5t-240.5 -405q194 243 357 425t284 296t204 171.5t122 57.5q14 0 33 -26.5t34 -64.5t15 -62q0 -66 -33.5 -131t-99.5 -156q-188 -254 -274.5 -400t-86.5 -235q0 -67 70 -67q32 0 75 24t103 74t121 109l2 -78
q-86 -88 -154 -150.5t-128.5 -109.5t-108.5 -71t-84 -24q-52 0 -83.5 35.5t-31.5 93.5q0 54 23.5 130.5t72 176.5t120 217t161.5 244q88 126 88 162q0 21 -22 21q-89 0 -406 -355q-20 -22 -69.5 -81.5t-101 -126.5t-115.5 -150.5t-130 -169.5q-31 -41 -53 -41q-24 0 -63 39
t-39 57q0 21 55.5 105t89.5 141z" />
    <glyph glyph-name="O" unicode="O" 
d="M772 1026q27 7 54.5 14t56 12t55.5 5q58 0 99.5 -26t62 -70.5t20.5 -96.5q0 -81 -29.5 -185.5t-84.5 -212.5t-129 -204q-101 -130 -242.5 -209.5t-259.5 -79.5q-87 0 -153.5 47.5t-104 138t-37.5 212.5q0 164 89.5 328.5t226 298t275.5 214t226 80.5q71 0 109 -43.5
t71 -140.5q-93 -3 -162 -22.5t-143 -59.5zM520 823q-70 -75 -141.5 -193.5t-115.5 -232.5t-44 -174q0 -149 139 -149q97 0 250.5 131t267 315.5t113.5 335.5q0 111 -88 111q-68 0 -166 -54t-188 -153q-32 -36 -127 -176q18 94 100 239z" />
    <glyph glyph-name="P" unicode="P" horiz-adv-x="1280" 
d="M418 594l305 455q-104 -4 -219 -30t-197 -55.5t-146.5 -56t-92.5 -37.5q-7 0 -14 5t-7 12q0 8 46.5 98t109.5 193q350 125 618 125q310 0 430 -132q43 -46 66.5 -113.5t23.5 -133.5q0 -150 -62.5 -272.5t-178.5 -212.5t-273 -137.5t-344 -47.5q-33 0 -135 12l-90 -164
q14 -21 14 -34q0 -31 -14 -52q-20 -30 -53 -79t-44.5 -65t-26 -28t-28.5 -12q-29 0 -37 17.5t-8 48.5q0 44 43.5 139.5t131.5 253.5q-47 18 -73 47t-26 57q0 62 71 115t210 84zM522 567l-57 -96q38 -2 67.5 -4t49.5 -2q175 0 303.5 47t204 116.5t109.5 139.5t34 117
q0 65 -52 102t-149.5 50.5t-251.5 13.5q2 -11 2 -27q0 -52 -55 -137l-174 -273l131 15q16 0 16 -15q0 -13 -26 -18z" />
    <glyph glyph-name="Q" unicode="Q" horiz-adv-x="1323" 
d="M276 698v88q0 76 25 125t99.5 97t220.5 112q162 73 267.5 106.5t217.5 33.5q128 0 198 -60t70 -168q0 -327 -850 -788q89 -14 206.5 -38t188.5 -35t146 -11q95 0 184 26q-62 -134 -88.5 -180.5t-57.5 -68t-83 -21.5q-110 0 -198 13.5t-231.5 42.5t-222.5 41.5t-157 9.5
q-28 -18 -45.5 -28.5t-34.5 -18t-31 -7.5q-41 0 -41 45q0 40 30 99.5t56 83.5q29 28 86.5 40t157.5 17q215 123 365.5 228t271.5 227q72 72 119.5 139t68.5 112t21 64q0 41 -68 41q-98 0 -208.5 -33t-231 -95t-272.5 -161q68 6 133 6q76 0 76 -28q0 -11 -21.5 -18t-73.5 -17
q-30 -5 -61.5 -17.5t-73.5 -32.5t-64.5 -29t-37.5 -9q-56 0 -56 67z" />
    <glyph glyph-name="R" unicode="R" horiz-adv-x="1343" 
d="M776 92l-377 184q-144 -197 -161 -260q-12 -45 -53.5 -75.5t-59.5 -30.5q-51 0 -51 39q0 22 60.5 126.5t166.5 246.5q-59 24 -73 32t-11 30.5t35 70.5q28 42 42 56.5t33 23t40 11.5t118 15q79 107 171.5 231t144.5 193q-157 -21 -219 -35q-66 -13 -110.5 -21.5t-62.5 -15
t-18 -18.5q0 -11 22 -15t55.5 -4t52 -2.5t18.5 -11.5q0 -10 -24.5 -11.5t-137.5 -6.5q-64 -2 -107.5 -4t-60.5 -2q-23 0 -36 14t-13 37q0 17 19 63t54 93t80 73q51 31 158.5 62.5t239 51t260.5 19.5q78 0 152.5 -9t135 -22t95.5 -26q91 -30 139.5 -91t48.5 -134
q0 -71 -24.5 -138.5t-75 -125t-121.5 -93.5q-58 -30 -176 -61t-285 -55t-373 -35q154 -54 287.5 -108.5t225 -97t143.5 -69.5q73 -38 95 -55t29 -44t7 -89q0 -70 -8.5 -103.5t-36.5 -33.5q-9 0 -47.5 19.5t-106.5 57t-123.5 67t-175.5 87.5zM864 995q1 -7 1.5 -13t0.5 -17
q0 -28 -17.5 -64.5t-45 -75t-82 -110t-100.5 -131.5q210 40 358.5 77t244.5 74.5t144.5 79t48.5 86.5q0 50 -101.5 78.5t-248.5 28.5q-30 0 -63.5 -1.5t-80 -6t-59.5 -5.5z" />
    <glyph glyph-name="S" unicode="S" horiz-adv-x="1323" 
d="M1051 289q-25 46 -75 83t-112.5 59.5t-130.5 33.5q-202 30 -377 131q-15 8 -32 34t-17 50q0 88 29.5 176.5t75.5 138.5q74 83 266.5 145t433.5 62q144 0 222.5 -22t78.5 -68q0 -75 -20.5 -116t-44 -54.5t-82.5 -36.5q-63 -22 -109.5 -46t-79.5 -46t-41 -22q-10 0 -10 8
q0 17 35.5 51.5t87.5 60.5q55 29 55 37q0 13 -61 13q-185 0 -342 -33t-247.5 -87t-90.5 -110q0 -35 37.5 -49.5t165.5 -48.5t229 -78q145 -62 215 -129t70 -150q0 -57 -27.5 -114.5t-80.5 -105.5t-122 -79q-59 -25 -148.5 -47t-194 -34.5t-199.5 -12.5q-175 0 -281.5 33
t-106.5 100q0 30 36 93.5t85 85.5q43 17 83 19.5t40 -9.5q0 -3 -3 -6t-7 -5l-8 -4q-20 -8 -32.5 -12.5t-20 -9t-7.5 -12.5q0 -21 207 -21q180 0 295 13t203 47t160 94z" />
    <glyph glyph-name="T" unicode="T" 
d="M817 199l33 -25q-13 -28 -25 -49t-29 -51t-26 -45q-75 -131 -141 -131q-28 0 -48 22t-20 60q0 54 38.5 148t119 231.5t202.5 311.5t275 367q-88 13 -209 13q-139 0 -309.5 -31t-297 -71.5t-126.5 -59.5q0 -7 5 -9.5t16.5 -4t29.5 -3.5q117 -16 117 -36q0 -10 -51 -9.5
t-123 0.5q-57 0 -82.5 4.5t-34 17t-8.5 38.5q0 17 10 74q19 106 58.5 170t121 104.5t224.5 64.5q240 41 397 41q116 0 183 -9.5t98.5 -27.5t40 -35.5t22.5 -60.5l31 -92q3 -9 5 -14.5t3.5 -11.5t1.5 -11q0 -39 -17.5 -70t-64 -93t-68.5 -97q-258 -419 -352 -620z" />
    <glyph glyph-name="U" unicode="U" horiz-adv-x="1280" 
d="M1227 788q-98 -144 -165 -261t-100.5 -199.5t-33.5 -122.5q0 -74 65 -74q69 0 312 188l-2 -69q-281 -287 -412 -287q-156 0 -156 162q0 97 95 275t290 460q-229 -250 -382.5 -411t-317.5 -312q-39 -37 -71 -67.5t-64 -48t-70 -17.5q-59 0 -98 46t-39 130q0 54 32 125.5
t97 166.5t160 208q154 185 213 261t59 97q0 15 -16 15q-19 0 -63.5 -17.5t-117.5 -57t-188 -112.5q-86 -54 -169.5 -87.5t-117.5 -33.5q-20 0 -33.5 11t-13.5 28q0 24 21 78.5t54.5 113t59.5 87.5q72 80 197 141t257 94t218 33q64 0 93.5 -21.5t29.5 -70.5
q0 -107 -27 -165.5t-90 -151.5q-23 -36 -68.5 -98.5t-92 -122t-76.5 -99.5t-62 -88q-87 -128 -110 -165t-23 -64q0 -35 33 -35q30 0 58 21.5t120 101.5q106 91 206 191t182 190.5t208 234.5q141 164 180 205t64 41q22 0 39.5 -35.5t17.5 -99.5q0 -34 -34.5 -90.5
t-147.5 -221.5z" />
    <glyph glyph-name="V" unicode="V" horiz-adv-x="874" 
d="M723 1130q0 -9 -23 -45.5t-68 -107t-109 -180t-132 -242.5q-78 -153 -112.5 -240.5t-34.5 -150.5q0 -50 53 -88q64 50 126 119t122.5 154t140 215t141.5 239q-3 9 -6.5 18t-3.5 15q0 47 19 88t47.5 80t85.5 110q15 19 37 19q36 0 36 -46t-37.5 -144.5t-110.5 -231.5
t-181.5 -297.5t-245.5 -343.5q-139 -181 -199 -181q-34 0 -77 37.5t-74 102.5t-31 139q0 44 18.5 113t58 165.5t89.5 190.5q52 99 91.5 164t89.5 144.5t50 86.5q0 15 -20 15q-58 0 -154.5 -59t-251.5 -179q-59 -46 -74.5 -59.5t-15.5 -22.5q0 -12 19 -12q8 0 54 6t73 6
q45 0 45 -16q0 -14 -18.5 -22t-51 -16t-88.5 -22q-60 -16 -127.5 -46t-77.5 -30q-19 0 -23.5 14t-4.5 46q0 142 47 219.5t168 161.5q138 96 264 159.5t217.5 93t134.5 29.5q42 0 83.5 -54t41.5 -114z" />
    <glyph glyph-name="W" unicode="W" horiz-adv-x="1430" 
d="M88 162q0 23 10 64.5t27 64.5q43 61 79 112t64 88t56 66q171 185 245 276.5t74 127.5q0 24 -22 37.5t-58 13.5q-74 0 -186 -52.5t-261.5 -136.5t-166.5 -84q-27 0 -27 39q0 33 21 94q16 66 26 102.5t33.5 65.5t78 63t167.5 93l10 -37q94 38 177.5 58t142.5 20
q116 0 164.5 -39.5t48.5 -171.5q0 -72 -21 -120t-82 -134q-139 -202 -209 -280q-203 -232 -203 -271q0 -22 29 -22q24 0 68 34t106 98t172 183q117 126 197.5 222.5t132.5 165t55 73.5q54 66 111.5 108.5t73.5 42.5q12 0 28 -22t27.5 -52t11.5 -46q0 -5 -24 -48.5t-52 -90
t-90 -142.5q-136 -211 -208 -354.5t-72 -188.5q0 -16 11.5 -29.5t23.5 -13.5q16 0 58 25.5t93 73.5q67 64 122 133t109 154t96 161t85 160l-17 51q-4 12 -4 31q0 15 59 97.5t78 82.5q21 0 35.5 -30.5t14.5 -61.5q0 -34 -30.5 -135.5t-95 -245.5t-159.5 -293
q-82 -130 -175.5 -222.5t-168.5 -137.5t-111 -45q-41 0 -86 36q-37 32 -52.5 57.5t-20.5 55.5t-5 70q0 85 47 199t140 284q-291 -354 -450.5 -515t-233.5 -161q-49 0 -83 58.5t-34 140.5z" />
    <glyph glyph-name="X" unicode="X" horiz-adv-x="1237" 
d="M725 610l10 449q-94 -14 -184.5 -50.5t-161 -77.5t-116.5 -77t-46 -45q0 -10 27 -10q10 0 29.5 1.5t52.5 4.5q18 0 18 -6q0 -3 -6 -8t-8 -5q-94 -37 -168.5 -60.5t-85.5 -23.5q-18 0 -18 23q0 60 34.5 142.5t96.5 144.5q43 45 121 93t169.5 87t184.5 62.5t170 23.5
q46 0 71 -17.5t25 -78.5q0 -25 -7.5 -135t-8.5 -220l186 203q44 48 90 99.5t62.5 64t33.5 12.5q35 0 35 -30q0 -41 -82 -187q-30 -16 -73 -24l-267 -303l-32 -543q-2 -27 9.5 -40t33.5 -13q28 0 79.5 28.5t135.5 85.5q4 2 12 2q18 0 18 -16q0 -25 -64 -100.5t-148.5 -135
t-153.5 -59.5q-51 0 -68.5 39t-17.5 129q0 29 0.5 58t1.5 84t2.5 114t3.5 147q-119 -126 -196 -216t-116.5 -141t-50.5 -67q-49 -59 -116 -104t-99 -45t-32 49q0 60 55.5 140t140.5 139q23 13 88 47z" />
    <glyph glyph-name="Y" unicode="Y" horiz-adv-x="1130" 
d="M-131 696l18 117q9 60 32 98t80.5 83.5t178.5 129.5q291 203 453 203q49 0 69.5 -20t20.5 -70q0 -35 -26.5 -96t-97 -193t-124.5 -237q-44 -86 -100 -182.5t-75 -132.5t-19 -54q0 -20 13 -34.5t32 -14.5q26 0 58.5 28t127.5 121q46 46 98.5 109t130.5 162t144 184
q41 53 74 95t56.5 64.5t37.5 22.5q12 0 39 -30l24 -31q27 -38 27 -55q0 -20 -74.5 -146.5t-126.5 -219t-134.5 -267t-158.5 -387.5q203 153 278 204.5t109 51.5q23 0 23 -19q0 -21 -22 -54.5t-59 -74t-111.5 -117t-162.5 -165.5q-54 -55 -105 -128t-79 -113t-51 -46
q-34 -10 -62 15t-28 79q0 38 38.5 157t116.5 296q46 106 94 200.5t110.5 208t122.5 215.5t102 174q-100 -131 -198.5 -254.5t-220 -260t-245.5 -255.5q-54 -51 -77.5 -69.5t-61.5 -18.5q-24 0 -46.5 16.5t-37.5 43t-15 51.5q0 42 12.5 74t43.5 96q136 275 198 377
q222 356 222 399q0 14 -10 22.5t-25 8.5q-28 0 -67 -24.5t-98 -72.5t-143.5 -115t-177.5 -128q-37 -24 -83.5 -57t-53.5 -33q-14 0 -14 14q0 13 6 55z" />
    <glyph glyph-name="Z" unicode="Z" horiz-adv-x="1110" 
d="M158 -573l-35 32q-31 31 -31 68q0 34 47.5 106.5t144.5 167t245.5 199t336.5 199.5q-11 73 -39.5 98t-97.5 25q-58 0 -201 -60.5t-254 -150.5q-42 -35 -59 -35q-20 0 -20 33q0 56 32.5 128.5t79.5 112.5q65 57 201 119q147 69 268 151.5t187.5 153.5t66.5 107
q0 39 -76 39q-98 0 -229 -43t-292 -135.5t-337 -227.5q8 139 24 220.5t50 132.5t89 90t165 100q302 170 506 170q124 0 196 -61t72 -173q0 -78 -32.5 -144t-95 -124t-146 -109t-203.5 -110q133 -5 192.5 -58.5t77.5 -189.5l131 55v-75l-137 -64q-39 -169 -140.5 -312
t-227 -243.5t-241.5 -155.5t-173 -55q-24 0 -45 19zM840 96q-117 -51 -227 -132.5t-190 -161.5t-131.5 -148.5t-51.5 -89.5q0 -19 28 -19q45 0 161 71t245 210q86 93 115.5 148.5t50.5 121.5z" />
    <glyph glyph-name="bracketleft" unicode="[" horiz-adv-x="598" 
d="M776 1360q75 -10 176 -10q68 0 185 10q-30 -66 -51 -111.5t-40.5 -73t-42.5 -39.5t-57 -12q-41 0 -147 27q-180 -314 -251.5 -436.5t-124.5 -211t-102.5 -172t-84.5 -143.5q-114 -202 -164 -381q102 37 174 37q89 0 164 -43q-67 -102 -100.5 -164.5t-57.5 -150.5
q-31 20 -62.5 31.5t-80.5 11.5q-50 0 -84.5 -7t-76.5 -18.5t-52 -11.5q-58 0 -58 127q0 66 34 156t102 214.5t171 295t238 387.5q78 126 135 223.5t86 149t84.5 154.5t87.5 161z" />
    <glyph glyph-name="backslash" unicode="\" horiz-adv-x="575" 
d="M573 -135h-145l-424 1515h146z" />
    <glyph glyph-name="bracketright" unicode="]" horiz-adv-x="748" 
d="M545 1372q41 -24 67.5 -33.5t71.5 -9.5q51 0 129 19.5t84 19.5q61 0 61 -108q0 -99 -59 -236.5t-149 -291t-293 -482.5q-96 -156 -173 -288.5t-134 -232.5t-127 -227q-62 4 -98 5t-103 1q-77 0 -162 -10q41 99 65 143.5t53 68.5t70 24q43 0 93 -12t59 -13
q148 261 343 590t267 458.5t99 211.5q12 40 20 84q-58 -20 -96 -29.5t-80 -9.5q-76 0 -164 45q52 83 71.5 116.5t44.5 88t40 108.5z" />
    <glyph glyph-name="asciicircum" unicode="^" horiz-adv-x="961" 
d="M477 1128l-239 -598h-185l355 801h143l356 -801h-182z" />
    <glyph glyph-name="underscore" unicode="_" horiz-adv-x="1024" 
d="M-12 -256v102h1048v-102h-1048z" />
    <glyph glyph-name="grave" unicode="`" horiz-adv-x="682" 
d="M530 911q-33 0 -81 64q-60 78 -95 133t-35 86q0 43 64 43q58 0 90 -35.5t68 -130.5q32 -85 32 -115q0 -18 -12 -31.5t-31 -13.5z" />
    <glyph glyph-name="a" unicode="a" horiz-adv-x="831" 
d="M133 494q152 138 295 205t221 67q21 0 39 -17.5t28.5 -40.5t10.5 -34q0 -18 -14 -26.5t-49 -20.5q7 -16 18 -41t17 -40.5t6 -27.5q0 -24 -48.5 -89.5t-68 -96.5t-19.5 -76q0 -74 68 -74q70 0 219 131v-61q-253 -281 -362 -281q-39 0 -55.5 25.5t-16.5 75.5q0 79 57 229
q-146 -162 -217 -230.5t-117 -68.5q-22 0 -55 38t-58.5 98.5t-25.5 125.5q0 47 9 78.5t35 64.5t83 87zM612 604q-260 -119 -370.5 -202t-110.5 -171q0 -32 11 -52.5t30 -20.5q11 0 39 14q105 62 192 161.5t209 270.5z" />
    <glyph glyph-name="b" unicode="b" horiz-adv-x="662" 
d="M678 313v-65q-104 -66 -164 -66q-33 0 -70 11q-90 -114 -154.5 -167t-129.5 -53q-75 0 -115.5 79t-40.5 196q0 159 96 346.5t231.5 351t262.5 270.5t172 107q43 0 43 -59q0 -262 -672 -914q-2 -18 -2 -71q0 -138 74 -138q29 0 58.5 23.5t90.5 89.5q-24 54 -24 80
q0 55 45 119t102.5 110.5t83.5 46.5q41 0 41 -59q0 -45 -23.5 -108t-68.5 -144q17 -14 27 -20.5t30 -6.5q46 0 107 41zM170 463q52 45 104.5 106.5t153.5 188.5q97 122 152.5 203.5t83.5 135.5t28 74q0 15 -8 15q-22 0 -91.5 -72.5t-158.5 -198.5q-123 -174 -178 -262
t-86 -190z" />
    <glyph glyph-name="c" unicode="c" horiz-adv-x="598" 
d="M618 313v-67q-107 -105 -174.5 -163t-126 -90t-114.5 -32q-55 0 -101 43.5t-72 114t-26 149.5q0 68 30 121t116 137q102 100 189.5 154.5t137.5 54.5q36 0 61 -25t25 -63q0 -32 -33 -91t-74 -102.5t-65 -43.5q-26 0 -26 28q1 8 1.5 15t0.5 14q0 12 -8.5 13.5t-20.5 -7.5
q-100 -70 -137 -98.5t-58.5 -57.5t-21.5 -61q0 -59 38 -96t99 -37q63 0 151.5 48.5t208.5 141.5z" />
    <glyph glyph-name="d" unicode="d" horiz-adv-x="854" 
d="M473 313q-88 -100 -157.5 -170t-113 -104.5t-59.5 -34.5q-26 0 -58.5 42t-55.5 107t-23 132q0 97 94 195.5t214 163.5t180 65q49 0 96 -62q77 161 146.5 286t116.5 186t67 61q22 0 40.5 -21.5t18.5 -48.5q0 -52 -76 -178.5t-150 -246.5t-127 -236.5t-53 -215.5
q0 -90 58 -90q35 0 88 39.5t151 132.5v-73q-216 -279 -333 -279q-47 0 -67.5 36t-20.5 107q0 96 24 207zM547 557q-89 -30 -209 -96.5t-145 -91.5q-22 -20 -39 -75t-17 -83q0 -17 10 -28t25 -11q14 0 32 12t57.5 47t51.5 45q17 15 75.5 64.5t85.5 77.5t46 62.5t27 76.5z" />
    <glyph glyph-name="e" unicode="e" horiz-adv-x="598" 
d="M176 279v-25q0 -59 29 -92t76 -33q49 0 101.5 23t104.5 61t127 102v-61q-113 -136 -212 -208.5t-201 -72.5q-89 0 -141 69t-52 189q0 105 49 190.5t160 180.5q76 65 151 98t134 33q47 0 74.5 -21.5t27.5 -64.5q0 -63 -47 -125.5t-143.5 -124t-237.5 -118.5zM186 344
q90 35 154 87t94.5 99.5t30.5 69.5q0 23 -21 23q-18 0 -58.5 -23t-82 -60t-74.5 -87t-43 -109z" />
    <glyph glyph-name="f" unicode="f" horiz-adv-x="555" 
d="M573 315v-69q-60 -60 -91 -87t-85 -55q0 -91 -9 -155t-40 -134.5t-96 -154.5q-64 -83 -126 -127.5t-97 -44.5q-39 0 -72 64t-33 159q0 91 31 192t96 261q-49 64 -49 127q0 51 26 78t74 49q35 55 66.5 93.5t85.5 102.5q104 256 244 500q39 68 56 91.5t36 23.5q17 0 30 -25
t13 -65q0 -49 -10.5 -90t-30 -82.5t-54 -99.5t-42.5 -72q-50 -88 -113 -195t-99.5 -169t-52.5 -93q54 -47 85.5 -81t54.5 -81q34 13 62 31t66 49.5t74 58.5zM274 47l-2 21q-28 -3 -45 -1.5t-39.5 8.5t-35 13t-27.5 12q-76 -186 -76 -309q0 -61 18.5 -104t43.5 -43
q26 0 65.5 46t68.5 136t29 221z" />
    <glyph glyph-name="g" unicode="g" horiz-adv-x="788" 
d="M811 248l-332 -273q-140 -242 -255 -361.5t-171 -119.5q-30 0 -30 37q0 72 73 184q29 44 66.5 86t71 72.5t88.5 76t75 62.5q100 204 144 312q-94 -100 -164 -164t-128.5 -98.5t-105.5 -34.5q-51 0 -94 81.5t-43 167.5q0 40 18.5 84t58 94t100.5 102.5t143 102.5
q155 97 241 97q64 0 64 -47q0 -65 -139 -127q-85 -37 -168.5 -98t-135 -129.5t-51.5 -123.5q0 -27 13 -43t34 -16q35 0 80 32t133 113q40 37 106.5 119.5t110 126t78.5 43.5q20 0 32.5 -12.5t12.5 -36.5q0 -46 -36.5 -133.5t-131.5 -286.5l242 176v-65z" />
    <glyph glyph-name="h" unicode="h" horiz-adv-x="748" 
d="M764 315v-63q-87 -89 -150.5 -145.5t-111 -85.5t-80.5 -29q-78 0 -78 92q0 74 48.5 171.5t139.5 229.5q-45 -25 -85 -57.5t-71 -68t-52 -60.5q-65 -73 -125 -149.5t-81 -99.5t-40 -23q-78 0 -78 192q0 63 19 139t102 201q175 262 299.5 428.5t206.5 252t110 83.5
q35 -3 56.5 -14t21.5 -25q0 -25 -34.5 -82.5t-118.5 -179.5q-91 -129 -129 -181.5t-113.5 -149t-138 -172t-142.5 -163.5v-120q134 149 232 244t166 143.5t100 48.5q30 0 56 -35.5t26 -58.5q0 -10 -10 -25q-72 -86 -114.5 -142.5t-65.5 -101t-23 -76.5q0 -47 45 -47
q48 0 213 129z" />
    <glyph glyph-name="i" unicode="i" horiz-adv-x="469" 
d="M426 762q-25 0 -47.5 19t-22.5 48q0 44 42 98t87 54q30 0 50 -18.5t20 -53.5q0 -43 -41 -95t-88 -52zM494 315v-73q-97 -125 -181 -188.5t-143 -63.5q-82 0 -122 86t-40 188q0 39 8 74.5t19 58.5t41 72q142 221 260 221q61 0 61 -47q0 -32 -39.5 -100t-70.5 -97
q-87 -84 -113.5 -117t-26.5 -75q0 -36 27 -60t70 -24q47 0 103.5 34.5t146.5 110.5z" />
    <glyph glyph-name="j" unicode="j" horiz-adv-x="575" 
d="M717 1012q0 -30 -23 -84q-25 -73 -44.5 -97t-59.5 -24q-86 0 -86 57q0 45 53 129q28 45 45 55.5t55 10.5q60 0 60 -47zM76 494l28 79l185 84q165 78 239 78q58 0 58 -53q0 -19 -15.5 -61.5t-52 -121.5t-84.5 -179.5t-100 -206.5q75 51 131.5 94.5t132.5 109.5l2 -71
q-192 -166 -356 -330q-99 -193 -175 -291t-114 -98q-27 0 -27 53q0 65 29 130.5t89 138t142 147.5q127 250 179.5 363.5t52.5 148.5q0 22 -21 22q-11 0 -149 -64.5t-172 -64.5q-21 0 -21 23q0 15 19 70z" />
    <glyph glyph-name="k" unicode="k" horiz-adv-x="748" 
d="M770 315v-67q-112 -131 -188 -198.5t-127 -67.5q-49 0 -88.5 29t-71 80t-74.5 142q-51 -63 -92 -117.5t-57 -72.5t-29 -18q-27 0 -39 34.5t-12 100.5q0 90 21.5 173.5t62 162.5t104 170.5t142.5 191.5q109 138 188 225.5t137.5 132t97.5 44.5q48 0 48 -43
q0 -37 -177 -266.5t-516 -626.5v-86q227 243 365.5 361t214.5 118q31 0 48 -36.5t17 -84.5q0 -98 -84 -181.5t-258 -191.5q30 -45 53 -65.5t58 -20.5q31 0 67 21t73.5 53t115.5 104zM375 264q38 25 94.5 77.5t96.5 109t40 94.5q0 16 -14 16q-38 0 -130.5 -73t-180.5 -187
q38 0 94 -37z" />
    <glyph glyph-name="l" unicode="l" horiz-adv-x="469" 
d="M494 326v-74q-209 -277 -340 -277q-71 0 -111.5 77.5t-40.5 203.5q0 102 48 242.5t128.5 285t167 252t160.5 150.5q30 18 47 18q21 0 28 -18.5t7 -63.5q0 -139 -113 -341.5t-315 -413.5q-10 -52 -10 -80q0 -64 27.5 -104t76.5 -40q25 0 54 19.5t61 48.5t125 115zM195 506
q52 51 100.5 116t91.5 139t67.5 133t24.5 89q0 23 -16 23q-6 0 -23 -11q-61 -50 -137 -195.5t-108 -293.5z" />
    <glyph glyph-name="m" unicode="m" horiz-adv-x="1130" 
d="M473 178q138 122 237 212.5t155.5 142.5t99.5 88t55 36q23 1 44 -47.5t21 -77.5q0 -19 -63.5 -89.5t-95 -112.5t-31.5 -88q0 -27 18 -43.5t43 -16.5q29 0 69.5 30t127.5 107v-71q-87 -82 -158 -141.5t-123.5 -89t-87.5 -29.5q-31 0 -52 23.5t-21 58.5q0 34 12 69t37 83
t66 115.5t75 123.5q-102 -83 -181 -160t-129 -134.5t-79 -90.5q-56 -62 -104 -62q-52 0 -52 74q0 30 39 107.5t111 197.5q6 8 6 25q0 20 -20 20q-22 0 -63.5 -41.5t-160.5 -173.5q-33 -37 -74.5 -96.5t-59.5 -79.5t-36 -20q-36 0 -67 64t-31 149q0 62 20.5 107t63.5 112
q67 97 109.5 138.5t89.5 41.5q29 0 49 -11.5t20 -31.5q0 -21 -36.5 -69t-92.5 -99q-30 -29 -57 -71.5t-27 -61.5q0 -27 21 -27q17 0 86 70t151.5 152.5t153 137t119.5 54.5q30 0 49.5 -22.5t19.5 -55.5q0 -22 -30 -79.5t-87.5 -142t-148.5 -204.5z" />
    <glyph glyph-name="n" unicode="n" horiz-adv-x="748" 
d="M690 496q-176 -196 -176 -273q0 -43 35 -43q29 0 75.5 30.5t145.5 108.5v-69q-142 -140 -218 -202t-124 -62q-82 0 -82 108q0 32 10 63t27.5 64.5t53.5 96t83 141.5q-57 -29 -143 -115q-56 -54 -95 -102.5t-83.5 -108t-65 -80t-41.5 -20.5q-32 0 -59 67t-27 156
q0 55 12.5 86t49.5 88q69 106 119 155.5t96 49.5q32 0 51.5 -11t19.5 -34q0 -10 -6 -21t-13.5 -20t-31.5 -35q-158 -175 -158 -227q0 -29 19 -29q12 0 46.5 38.5t89 101t129 130.5t169.5 131q53 37 88 37q16 0 31.5 -44t15.5 -89q0 -22 -43 -67z" />
    <glyph glyph-name="o" unicode="o" horiz-adv-x="641" 
d="M659 317v-67q-66 -60 -106 -80t-115 -16q-130 -154 -229 -154q-56 0 -102 37t-73.5 101t-27.5 143q0 64 42.5 142t110 145.5t144.5 109t143 41.5q47 0 74 -14.5t27 -40.5q0 -20 -23 -46q38 -8 52 -26.5t14 -67.5q0 -48 -22.5 -121t-61.5 -137l18 -18h15q17 0 33.5 8.5
t29.5 18t57 42.5zM453 580q-83 -50 -142 -90.5t-100 -82t-55 -83.5q-25 -112 -25 -121q0 -66 92 -66q43 0 144 74q-17 47 -17 90q0 63 26 128.5t77 150.5z" />
    <glyph glyph-name="p" unicode="p" horiz-adv-x="831" 
d="M4 231v70q140 152 241.5 286t160.5 213t104 111.5t113 32.5q34 0 34 -26q0 -21 -27.5 -62t-70.5 -84q-57 -56 -111.5 -140.5t-123.5 -215.5q54 42 124.5 99.5t115 90t88 51.5t87.5 19q28 0 36.5 -10t8.5 -39q0 -76 -37 -148.5t-106 -150.5t-170 -170q35 -13 72 -13
q116 0 311 177v-72q-76 -68 -148.5 -128t-136.5 -96t-118 -36q-20 0 -42.5 4.5t-41.5 11t-49 18.5t-46 17q-32 -8 -36 -8q-35 0 -82 28q-33 -64 -72.5 -165.5t-66.5 -161.5t-72 -115q-25 -25 -35 -25q-43 0 -43 76q0 66 26.5 137.5t65 135.5t84.5 129.5t65 97.5
q158 272 246 463q-230 -280 -348 -402zM410 182q99 104 147.5 177t48.5 112q0 37 -37 37q-50 0 -140.5 -82.5t-186.5 -222.5q74 8 99 5.5t69 -26.5z" />
    <glyph glyph-name="q" unicode="q" horiz-adv-x="768" 
d="M745 678q0 -27 -14 -47q5 -8 14.5 -24.5t15 -27.5t5.5 -22q0 -14 -24 -54.5t-86.5 -133t-123.5 -183.5l48 -30q120 76 208 166v-72q-79 -96 -161 -172q8 -42 8 -53q0 -100 -95 -228t-215 -225.5t-167 -97.5q-74 0 -74 131q0 40 58 139t164 249.5t269 375.5
q-196 -192 -245.5 -239t-97 -80.5t-85.5 -33.5t-71 43t-52.5 102t-19.5 103q0 52 12.5 86t49.5 78q82 103 196.5 177t228.5 109.5t197 35.5q57 0 57 -72zM152 184q42 0 103.5 34t133.5 99q88 79 153.5 145.5t98.5 107t33 46.5q0 9 -8 9q-32 0 -132 -42.5t-204 -107
t-158 -127.5q-21 -25 -36 -72.5t-15 -62.5q0 -29 31 -29zM444 53q-72 -105 -142.5 -238.5t-70.5 -154.5q0 -14 14.5 -12t45.5 16q65 29 149 137q57 75 74.5 123.5t24.5 110.5q-60 -10 -95 18z" />
    <glyph glyph-name="r" unicode="r" horiz-adv-x="598" 
d="M6 238v65q54 64 82 109q-32 11 -46.5 27t-14.5 48q0 36 30 91t74 103t80 62q14 7 27 7q20 0 20 -19q0 -17 -31 -69q206 32 260 32q21 0 29 -4q17 -9 28 -42t11 -66q0 -21 -18.5 -45.5t-63.5 -71.5q-53 -57 -89 -124t-36 -101q0 -47 58 -47q61 0 212 124v-67
q-83 -87 -137 -137t-100 -79.5t-82 -29.5q-42 0 -70 38.5t-28 111.5q0 43 22 98t64.5 119.5t95.5 128.5q-28 -6 -63 -12.5t-74 -13.5t-60 -11q-62 -124 -180 -225z" />
    <glyph glyph-name="s" unicode="s" horiz-adv-x="639" 
d="M12 287v24q258 272 355 381q22 123 106 123q21 0 45 -12l6 -19q-4 -12 -4 -34q0 -19 14.5 -70.5t22.5 -86.5t8 -79q0 -66 -30 -126.5t-87 -116t-147 -113.5q36 -6 57 -6q41 0 88.5 20.5t97 55t115.5 89.5v-67q-128 -125 -229 -189.5t-174 -64.5q-94 0 -174 80
q-47 48 -58.5 92t-11.5 119zM385 440l-18 146q-62 -70 -265 -269q60 -13 82 -35t62 -85q68 28 104.5 76.5t36.5 132.5q0 10 -0.5 18t-1.5 16z" />
    <glyph glyph-name="t" unicode="t" horiz-adv-x="512" 
d="M367 834h43q53 95 96 134.5t98 39.5t55 -25q0 -12 -43 -65t-65 -89q34 -4 60.5 -7t41.5 -5q-57 -106 -143 -217q-28 2 -47 3.5t-38.5 3t-47.5 3.5q-54 -87 -90.5 -155.5t-56 -125.5t-19.5 -108q0 -69 55 -69q38 0 99.5 40.5t164.5 124.5v-67q-270 -293 -399 -293
q-45 0 -72.5 35t-27.5 90q0 37 15.5 88t55.5 154q-14 -12 -26.5 -23.5t-23 -21t-22.5 -20t-24 -21.5v69q105 88 254 309q-15 1 -28 1.5t-31 0.5q-59 0 -88 -8q-12 -3 -22.5 -6.5t-14.5 -3.5t-4 6q0 33 41 99q33 56 62.5 83t72 36.5t119.5 9.5z" />
    <glyph glyph-name="u" unicode="u" horiz-adv-x="788" 
d="M487 383q-145 -192 -220.5 -273t-123.5 -81q-38 0 -70 31.5t-49.5 85t-17.5 114.5q0 40 7.5 72t28.5 70.5t55.5 83.5t84.5 102q30 35 50.5 59t40 32.5t63.5 8.5q32 0 61 -8.5t29 -17.5q0 -18 -29.5 -65t-95 -114.5t-151.5 -132.5q-19 -59 -19 -90q0 -43 33 -43
q12 0 40 20.5t94.5 79t119.5 103.5q39 34 90.5 101.5t83.5 101.5q74 78 101 101.5t52 23.5q24 0 32.5 -15t8.5 -61q0 -21 -4 -34t-16.5 -33.5t-50.5 -75.5t-90 -130q-28 -40 -49 -87.5t-21 -71.5q0 -52 41 -52q34 0 79 28t138 101v-67q-117 -108 -173 -157t-97 -74t-78 -25
q-84 0 -84 100q0 38 25 102.5t81 186.5z" />
    <glyph glyph-name="v" unicode="v" horiz-adv-x="662" 
d="M147 313l-18 -84q-4 -16 -4 -36q0 -54 45 -54q43 0 209 168q1 65 48.5 150t105 149t85.5 64q44 0 44 -58q0 -35 -17 -85.5t-50 -109t-81 -120.5q25 -45 51 -45q22 0 48.5 15.5t66.5 47.5v-67q-56 -44 -88.5 -60t-83.5 -16q-20 0 -72 27q-102 -108 -166 -161.5t-104 -53.5
q-69 0 -117.5 82.5t-48.5 181.5q0 133 150 319q45 56 72.5 76.5t62.5 20.5q30 0 57 -11t27 -26q0 -50 -67 -146.5t-155 -167.5z" />
    <glyph glyph-name="w" unicode="w" horiz-adv-x="1004" 
d="M539 197q0 -45 34 -45q44 0 154 149q-4 28 -4 37q0 54 43 132t99 136t85 58q35 0 35 -84q0 -69 -29.5 -136t-85.5 -137q9 -9 20 -18.5t23.5 -16t26.5 -6.5q33 0 84 53v-71q-79 -82 -137 -82q-34 0 -53.5 8.5t-49.5 30.5q-184 -221 -280 -221q-37 0 -58.5 27.5t-21.5 76.5
q0 24 20 180q-39 -45 -91 -106t-84 -93.5t-59.5 -50.5t-55.5 -18q-27 0 -64.5 34t-63.5 90.5t-26 121.5q0 63 18 108t82 135q58 80 103 131t81.5 79t59.5 28q14 0 36.5 -6.5t40 -17.5t17.5 -23q0 -38 -33.5 -96t-99.5 -130t-151 -147q-23 -69 -23 -112q0 -14 8.5 -26.5
t20.5 -12.5q41 0 157.5 128t307.5 388q7 10 30 10q25 0 45.5 -11t20.5 -30q0 -11 -52.5 -117t-91 -194.5t-38.5 -132.5z" />
    <glyph glyph-name="x" unicode="x" horiz-adv-x="598" 
d="M213 315v236q-37 -9 -70.5 -32t-71 -57t-46.5 -34q-11 0 -11 29t59.5 102.5t131.5 136t104 62.5q19 0 33 -22t14 -60q0 -25 -1 -46t-2 -56t-3 -101q221 236 262 236q12 0 19.5 -9.5t7.5 -23.5q0 -33 -53.5 -101.5t-71.5 -68.5q-25 0 -39 8l-127 -162q2 -88 15.5 -131
t48.5 -43q30 0 70 30t130 111v-69q-205 -283 -290 -283q-53 0 -75.5 56t-29.5 172q-35 -36 -82 -87t-68.5 -72.5t-39 -35.5t-31.5 -14t-14 24q0 40 42.5 110t61.5 70q2 0 9 -2l7 -2z" />
    <glyph glyph-name="y" unicode="y" horiz-adv-x="768" 
d="M477 276l-178 -151q-127 -111 -170 -111q-39 0 -82 89.5t-43 156.5q0 57 17.5 96.5t60.5 102.5q61 85 117 144t99 91.5t60 32.5q27 0 52.5 -28t25.5 -58q0 -19 -27.5 -61t-87 -106.5t-165.5 -154.5l-19 -55q-8 -16 -8 -28q0 -27 27 -27q28 0 131.5 71t224.5 191
q47 47 78 83t56 67.5t41.5 47.5t29.5 17q25 3 39 -21t14 -71q0 -27 -24 -67.5t-90 -138t-131.5 -202t-133.5 -235.5q3 3 61.5 60t123.5 119t107 99.5t105 87.5v-67q-135 -145 -244.5 -275t-169 -208t-69.5 -91q-27 -35 -48.5 -65.5t-36 -47t-23.5 -16.5q-21 0 -37.5 41.5
t-16.5 73.5q0 29 11 51q72 162 323 563z" />
    <glyph glyph-name="z" unicode="z" horiz-adv-x="618" 
d="M4 227v74q55 58 113 162q-56 8 -56 45q0 31 37.5 80t88 88t79.5 39q33 0 33 -27q0 -11 -6 -14q-8 -5 -8 -17q0 -10 16 -10q50 0 125.5 20.5t103.5 20.5q23 0 31 -43q21 -114 21 -129q0 -14 -12.5 -26.5t-70 -49.5t-106.5 -71.5t-127 -96.5q54 -25 78.5 -56t42.5 -95
l250 196v-67l-252 -203q-10 -96 -66.5 -195t-131.5 -178t-149 -129.5t-108 -50.5q-33 0 -46 21.5t-13 62.5q0 59 25.5 112t74 105.5t117 107t182.5 132.5q-11 71 -37 88.5t-79.5 35t-53.5 52.5q0 39 375 299q-60 -12 -141 -26.5t-154 -20.5q-51 -81 -97 -142t-79 -94z
M260 -59q-72 -50 -139 -112.5t-115.5 -118.5t-48.5 -68q0 -23 20 -23q36 0 93 40t111 114.5t79 167.5z" />
    <glyph glyph-name="braceleft" unicode="{" horiz-adv-x="854" 
d="M797 -573h-56q-66 0 -97 3t-69 21q-51 23 -84.5 68.5t-49 114t-15.5 157.5q0 208 -7.5 300t-52 151t-149.5 63v164q105 4 149.5 63.5t52 152t7.5 300.5q0 89 15.5 157t48.5 112.5t85 68.5q27 13 54.5 19t52.5 7t59 1h56v-158h-31q-72 0 -107.5 -15.5t-50 -58.5
t-14.5 -133v-145q0 -128 -17.5 -214t-62.5 -144.5t-131 -94.5q81 -38 126.5 -91t65 -138t19.5 -221v-148q0 -90 14.5 -132.5t50.5 -57.5t107 -15h31v-157z" />
    <glyph glyph-name="bar" unicode="|" horiz-adv-x="1110" 
d="M530 -514v1894h160v-1894h-160z" />
    <glyph glyph-name="braceright" unicode="}" horiz-adv-x="854" 
d="M168 1350h55q55 0 94 -5t72 -22q53 -23 86 -68t48.5 -113t15.5 -157q0 -206 7.5 -299.5t51.5 -153.5t150 -63v-164q-106 -3 -150 -63t-51.5 -153t-7.5 -298q0 -89 -15.5 -157.5t-49.5 -114t-85 -68.5q-36 -17 -73.5 -20.5t-92.5 -3.5h-55v157h31q72 0 107.5 15t50 58
t14.5 132v148q0 194 43 296.5t166 153.5q-60 29 -99.5 64.5t-64 87t-35 124t-10.5 177.5v145q0 89 -14.5 132t-50 59t-107.5 16h-31v158z" />
    <glyph glyph-name="asciitilde" unicode="~" horiz-adv-x="1366" 
d="M231 467h-57q9 164 81 244t177 80q69 0 148 -25.5t187.5 -73t162 -67t96.5 -19.5q75 0 123 48t57 137h58q-6 -154 -81 -238t-186 -84q-64 0 -133.5 22.5t-171.5 66t-167 66.5t-119 23q-143 0 -175 -180z" />
    <glyph glyph-name="uni007F.controlDEL" horiz-adv-x="0" 
 />
    <glyph glyph-name="nonbreakingspace" unicode="&#xa0;" horiz-adv-x="575" 
 />
    <glyph glyph-name="exclamdown" unicode="&#xa1;" horiz-adv-x="705" 
d="M6 -428q-18 -6 -39 -6q-31 0 -69 20t-68 60q123 180 212.5 314t153.5 231t134 208q-21 5 -21 23q0 11 25 41.5t43 30.5q14 0 35.5 -19.5t38 -46.5t16.5 -43q0 -17 -18.5 -55.5t-53.5 -101.5t-90 -155.5t-115 -195.5q-115 -201 -184 -305zM500 848q32 0 61 -26t29 -77
q0 -60 -33.5 -139.5t-69.5 -79.5q-22 0 -44 15.5t-37 43.5t-15 62q0 52 36.5 126.5t72.5 74.5z" />
    <glyph glyph-name="cent" unicode="&#xa2;" horiz-adv-x="725" 
d="M643 1221l-88 -148q23 2 74 2q39 0 55 -16t16 -70q0 -41 -10.5 -61t-40.5 -34.5t-114 -41.5q38 46 38 55q0 21 -47 21q-27 0 -47 -4q-71 -148 -102 -262q148 37 201 75q11 11 20 11q16 0 16 -31q0 -65 -20.5 -109t-82.5 -73t-181 -41q-20 -87 -24 -121.5t-6.5 -70
t-8.5 -38.5q-13 -8 -39.5 15t-54.5 90l26 123q-73 16 -103.5 26t-48.5 32t-18 62q0 135 42.5 226.5t129 145.5t221.5 75l101 176q104 32 104 4q0 -2 -4 -9t-4 -9zM272 657q6 19 23 61.5t38 93t36 85.5q-139 -44 -179 -88q-15 -17 -30 -48t-15 -46q0 -27 34 -43.5t93 -14.5z
" />
    <glyph glyph-name="sterling" unicode="&#xa3;" horiz-adv-x="1386" 
d="M649 555h43q125 187 215 303q98 125 172 209.5t139.5 146.5t116 91.5t88.5 29.5q33 0 50.5 -22t17.5 -64q0 -60 -45.5 -159.5t-163.5 -323.5l31 -33q-71 -89 -139.5 -142.5t-92.5 -53.5q-26 0 -26 47q0 38 28.5 113.5t73.5 148.5t83.5 135.5t55.5 95.5t17 47q0 17 -15 17
q-33 0 -137 -121q-35 -42 -71 -84.5t-104.5 -130.5t-102 -133t-90.5 -127q90 -9 139 -29t49 -47q0 -25 -35 -25q-3 0 -75.5 11t-135.5 12l-117 -174q101 -10 196.5 -30t178 -42.5t172 -47t156.5 -36.5q-144 -194 -215 -194q-36 0 -123 20.5t-188 46t-193.5 42t-171.5 16.5
q-56 0 -97 -13t-108.5 -40t-91.5 -27q-35 0 -35 39q0 18 39 79q35 56 69.5 93.5t73.5 57.5t95 29t137 9l113 170q-68 -1 -134 -13t-61 -12q-22 0 -22 21q0 15 13 34.5t36 32.5q48 27 192 27z" />
    <glyph glyph-name="uni00A4.currency" unicode="&#xa4;" horiz-adv-x="1366" 
d="M350 891l-131 129l105 106l131 -131q117 88 274 88q63 0 128 -22.5t126 -65.5l131 131l105 -106l-129 -129q86 -130 86 -270q0 -141 -86 -259l129 -129l-105 -104l-131 129q-130 -88 -266 -88q-143 0 -262 88l-129 -129l-107 104l131 129q-84 136 -84 271q0 140 84 258z
M414 627q0 -144 92 -225.5t216 -81.5t215 80.5t91 226.5q0 61 -23.5 117.5t-66.5 99.5t-99.5 66.5t-117.5 23.5q-83 0 -154 -41t-112 -112t-41 -154z" />
    <glyph glyph-name="yen" unicode="&#xa5;" horiz-adv-x="1280" 
d="M725 618q126 174 354 386q135 124 253.5 188.5t183.5 64.5q22 0 41.5 -14.5t19.5 -36.5q0 -40 -43 -86t-99.5 -80t-84.5 -34q-26 0 -52 14q-109 -59 -199 -136.5t-150 -146.5t-181 -215h266l-45 -88h-280q-13 -22 -20.5 -37.5t-20.5 -38.5h284l-45 -90h-286
q-41 -95 -81 -195.5t-58 -131.5t-42 -31q-31 0 -61.5 45t-30.5 96q0 46 20.5 81.5t88.5 135.5h-211l45 90h231q11 15 25 33.5t31 42.5h-248l45 88h260q19 28 34 130.5t15 226.5q0 223 -68 223q-14 0 -52.5 -23t-84 -59t-80.5 -72q-59 -62 -101 -107t-59.5 -60t-27.5 -15
q-20 0 -33.5 43.5t-13.5 110.5q0 63 29 102.5t135 118.5q113 83 197 127.5t126 44.5q119 0 119 -334q0 -131 -45 -361z" />
    <glyph glyph-name="brokenbar" unicode="&#xa6;" horiz-adv-x="1110" 
d="M530 -514v836h160v-836h-160zM530 598v782h160v-782h-160z" />
    <glyph glyph-name="section" unicode="&#xa7;" horiz-adv-x="1110" 
d="M524 1059q0 -15 9.5 -26.5t19.5 -14.5q149 -55 367 -121q206 -60 206 -182q0 -67 -81 -129t-234 -115q67 -41 99 -77.5t32 -88.5q0 -79 -75.5 -156.5t-196.5 -126.5t-246 -49q-89 0 -166.5 19t-121.5 52t-44 75q0 26 36 81.5t54 55.5q6 0 62 -39q33 -24 87 -40.5
t107 -16.5q79 0 154 25t123.5 62.5t48.5 69.5q0 31 -31.5 48.5t-120.5 50.5q-47 18 -161 52.5t-160.5 66.5t-46.5 90q0 65 29 116.5t84 89t130 64.5q-50 24 -69 44t-19 65t26 119t60 110q30 32 94.5 59t159 44.5t199.5 17.5q131 0 185.5 -22t54.5 -89q0 -37 -9.5 -57
t-30 -33t-56 -26t-101.5 -37q-16 8 -16 14q0 4 17 17t17 24q0 16 -42 28.5t-97 12.5q-132 0 -234 -38.5t-102 -88.5zM705 524q133 35 200.5 72.5t67.5 71.5q0 42 -29.5 58.5t-116.5 47.5q-50 19 -82.5 31t-56.5 20.5t-37.5 12.5t-15.5 4q-128 -26 -190 -68.5t-62 -81.5
q0 -24 21 -41t64.5 -35t115.5 -44t121 -48z" />
    <glyph glyph-name="dieresis" unicode="&#xa8;" horiz-adv-x="682" 
d="M328 952q-24 0 -39 15t-15 39q0 17 24 63.5t58.5 83.5t69.5 37q26 0 41.5 -14.5t15.5 -40.5q0 -43 -55 -113t-100 -70zM612 952q-21 0 -37 13t-16 32q0 22 25.5 69.5t61 85.5t67.5 38q20 0 34.5 -13.5t14.5 -35.5q0 -45 -49.5 -117t-100.5 -72z" />
    <glyph glyph-name="copyright" unicode="&#xa9;" horiz-adv-x="1516" 
d="M1118 813l-119 -29q-61 154 -233 154q-74 0 -132 -39t-90 -111t-32 -170q0 -144 69 -225.5t189 -81.5q80 0 149.5 49t92.5 144l123 -37q-20 -85 -72 -147t-127.5 -94.5t-163.5 -32.5q-119 0 -209.5 52t-140 153.5t-49.5 238.5q0 89 27 164t80 131.5t129 86.5t169 30
q129 0 218 -61.5t122 -174.5zM770 1380q154 0 292 -58t242 -162t162 -241.5t58 -291.5q0 -153 -57 -290t-162.5 -243.5t-241.5 -164.5t-293 -58q-204 0 -378 101.5t-276 274.5t-102 380q0 156 58 291.5t164 240.5t243.5 163t290.5 58zM770 1255q-170 0 -315 -84t-230.5 -228
t-85.5 -316t85 -316.5t230 -229.5t316 -85q172 0 316 84.5t228.5 230t84.5 316.5q0 129 -48.5 243t-135.5 201t-201 135.5t-244 48.5z" />
    <glyph glyph-name="ordfeminine" unicode="&#xaa;" horiz-adv-x="641" 
d="M717 1024v-37q-58 -65 -100.5 -105t-76 -61.5t-61.5 -21.5q-49 0 -49 59q0 20 5 45t13 52.5t17 58.5q-160 -182 -209 -193q-38 -9 -73.5 54.5t-35.5 123.5q0 46 45.5 102t114.5 106.5t141.5 83t122.5 32.5q26 0 43 -23t17 -38q0 -9 -43 -27l24 -55l2 -4t2 -6t1.5 -6.5
t0.5 -6.5q0 -12 -8 -20q-42 -53 -63 -87t-21 -63q0 -23 14 -37t35 -14q18 0 39.5 12t54.5 38.5t48 37.5zM551 1214q-174 -77 -246 -131t-72 -118q0 -58 48 -41q27 9 111.5 89t158.5 201z" />
    <glyph glyph-name="guillemotleft" unicode="&#xab;" horiz-adv-x="831" 
d="M393 721q19 0 33 -11.5t14 -31.5q0 -15 -25.5 -70t-57 -120.5t-46 -101t-14.5 -60.5q0 -23 10 -50t35.5 -86t40 -95t14.5 -54q0 -41 -41 -41q-42 0 -102 74.5t-108 163.5t-48 112q0 24 36.5 84.5t89 127.5t100.5 113t69 46zM709 721q19 0 34 -12t15 -31q0 -17 -18 -56.5
t-52.5 -108t-55 -115t-20.5 -72.5q0 -19 19 -68t38.5 -93t32.5 -75t13 -49q0 -20 -13 -30.5t-30 -10.5q-42 0 -102 74t-108 163t-48 113q0 23 36 84t88.5 128t100.5 113t70 46z" />
    <glyph glyph-name="logicalnot" unicode="&#xac;" horiz-adv-x="1366" 
d="M170 797v157h1096v-645h-156v488h-940z" />
    <glyph glyph-name="registered" unicode="&#xae;" horiz-adv-x="1516" 
d="M569 209h-131v811h279q84 0 135 -5t86 -22q57 -25 92 -77t35 -109q0 -96 -63 -161.5t-168 -74.5q51 -20 89 -64t99 -140l98 -158h-159l-72 127q-73 130 -117.5 173.5t-124.5 43.5h-78v-344zM569 909v-243h160q64 0 107.5 11.5t66.5 39t23 71.5q0 76 -55 98.5t-152 22.5
h-150zM770 1380q154 0 292 -58t242 -162t162 -241.5t58 -291.5q0 -153 -57 -290t-162.5 -243.5t-241.5 -164.5t-293 -58q-204 0 -378 101.5t-276 274.5t-102 380q0 156 58 291.5t164 240.5t243.5 163t290.5 58zM770 1255q-170 0 -315 -84t-230.5 -228t-85.5 -316t85 -316.5
t230 -229.5t316 -85q172 0 316 84.5t228.5 230t84.5 316.5q0 129 -48.5 243t-135.5 201t-201 135.5t-244 48.5z" />
    <glyph glyph-name="overscore" unicode="&#xaf;" horiz-adv-x="1024" 
d="M-12 1494v102h1048v-102h-1048z" />
    <glyph glyph-name="degree" unicode="&#xb0;" horiz-adv-x="811" 
d="M524 1151q-77 0 -131.5 -55.5t-54.5 -132.5t55 -132t131 -55q77 0 132 55t55 132t-54.5 132.5t-132.5 55.5zM524 676q-78 0 -143.5 38.5t-104 104t-38.5 144.5q0 78 38.5 144.5t104 105t143.5 38.5q79 0 145 -39t105 -105t39 -144q0 -79 -38.5 -144.5t-105 -104
t-145.5 -38.5z" />
    <glyph glyph-name="plusminus" unicode="&#xb1;" horiz-adv-x="1366" 
d="M170 719v158h469v469h158v-469h471v-158h-471v-469h-158v469h-469zM170 -90v158h1098v-158h-1098z" />
    <glyph glyph-name="twosuperior" unicode="&#xb2;" horiz-adv-x="831" 
d="M817 1163q41 -71 41 -139q0 -60 -25.5 -102.5t-67.5 -73t-137 -80t-126 -66.5q-51 -27 -92 -61t-41 -47q0 -16 32 -16q20 0 70 10.5t103.5 23.5t87 20t53.5 7t20 -14q0 -30 -59 -123q-74 -24 -157 -36.5t-138 -12.5q-152 0 -152 116q0 62 55.5 119t147.5 109.5t252 132.5
q46 22 73 47.5t27 46.5q0 49 -69 49q-54 0 -160 -38t-106 -60q0 -17 34.5 -20t34.5 -11q0 -10 -69 -27.5t-93 -17.5q-16 0 -16 27q0 26 13.5 75t19.5 62q11 21 78 53.5t155 57t154 24.5q25 0 36 -7t21 -28z" />
    <glyph glyph-name="threesuperior" unicode="&#xb3;" horiz-adv-x="831" 
d="M532 885q83 -2 132.5 -8.5t83.5 -32.5t34 -82q0 -50 -36.5 -102.5t-95.5 -93t-136 -65t-158 -24.5q-66 0 -113.5 20.5t-47.5 49.5q0 21 23 61t38 43q17 3 20 0.5t13 -22.5q14 -27 92 -27q76 0 144.5 25t108.5 63.5t40 75.5q0 32 -29 52t-74 20q-40 0 -112.5 -14.5
t-79.5 -14.5q-15 0 -23 5.5t-8 25.5q0 40 21 55t101.5 35.5t162.5 48.5q180 61 180 127q0 21 -25.5 35t-70.5 14q-52 0 -120.5 -12.5t-112.5 -31t-44 -34.5q0 -5 5 -9t12 -5.5t12.5 -2t11.5 -1.5q4 0 4 -6q0 -10 -33 -19.5t-59 -9.5q-28 0 -44.5 16.5t-16.5 40.5
q0 42 57.5 80t141 61t163.5 23q60 0 103.5 -18.5t66.5 -53t23 -77.5q0 -52 -42.5 -87.5t-94 -53.5t-218.5 -70z" />
    <glyph glyph-name="acute" unicode="&#xb4;" horiz-adv-x="682" 
d="M465 909q-17 0 -31 11.5t-14 25.5q0 37 104 189q45 63 75.5 83.5t86.5 20.5q74 0 74 -51q0 -29 -64.5 -96t-138 -125t-92.5 -58z" />
    <glyph glyph-name="mu" unicode="&#xb5;" horiz-adv-x="1139" 
d="M721 0l16 70q-42 -44 -86.5 -67t-113.5 -23q-73 0 -124 26.5t-100 75.5l-88 -430h-178l234 1106h180l-43 -195q-41 -184 -41 -246q0 -87 52.5 -140.5t129.5 -53.5q71 0 118 42.5t76 120t56 203.5l57 269h178l-161 -758h-162z" />
    <glyph glyph-name="paragraph" unicode="&#xb6;" horiz-adv-x="1323" 
d="M637 1380h690v-139h-194v-1694h-129v1694h-267v-1694h-131v992q-142 -1 -244 54.5t-153 153t-51 218.5q0 187 129 301t350 114z" />
    <glyph glyph-name="uni00B7.periodCentered" unicode="&#xb7;" horiz-adv-x="682" 
d="M324 513q-17 0 -29 13t-12 36q0 18 21.5 64.5t54 83t67.5 36.5q43 0 43 -51q0 -28 -23 -72.5t-57 -77t-65 -32.5z" />
    <glyph glyph-name="cedilla" unicode="&#xb8;" horiz-adv-x="682" 
d="M143 -180q51 0 81 -27.5t30 -75.5q0 -61 -43 -110.5t-110.5 -79t-137.5 -29.5q-61 0 -61 29q0 15 10.5 18.5t34.5 8.5q65 9 112 44.5t47 77.5q0 20 -10.5 30.5t-27.5 10.5q-9 0 -15.5 -0.5t-13.5 -1.5q-25 0 -25 25q0 28 41.5 54t87.5 26z" />
    <glyph glyph-name="onesuperior" unicode="&#xb9;" horiz-adv-x="831" 
d="M449 1061l8 49q100 76 138 103t83 47q43 -35 43 -89q0 -26 -28 -95.5t-75 -143.5q-57 -89 -95 -193.5t-38 -146.5q0 -16 6.5 -40.5t6.5 -31.5q0 -18 -17 -18q-6 0 -34.5 17t-52 43.5t-23.5 62.5q0 35 18.5 91t57 133.5t94.5 166.5q45 76 45 90q0 10 -8 10q-17 0 -129 -55
z" />
    <glyph glyph-name="ordmasculine" unicode="&#xba;" horiz-adv-x="512" 
d="M582 1022v-45q-43 -36 -67.5 -47.5t-80.5 -14.5q-53 -54 -82.5 -77t-68.5 -23q-57 0 -98.5 53t-41.5 121q0 63 47 135t116.5 120t131.5 48q64 0 64 -39q0 -12 -15 -30q45 -9 45 -58q0 -38 -10 -69.5t-25.5 -64t-15.5 -38.5q0 -16 21 -16q17 0 80 45zM440 1198
q-81 -29 -146 -95.5t-65 -144.5q0 -53 50 -53q22 0 58 16.5t46 32.5q-10 38 -10 62q0 42 17 83.5t50 98.5z" />
    <glyph glyph-name="guillemotright" unicode="&#xbb;" horiz-adv-x="831" 
d="M459 0q-18 0 -32.5 11t-14.5 30t15 50.5t51.5 102.5t58.5 122.5t22 76.5q0 24 -13 58.5t-42 99t-39 91t-10 38.5q0 20 12 30.5t31 10.5q40 0 101 -74.5t110 -165.5t49 -112q0 -34 -63 -125.5t-135 -167.5t-101 -76zM143 0q-18 0 -32.5 11t-14.5 30t15 50.5t52.5 104.5
t58 122.5t20.5 74.5q0 24 -13 58.5t-36 86t-38.5 91t-15.5 51.5q0 41 43 41q41 0 101 -74.5t108.5 -164.5t48.5 -113q0 -33 -61.5 -123.5t-134 -168t-101.5 -77.5z" />
    <glyph glyph-name="onequarter" unicode="&#xbc;" horiz-adv-x="1686" 
d="M449 1061l8 49q100 76 138 103t83 47q43 -35 43 -89q0 -26 -28 -95.5t-75 -143.5q-57 -89 -95 -193.5t-38 -146.5q0 -16 6.5 -40.5t6.5 -31.5q0 -18 -17 -18q-6 0 -34.5 17t-52 43.5t-23.5 62.5q0 35 18.5 91t57 133.5t94.5 166.5q45 76 45 90q0 10 -8 10q-17 0 -129 -55
zM1466 1339q23 0 23 -22q0 -36 -36.5 -95t-101 -140t-176.5 -212t-188 -219q-149 -174 -242.5 -304.5t-143 -211t-82.5 -132.5t-50 -52q-24 0 -50 50t-26 89q0 36 57.5 128.5t184.5 249.5t295 339q141 155 235.5 257t156 163.5t93.5 86.5t51 25zM1061 117h-84
q-53 90 -53 121q0 23 49.5 91t137 146t198.5 137q156 84 219 84q12 0 20 -5t8 -17q0 -13 -12 -31q3 -8 6 -12t6 -11t3 -14q0 -42 -16 -71t-73 -109.5t-92 -144.5q47 3 86.5 9.5t40.5 6.5q15 0 15 -12q0 -2 -2 -8.5t-3.5 -10t-1.5 -4.5q-5 -16 -12 -36t-26 -35t-56.5 -25.5
t-107.5 -20.5q-23 -34 -23 -55q0 -29 27 -61q4 -4 4 -11q0 -18 -38.5 -45.5t-61.5 -27.5q-21 0 -30 20t-9 58q0 32 10 104q-92 -10 -129 -10zM1042 236q7 0 24 -1t30 -2q37 0 145 17q79 152 240 358q-53 -19 -101 -43.5t-129 -85.5q-96 -73 -136 -124t-73 -119z" />
    <glyph glyph-name="onehalf" unicode="&#xbd;" horiz-adv-x="1686" 
d="M449 1061l8 49q100 76 138 103t83 47q43 -35 43 -89q0 -26 -28 -95.5t-75 -143.5q-57 -89 -95 -193.5t-38 -146.5q0 -16 6.5 -40.5t6.5 -31.5q0 -18 -17 -18q-6 0 -34.5 17t-52 43.5t-23.5 62.5q0 35 18.5 91t57 133.5t94.5 166.5q45 76 45 90q0 10 -8 10q-17 0 -129 -55
zM1454 1339q23 0 23 -22q0 -35 -36.5 -94.5t-95 -133t-149.5 -180t-221 -258.5q-137 -159 -237 -297t-149.5 -218.5t-81.5 -132.5t-50 -52q-24 0 -50 49.5t-26 89.5q0 36 57.5 128.5t184.5 249.5t295 339q141 155 235.5 257t156 163.5t93.5 86.5t51 25zM1513 662
q18 -33 29.5 -70t11.5 -70q0 -59 -25 -101.5t-67 -73t-115.5 -69t-148.5 -77.5q-48 -25 -90.5 -61t-42.5 -48q0 -16 33 -16q20 0 70 10.5t103.5 23.5t87 20t52.5 7q21 0 21 -14q0 -30 -60 -123q-74 -24 -157 -36.5t-138 -12.5q-151 0 -151 117q0 63 54.5 118.5t147 108.5
t252.5 133q101 51 101 94q0 24 -19.5 36.5t-50.5 12.5q-54 0 -160 -38t-106 -60q0 -17 34.5 -20t34.5 -11q0 -11 -71 -29t-90 -18q-17 0 -17 29q0 27 13.5 76t19.5 61q18 34 154 84.5t233 50.5q25 0 35 -6t22 -28z" />
    <glyph glyph-name="threequarters" unicode="&#xbe;" horiz-adv-x="1686" 
d="M532 885q83 -2 132.5 -8.5t83.5 -32.5t34 -82q0 -50 -36.5 -102.5t-95.5 -93t-136 -65t-158 -24.5q-66 0 -113.5 20.5t-47.5 49.5q0 21 23 61t38 43q17 3 20 0.5t13 -22.5q14 -27 92 -27q76 0 144.5 25t108.5 63.5t40 75.5q0 32 -29 52t-74 20q-41 0 -112 -14.5
t-78 -14.5q-33 0 -33 31q0 40 21 55t101.5 35.5t162.5 48.5q180 61 180 127q0 21 -25.5 35t-70.5 14q-52 0 -120.5 -12.5t-112.5 -31t-44 -34.5q0 -5 5 -9t12 -5.5t12.5 -2t11.5 -1.5q4 0 4 -6q0 -10 -33 -19.5t-59 -9.5q-28 0 -44.5 16.5t-16.5 40.5q0 42 57.5 80t141 61
t163.5 23q60 0 103.5 -18.5t66.5 -53t23 -77.5q0 -52 -42.5 -87.5t-94 -53.5t-218.5 -70zM1552 1339q23 0 23 -22q0 -36 -36.5 -95t-101 -140t-176.5 -212t-188 -219q-149 -174 -242.5 -304.5t-143 -211t-82.5 -132.5t-50 -52q-24 0 -50 50t-26 89q0 36 57.5 128.5
t184.5 249.5t295 339q141 155 235.5 257t156 163.5t93.5 86.5t51 25zM1063 117h-84q-53 90 -53 121q0 17 28.5 61.5t79 100t120 112t155.5 100.5q72 39 133.5 61.5t87.5 22.5t26 -22q0 -16 -10 -31q3 -8 6 -12t6 -11t3 -14q0 -44 -15.5 -71.5t-73 -107t-94.5 -146.5
q46 3 87.5 9.5l41.5 6.5q15 0 15 -12q0 -8 -3 -17t-3 -6q-17 -46 -25.5 -60t-49.5 -30t-128 -27q-23 -29 -23 -55q0 -29 27 -61q4 -4 4 -11q0 -18 -38.5 -45.5t-61.5 -27.5q-21 0 -30 20t-9 58q0 46 8 104q-92 -10 -127 -10zM1044 236q6 0 22.5 -1t29.5 -2q39 0 147 17
q80 155 240 358q-106 -34 -230 -129q-94 -73 -134.5 -123.5t-74.5 -119.5z" />
    <glyph glyph-name="questiondown" unicode="&#xbf;" horiz-adv-x="662" 
d="M397 -236q0 13 -39 31q-41 16 -41 39q0 13 5 14.5t21 -5t22 -7.5q32 -8 77.5 -9.5t59.5 -10t14 -41.5q0 -32 -27 -91.5t-55 -84.5q-34 -33 -142.5 -67t-191.5 -34q-89 0 -142.5 52.5t-53.5 150.5q0 69 35.5 162t103.5 196.5t152 192.5q63 65 91.5 105.5t28.5 76.5
q0 9 -3 31.5t-3 21.5q0 43 31 43q19 0 38.5 -20.5t32.5 -53t13 -71.5q0 -49 -35.5 -112.5t-113 -145.5t-195.5 -184q-57 -50 -80 -79.5t-23 -70.5q0 -100 136 -100q49 0 120 12t117.5 28.5t46.5 30.5zM492 850q22 0 55 -30.5t33 -78.5q0 -58 -39 -132t-66 -74q-26 0 -57 42
t-31 80q0 23 17.5 72t41.5 85t46 36z" />
    <glyph glyph-name="Agrave" unicode="&#xc0;" horiz-adv-x="1300" 
d="M891 412q-120 -4 -176 -4q-86 0 -238 4q-32 -35 -78 -82.5t-87 -88t-70.5 -69t-48.5 -47.5q-111 -108 -144.5 -141t-70.5 -59.5t-68 -26.5q-35 0 -35 32q0 35 50 108t113 129t103 56q11 0 31 -10l190 203q-36 5 -94 6.5t-78 8.5t-20 34q0 43 92 135q50 51 94 65t168 15
q-73 -10 -103.5 -23.5t-33.5 -40.5h53.5t64 0.5t58.5 1.5q164 160 298 278.5t282.5 225t316.5 195.5q33 -43 33 -90q0 -39 -25.5 -90t-108 -191.5t-167.5 -298.5q28 0 46.5 -0.5t39.5 -1.5q57 0 69.5 -2t12.5 -20q0 -8 -15.5 -28.5t-54.5 -68t-76 -96.5l-147 -12
q-117 -220 -117 -248q0 -41 43 -41q21 0 174 88l-8 -53q-82 -62 -127.5 -97.5t-79 -59t-61 -35t-55.5 -11.5q-33 0 -65 30.5t-32 86.5q0 23 17 65.5t36.5 81.5t98.5 187zM702 639l324 6q57 97 92.5 157t78 130.5t73 119.5t67.5 111q-72 -45 -147 -100t-169 -132.5t-167 -144
t-152 -147.5zM1553 1486q-33 0 -81 64q-60 78 -95 133t-35 86q0 43 64 43q58 0 90 -35.5t68 -130.5q32 -85 32 -115q0 -18 -12 -31.5t-31 -13.5z" />
    <glyph glyph-name="Aacute" unicode="&#xc1;" horiz-adv-x="1300" 
d="M891 412q-120 -4 -176 -4q-86 0 -238 4q-32 -35 -78 -82.5t-87 -88t-70.5 -69t-48.5 -47.5q-111 -108 -144.5 -141t-70.5 -59.5t-68 -26.5q-35 0 -35 32q0 35 50 108t113 129t103 56q11 0 31 -10l190 203q-36 5 -94 6.5t-78 8.5t-20 34q0 43 92 135q50 51 94 65t168 15
q-73 -10 -103.5 -23.5t-33.5 -40.5h53.5t64 0.5t58.5 1.5q164 160 298 278.5t282.5 225t316.5 195.5q33 -43 33 -90q0 -39 -25.5 -90t-108 -191.5t-167.5 -298.5q28 0 46.5 -0.5t39.5 -1.5q57 0 69.5 -2t12.5 -20q0 -8 -15.5 -28.5t-54.5 -68t-76 -96.5l-147 -12
q-117 -220 -117 -248q0 -41 43 -41q21 0 174 88l-8 -53q-82 -62 -127.5 -97.5t-79 -59t-61 -35t-55.5 -11.5q-33 0 -65 30.5t-32 86.5q0 23 17 65.5t36.5 81.5t98.5 187zM702 639l324 6q57 97 92.5 157t78 130.5t73 119.5t67.5 111q-72 -45 -147 -100t-169 -132.5t-167 -144
t-152 -147.5zM1488 1484q-17 0 -31 11.5t-14 25.5q0 37 104 189q45 63 75.5 83.5t86.5 20.5q74 0 74 -51q0 -29 -64.5 -96t-138 -125t-92.5 -58z" />
    <glyph glyph-name="Acircumflex" unicode="&#xc2;" horiz-adv-x="1300" 
d="M891 412q-120 -4 -176 -4q-86 0 -238 4q-32 -35 -78 -82.5t-87 -88t-70.5 -69t-48.5 -47.5q-111 -108 -144.5 -141t-70.5 -59.5t-68 -26.5q-35 0 -35 32q0 35 50 108t113 129t103 56q11 0 31 -10l190 203q-36 5 -94 6.5t-78 8.5t-20 34q0 43 92 135q50 51 94 65t168 15
q-73 -10 -103.5 -23.5t-33.5 -40.5h53.5t64 0.5t58.5 1.5q164 160 298 278.5t282.5 225t316.5 195.5q33 -43 33 -90q0 -39 -25.5 -90t-108 -191.5t-167.5 -298.5q28 0 46.5 -0.5t39.5 -1.5q57 0 69.5 -2t12.5 -20q0 -8 -15.5 -28.5t-54.5 -68t-76 -96.5l-147 -12
q-117 -220 -117 -248q0 -41 43 -41q21 0 174 88l-8 -53q-82 -62 -127.5 -97.5t-79 -59t-61 -35t-55.5 -11.5q-33 0 -65 30.5t-32 86.5q0 23 17 65.5t36.5 81.5t98.5 187zM702 639l324 6q57 97 92.5 157t78 130.5t73 119.5t67.5 111q-72 -45 -147 -100t-169 -132.5t-167 -144
t-152 -147.5zM1519 1628q-9 0 -23.5 -15t-28.5 -30q-90 -101 -137 -101q-45 0 -45 39q0 22 53 95t117.5 132.5t110.5 59.5t73 -57q24 -49 44 -126t20 -98q0 -15 -10.5 -29t-26.5 -14q-26 0 -60 32.5t-67 90.5q-7 21 -20 21z" />
    <glyph glyph-name="Atilde" unicode="&#xc3;" horiz-adv-x="1300" 
d="M891 412q-120 -4 -176 -4q-86 0 -238 4q-32 -35 -78 -82.5t-87 -88t-70.5 -69t-48.5 -47.5q-111 -108 -144.5 -141t-70.5 -59.5t-68 -26.5q-35 0 -35 32q0 35 50 108t113 129t103 56q11 0 31 -10l190 203q-36 5 -94 6.5t-78 8.5t-20 34q0 43 92 135q50 51 94 65t168 15
q-73 -10 -103.5 -23.5t-33.5 -40.5h53.5t64 0.5t58.5 1.5q164 160 298 278.5t282.5 225t316.5 195.5q33 -43 33 -90q0 -39 -25.5 -90t-108 -191.5t-167.5 -298.5q28 0 46.5 -0.5t39.5 -1.5q57 0 69.5 -2t12.5 -20q0 -8 -15.5 -28.5t-54.5 -68t-76 -96.5l-147 -12
q-117 -220 -117 -248q0 -41 43 -41q21 0 174 88l-8 -53q-82 -62 -127.5 -97.5t-79 -59t-61 -35t-55.5 -11.5q-33 0 -65 30.5t-32 86.5q0 23 17 65.5t36.5 81.5t98.5 187zM702 639l324 6q57 97 92.5 157t78 130.5t73 119.5t67.5 111q-72 -45 -147 -100t-169 -132.5t-167 -144
t-152 -147.5zM1338 1617q-31 0 -52 -12t-50 -35q-44 -34 -68 -34q-28 0 -28 30t33 76t92.5 79.5t136.5 33.5q46 0 79.5 -12.5t75.5 -35t60 -22.5q33 0 68 27q28 22 51 22q30 0 30 -47q0 -22 -23.5 -61.5t-67 -68t-95.5 -28.5q-33 0 -77 22l-88 44t-77 22z" />
    <glyph glyph-name="Adieresis" unicode="&#xc4;" horiz-adv-x="1300" 
d="M891 412q-120 -4 -176 -4q-86 0 -238 4q-32 -35 -78 -82.5t-87 -88t-70.5 -69t-48.5 -47.5q-111 -108 -144.5 -141t-70.5 -59.5t-68 -26.5q-35 0 -35 32q0 35 50 108t113 129t103 56q11 0 31 -10l190 203q-36 5 -94 6.5t-78 8.5t-20 34q0 43 92 135q50 51 94 65t168 15
q-73 -10 -103.5 -23.5t-33.5 -40.5h53.5t64 0.5t58.5 1.5q164 160 298 278.5t282.5 225t316.5 195.5q33 -43 33 -90q0 -39 -25.5 -90t-108 -191.5t-167.5 -298.5q28 0 46.5 -0.5t39.5 -1.5q57 0 69.5 -2t12.5 -20q0 -8 -15.5 -28.5t-54.5 -68t-76 -96.5l-147 -12
q-117 -220 -117 -248q0 -41 43 -41q21 0 174 88l-8 -53q-82 -62 -127.5 -97.5t-79 -59t-61 -35t-55.5 -11.5q-33 0 -65 30.5t-32 86.5q0 23 17 65.5t36.5 81.5t98.5 187zM702 639l324 6q57 97 92.5 157t78 130.5t73 119.5t67.5 111q-72 -45 -147 -100t-169 -132.5t-167 -144
t-152 -147.5zM1351 1527q-24 0 -39 15t-15 39q0 17 24 63.5t58.5 83.5t69.5 37q26 0 41.5 -14.5t15.5 -40.5q0 -43 -55 -113t-100 -70zM1635 1527q-21 0 -37 13t-16 32q0 22 25.5 69.5t61 85.5t67.5 38q20 0 34.5 -13.5t14.5 -35.5q0 -45 -49.5 -117t-100.5 -72z" />
    <glyph glyph-name="Aring" unicode="&#xc5;" horiz-adv-x="1300" 
d="M891 412q-120 -4 -176 -4q-86 0 -238 4q-32 -35 -78 -82.5t-87 -88t-70.5 -69t-48.5 -47.5q-111 -108 -144.5 -141t-70.5 -59.5t-68 -26.5q-35 0 -35 32q0 35 50 108t113 129t103 56q11 0 31 -10l190 203q-36 5 -94 6.5t-78 8.5t-20 34q0 43 92 135q50 51 94 65t168 15
q-73 -10 -103.5 -23.5t-33.5 -40.5h53.5t64 0.5t58.5 1.5q164 160 298 278.5t282.5 225t316.5 195.5q33 -43 33 -90q0 -39 -25.5 -90t-108 -191.5t-167.5 -298.5q28 0 46.5 -0.5t39.5 -1.5q57 0 69.5 -2t12.5 -20q0 -8 -15.5 -28.5t-54.5 -68t-76 -96.5l-147 -12
q-117 -220 -117 -248q0 -41 43 -41q21 0 174 88l-8 -53q-82 -62 -127.5 -97.5t-79 -59t-61 -35t-55.5 -11.5q-33 0 -65 30.5t-32 86.5q0 23 17 65.5t36.5 81.5t98.5 187zM702 639l324 6q57 97 92.5 157t78 130.5t73 119.5t67.5 111q-72 -45 -147 -100t-169 -132.5t-167 -144
t-152 -147.5zM1486 1478q-62 0 -104 43t-42 103q0 45 25.5 90.5t70 75.5t97.5 30q65 0 105 -40t40 -107q0 -47 -28 -92.5t-72.5 -74t-91.5 -28.5zM1496 1540q25 0 53 19.5t47 48t19 54.5q0 31 -17.5 49.5t-46.5 18.5q-27 0 -55.5 -19.5t-45.5 -49.5t-17 -54q0 -29 18 -48
t45 -19z" />
    <glyph glyph-name="AE" unicode="&#xc6;" horiz-adv-x="1942" 
d="M840 412l-377 -4q-235 -268 -368 -397.5t-181 -129.5q-22 0 -33.5 13t-11.5 34q0 35 51 102.5t114.5 123t92.5 55.5q23 0 39 -12q95 91 190 206q-133 -15 -181 -9.5t-48 36.5q0 25 55.5 102.5t93.5 96.5q14 6 67 18t95 15q-61 -22 -85.5 -38.5t-24.5 -48.5
q0 -20 33.5 -24t123.5 2q209 242 396.5 416t328 270t222.5 117q80 22 317 22q139 0 193.5 -12t65.5 -40t11 -105q0 -68 -22.5 -86.5t-126.5 -66t-205 -122.5q33 58 75.5 95.5t114.5 86.5q-35 15 -83 27t-113 12q-81 0 -197 -16q-61 -67 -120.5 -152.5t-117 -185.5
t-112.5 -207q185 21 300.5 36t135.5 15q76 0 76 -36q0 -9 -32 -61.5t-76 -100.5q-8 -9 -42 -15.5t-99.5 -10.5t-152 -6.5t-198.5 -6.5q-43 -75 -67.5 -160.5t-24.5 -109.5q0 -91 203 -91q195 0 370 85t363 245q2 -98 -20.5 -173t-102.5 -150q-87 -84 -270 -151t-349 -67
q-115 0 -181 26.5t-140 105.5q-39 44 -50.5 71t-11.5 84q0 85 97 277zM586 557l350 31q61 116 183 296t284 386q-109 -60 -204.5 -129.5t-199 -161t-203 -194t-210.5 -228.5z" />
    <glyph glyph-name="Ccedilla" unicode="&#xc7;" horiz-adv-x="1237" 
d="M1262 319v-65q-168 -187 -308.5 -308.5t-274.5 -187t-259 -65.5q-108 0 -185.5 43t-117 125.5t-39.5 195.5q0 89 28.5 188.5t82.5 201t132.5 209.5t184.5 227q110 123 217 212.5t194 140.5t161.5 76t123.5 25q50 0 85 -24t54 -70t19 -106q0 -113 -77 -251.5t-192 -267.5
t-219.5 -210.5t-150.5 -81.5q-31 0 -57.5 24.5t-26.5 55.5q0 57 60.5 138t132 148.5t85.5 67.5q7 0 7 -6q0 -9 -10.5 -31t-10.5 -27q0 -8 6 -8q17 0 98 91t148.5 200.5t67.5 179.5q0 29 -12.5 44.5t-37.5 15.5q-70 0 -212.5 -113.5t-292 -289t-249.5 -362.5t-100 -329
q0 -82 24.5 -137t72 -85t114.5 -30q145 0 329 113t405 333zM340 -373q51 0 82 -26t31 -74q0 -61 -43 -110.5t-110.5 -79t-137.5 -29.5q-62 0 -62 26q0 15 9.5 19.5t35.5 9.5q64 10 112 45t48 78q0 19 -11.5 30t-27.5 11q-2 0 -14 -2t-14 -2q-25 0 -25 26q0 27 41.5 52.5
t85.5 25.5z" />
    <glyph glyph-name="Egrave" unicode="&#xc8;" horiz-adv-x="1260" 
d="M1333 1260v-68q0 -42 -16.5 -53t-121 -59t-200.5 -113q37 54 67.5 80t82.5 65q-45 18 -125 18q-124 0 -267.5 -49t-244 -117t-100.5 -114q0 -24 30.5 -39.5t98 -24t168.5 -11.5t249 -3q108 0 139 -8t31 -37q0 -37 -36.5 -84.5t-96.5 -56.5q-93 -15 -148 -25.5
t-130.5 -35.5t-167.5 -72q-137 -72 -214 -146t-77 -131q0 -49 55 -76.5t158 -27.5q355 0 723 319q2 -98 -21.5 -172.5t-95.5 -142.5q-60 -57 -175.5 -109t-252 -83t-256.5 -31q-139 0 -230 66.5t-91 176.5q0 80 44 159t135 151.5t230.5 131.5t321.5 93q26 5 26 16
q0 12 -30.5 14.5t-112 3.5t-143.5 7t-131 26q-71 22 -109.5 77t-38.5 122q0 86 62 173t175 157t273.5 112.5t351.5 42.5q110 0 153.5 -12.5t50.5 -33t7 -76.5zM1143 1486q-33 0 -81 64q-60 78 -95 133t-35 86q0 43 64 43q58 0 90 -35.5t68 -130.5q32 -85 32 -115
q0 -18 -12 -31.5t-31 -13.5z" />
    <glyph glyph-name="Eacute" unicode="&#xc9;" horiz-adv-x="1260" 
d="M1333 1260v-68q0 -42 -16.5 -53t-121 -59t-200.5 -113q37 54 67.5 80t82.5 65q-45 18 -125 18q-124 0 -267.5 -49t-244 -117t-100.5 -114q0 -24 30.5 -39.5t98 -24t168.5 -11.5t249 -3q108 0 139 -8t31 -37q0 -37 -36.5 -84.5t-96.5 -56.5q-93 -15 -148 -25.5
t-130.5 -35.5t-167.5 -72q-137 -72 -214 -146t-77 -131q0 -49 55 -76.5t158 -27.5q355 0 723 319q2 -98 -21.5 -172.5t-95.5 -142.5q-60 -57 -175.5 -109t-252 -83t-256.5 -31q-139 0 -230 66.5t-91 176.5q0 80 44 159t135 151.5t230.5 131.5t321.5 93q26 5 26 16
q0 12 -30.5 14.5t-112 3.5t-143.5 7t-131 26q-71 22 -109.5 77t-38.5 122q0 86 62 173t175 157t273.5 112.5t351.5 42.5q110 0 153.5 -12.5t50.5 -33t7 -76.5zM1078 1484q-17 0 -31 11.5t-14 25.5q0 37 104 189q45 63 75.5 83.5t86.5 20.5q74 0 74 -51q0 -29 -64.5 -96
t-138 -125t-92.5 -58z" />
    <glyph glyph-name="Ecircumflex" unicode="&#xca;" horiz-adv-x="1260" 
d="M1333 1260v-68q0 -42 -16.5 -53t-121 -59t-200.5 -113q37 54 67.5 80t82.5 65q-45 18 -125 18q-124 0 -267.5 -49t-244 -117t-100.5 -114q0 -24 30.5 -39.5t98 -24t168.5 -11.5t249 -3q108 0 139 -8t31 -37q0 -37 -36.5 -84.5t-96.5 -56.5q-93 -15 -148 -25.5
t-130.5 -35.5t-167.5 -72q-137 -72 -214 -146t-77 -131q0 -49 55 -76.5t158 -27.5q355 0 723 319q2 -98 -21.5 -172.5t-95.5 -142.5q-60 -57 -175.5 -109t-252 -83t-256.5 -31q-139 0 -230 66.5t-91 176.5q0 80 44 159t135 151.5t230.5 131.5t321.5 93q26 5 26 16
q0 12 -30.5 14.5t-112 3.5t-143.5 7t-131 26q-71 22 -109.5 77t-38.5 122q0 86 62 173t175 157t273.5 112.5t351.5 42.5q110 0 153.5 -12.5t50.5 -33t7 -76.5zM1109 1628q-9 0 -23.5 -15t-28.5 -30q-90 -101 -137 -101q-45 0 -45 39q0 22 53 95t117.5 132.5t110.5 59.5
t73 -57q24 -49 44 -126t20 -98q0 -15 -10.5 -29t-26.5 -14q-26 0 -60 32.5t-67 90.5q-7 21 -20 21z" />
    <glyph glyph-name="Edieresis" unicode="&#xcb;" horiz-adv-x="1260" 
d="M1333 1260v-68q0 -42 -16.5 -53t-121 -59t-200.5 -113q37 54 67.5 80t82.5 65q-45 18 -125 18q-124 0 -267.5 -49t-244 -117t-100.5 -114q0 -24 30.5 -39.5t98 -24t168.5 -11.5t249 -3q108 0 139 -8t31 -37q0 -37 -36.5 -84.5t-96.5 -56.5q-93 -15 -148 -25.5
t-130.5 -35.5t-167.5 -72q-137 -72 -214 -146t-77 -131q0 -49 55 -76.5t158 -27.5q355 0 723 319q2 -98 -21.5 -172.5t-95.5 -142.5q-60 -57 -175.5 -109t-252 -83t-256.5 -31q-139 0 -230 66.5t-91 176.5q0 80 44 159t135 151.5t230.5 131.5t321.5 93q26 5 26 16
q0 12 -30.5 14.5t-112 3.5t-143.5 7t-131 26q-71 22 -109.5 77t-38.5 122q0 86 62 173t175 157t273.5 112.5t351.5 42.5q110 0 153.5 -12.5t50.5 -33t7 -76.5zM941 1527q-24 0 -39 15t-15 39q0 17 24 63.5t58.5 83.5t69.5 37q26 0 41.5 -14.5t15.5 -40.5q0 -43 -55 -113
t-100 -70zM1225 1527q-21 0 -37 13t-16 32q0 22 25.5 69.5t61 85.5t67.5 38q20 0 34.5 -13.5t14.5 -35.5q0 -45 -49.5 -117t-100.5 -72z" />
    <glyph glyph-name="Igrave" unicode="&#xcc;" horiz-adv-x="897" 
d="M365 -29l-62 45q-14 12 -14 25t47 90q34 55 91.5 151t92.5 158t85.5 162.5t92.5 196.5q97 221 97 282q0 72 -56 72q-42 0 -119.5 -42.5t-160.5 -111.5t-138 -144t-55 -132q0 -9 5 -13.5t18 -4.5q24 0 78 28q24 12 24 -4t-76 -82.5t-112 -66.5q-31 0 -86.5 53.5
t-55.5 97.5q0 17 31 81t85 144.5t114 139.5q69 69 157.5 123t170 84t131.5 30q72 0 112.5 -54.5t40.5 -152.5q0 -130 -102 -376t-314 -576q3 -10 7 -21.5t4 -21.5q0 -2 -3 -7.5t-7 -11.5t-5 -8l-73 -120q-12 -21 -25 -21q-12 0 -20 8zM795 1486q-33 0 -81 64q-60 78 -95 133
t-35 86q0 43 64 43q58 0 90 -35.5t68 -130.5q32 -85 32 -115q0 -18 -12 -31.5t-31 -13.5z" />
    <glyph glyph-name="Iacute" unicode="&#xcd;" horiz-adv-x="897" 
d="M365 -29l-62 45q-14 12 -14 25t47 90q34 55 91.5 151t92.5 158t85.5 162.5t92.5 196.5q97 221 97 282q0 72 -56 72q-42 0 -119.5 -42.5t-160.5 -111.5t-138 -144t-55 -132q0 -9 5 -13.5t18 -4.5q24 0 78 28q24 12 24 -4t-76 -82.5t-112 -66.5q-31 0 -86.5 53.5
t-55.5 97.5q0 17 31 81t85 144.5t114 139.5q69 69 157.5 123t170 84t131.5 30q72 0 112.5 -54.5t40.5 -152.5q0 -130 -102 -376t-314 -576q3 -10 7 -21.5t4 -21.5q0 -2 -3 -7.5t-7 -11.5t-5 -8l-73 -120q-12 -21 -25 -21q-12 0 -20 8zM730 1484q-17 0 -31 11.5t-14 25.5
q0 37 104 189q45 63 75.5 83.5t86.5 20.5q74 0 74 -51q0 -29 -64.5 -96t-138 -125t-92.5 -58z" />
    <glyph glyph-name="Icircumflex" unicode="&#xce;" horiz-adv-x="897" 
d="M365 -29l-62 45q-14 12 -14 25t47 90q34 55 91.5 151t92.5 158t85.5 162.5t92.5 196.5q97 221 97 282q0 72 -56 72q-42 0 -119.5 -42.5t-160.5 -111.5t-138 -144t-55 -132q0 -9 5 -13.5t18 -4.5q24 0 78 28q24 12 24 -4t-76 -82.5t-112 -66.5q-31 0 -86.5 53.5
t-55.5 97.5q0 17 31 81t85 144.5t114 139.5q69 69 157.5 123t170 84t131.5 30q72 0 112.5 -54.5t40.5 -152.5q0 -130 -102 -376t-314 -576q3 -10 7 -21.5t4 -21.5q0 -2 -3 -7.5t-7 -11.5t-5 -8l-73 -120q-12 -21 -25 -21q-12 0 -20 8zM761 1628q-9 0 -23.5 -15t-28.5 -30
q-90 -101 -137 -101q-45 0 -45 39q0 22 53 95t117.5 132.5t110.5 59.5t73 -57q24 -49 44 -126t20 -98q0 -15 -10.5 -29t-26.5 -14q-26 0 -60 32.5t-67 90.5q-7 21 -20 21z" />
    <glyph glyph-name="Idieresis" unicode="&#xcf;" horiz-adv-x="897" 
d="M365 -29l-62 45q-14 12 -14 25t47 90q34 55 91.5 151t92.5 158t85.5 162.5t92.5 196.5q97 221 97 282q0 72 -56 72q-42 0 -119.5 -42.5t-160.5 -111.5t-138 -144t-55 -132q0 -9 5 -13.5t18 -4.5q24 0 78 28q24 12 24 -4t-76 -82.5t-112 -66.5q-31 0 -86.5 53.5
t-55.5 97.5q0 17 31 81t85 144.5t114 139.5q69 69 157.5 123t170 84t131.5 30q72 0 112.5 -54.5t40.5 -152.5q0 -130 -102 -376t-314 -576q3 -10 7 -21.5t4 -21.5q0 -2 -3 -7.5t-7 -11.5t-5 -8l-73 -120q-12 -21 -25 -21q-12 0 -20 8zM593 1527q-24 0 -39 15t-15 39
q0 17 24 63.5t58.5 83.5t69.5 37q26 0 41.5 -14.5t15.5 -40.5q0 -43 -55 -113t-100 -70zM877 1527q-21 0 -37 13t-16 32q0 22 25.5 69.5t61 85.5t67.5 38q20 0 34.5 -13.5t14.5 -35.5q0 -45 -49.5 -117t-100.5 -72z" />
    <glyph glyph-name="Eth" unicode="&#xd0;" horiz-adv-x="1323" 
d="M1294 831q0 -169 -97.5 -328t-260 -280.5t-366.5 -192.5t-402 -71q-37 0 -58.5 8t-30.5 31.5t-9 69.5q0 63 20.5 128.5t60 140.5t130.5 226q-95 -11 -176 -27t-78 -16q-33 0 -33 27q0 56 83 85t269 36q99 153 264 379q-72 -8 -158 -30.5t-163 -49.5t-130 -52t-53 -36
q0 -7 13 -7q9 0 81.5 12t131.5 13q-66 -18 -113.5 -36.5t-98 -41t-72.5 -30t-38 -7.5q-51 0 -51 66q0 170 86 239q35 28 112.5 66.5t175 73t214.5 59.5t231 25q117 0 215 -34t164 -95.5t101.5 -150.5t35.5 -200zM459 670h22q123 0 184.5 -16t61.5 -62q0 -27 -33 -27
q-5 0 -46.5 5t-67 7.5t-52.5 2.5q-64 0 -129 -5q-75 -124 -132.5 -237t-57.5 -137q0 -26 28.5 -36.5t81.5 -10.5q136 0 288 49.5t285.5 137.5t213.5 199t80 232q0 138 -101 212.5t-294 74.5q-81 0 -152 -6q0 -2 4 -22.5t4 -35.5q0 -20 -20.5 -58t-62 -102t-105.5 -165z" />
    <glyph glyph-name="Ntilde" unicode="&#xd1;" 
d="M219 387q179 293 267.5 461.5t88.5 214.5q0 17 -12 28t-28 11q-31 0 -175 -60q-119 -50 -174 -79.5t-151.5 -84.5t-110.5 -55q-28 0 -28 39q0 74 97 199t261 219q20 13 20 -2q0 -5 -24 -23t-42.5 -36.5t-41.5 -55.5q210 105 308.5 148t168.5 43q61 0 96 -25.5t35 -73.5
q0 -42 -33.5 -122t-97.5 -194.5t-130.5 -226.5t-240.5 -405q194 243 357 425t284 296t204 171.5t122 57.5q14 0 33 -26.5t34 -64.5t15 -62q0 -66 -33.5 -131t-99.5 -156q-188 -254 -274.5 -400t-86.5 -235q0 -67 70 -67q32 0 75 24t103 74t121 109l2 -78
q-86 -88 -154 -150.5t-128.5 -109.5t-108.5 -71t-84 -24q-52 0 -83.5 35.5t-31.5 93.5q0 54 23.5 130.5t72 176.5t120 217t161.5 244q88 126 88 162q0 21 -22 21q-89 0 -406 -355q-20 -22 -69.5 -81.5t-101 -126.5t-115.5 -150.5t-130 -169.5q-31 -41 -53 -41q-24 0 -63 39
t-39 57q0 21 55.5 105t89.5 141zM928 1617q-31 0 -52 -12t-50 -35q-44 -34 -68 -34q-28 0 -28 30t33 76t92.5 79.5t136.5 33.5q46 0 79.5 -12.5t75.5 -35t60 -22.5q33 0 68 27q28 22 51 22q30 0 30 -47q0 -22 -23.5 -61.5t-67 -68t-95.5 -28.5q-33 0 -77 22l-88 44t-77 22z
" />
    <glyph glyph-name="Ograve" unicode="&#xd2;" 
d="M772 1026q27 7 54.5 14t56 12t55.5 5q58 0 99.5 -26t62 -70.5t20.5 -96.5q0 -81 -29.5 -185.5t-84.5 -212.5t-129 -204q-101 -130 -242.5 -209.5t-259.5 -79.5q-87 0 -153.5 47.5t-104 138t-37.5 212.5q0 164 89.5 328.5t226 298t275.5 214t226 80.5q71 0 109 -43.5
t71 -140.5q-93 -3 -162 -22.5t-143 -59.5zM520 823q-70 -75 -141.5 -193.5t-115.5 -232.5t-44 -174q0 -149 139 -149q97 0 250.5 131t267 315.5t113.5 335.5q0 111 -88 111q-68 0 -166 -54t-188 -153q-32 -36 -127 -176q18 94 100 239zM984 1486q-33 0 -81 64
q-60 78 -95 133t-35 86q0 43 64 43q58 0 90 -35.5t68 -130.5q32 -85 32 -115q0 -18 -12 -31.5t-31 -13.5z" />
    <glyph glyph-name="Oacute" unicode="&#xd3;" 
d="M772 1026q27 7 54.5 14t56 12t55.5 5q58 0 99.5 -26t62 -70.5t20.5 -96.5q0 -81 -29.5 -185.5t-84.5 -212.5t-129 -204q-101 -130 -242.5 -209.5t-259.5 -79.5q-87 0 -153.5 47.5t-104 138t-37.5 212.5q0 164 89.5 328.5t226 298t275.5 214t226 80.5q71 0 109 -43.5
t71 -140.5q-93 -3 -162 -22.5t-143 -59.5zM520 823q-70 -75 -141.5 -193.5t-115.5 -232.5t-44 -174q0 -149 139 -149q97 0 250.5 131t267 315.5t113.5 335.5q0 111 -88 111q-68 0 -166 -54t-188 -153q-32 -36 -127 -176q18 94 100 239zM919 1484q-17 0 -31 11.5t-14 25.5
q0 37 104 189q45 63 75.5 83.5t86.5 20.5q74 0 74 -51q0 -29 -64.5 -96t-138 -125t-92.5 -58z" />
    <glyph glyph-name="Ocircumflex" unicode="&#xd4;" 
d="M772 1026q27 7 54.5 14t56 12t55.5 5q58 0 99.5 -26t62 -70.5t20.5 -96.5q0 -81 -29.5 -185.5t-84.5 -212.5t-129 -204q-101 -130 -242.5 -209.5t-259.5 -79.5q-87 0 -153.5 47.5t-104 138t-37.5 212.5q0 164 89.5 328.5t226 298t275.5 214t226 80.5q71 0 109 -43.5
t71 -140.5q-93 -3 -162 -22.5t-143 -59.5zM520 823q-70 -75 -141.5 -193.5t-115.5 -232.5t-44 -174q0 -149 139 -149q97 0 250.5 131t267 315.5t113.5 335.5q0 111 -88 111q-68 0 -166 -54t-188 -153q-32 -36 -127 -176q18 94 100 239zM950 1628q-9 0 -23.5 -15t-28.5 -30
q-90 -101 -137 -101q-45 0 -45 39q0 22 53 95t117.5 132.5t110.5 59.5t73 -57q24 -49 44 -126t20 -98q0 -15 -10.5 -29t-26.5 -14q-26 0 -60 32.5t-67 90.5q-7 21 -20 21z" />
    <glyph glyph-name="Otilde" unicode="&#xd5;" 
d="M772 1026q27 7 54.5 14t56 12t55.5 5q58 0 99.5 -26t62 -70.5t20.5 -96.5q0 -81 -29.5 -185.5t-84.5 -212.5t-129 -204q-101 -130 -242.5 -209.5t-259.5 -79.5q-87 0 -153.5 47.5t-104 138t-37.5 212.5q0 164 89.5 328.5t226 298t275.5 214t226 80.5q71 0 109 -43.5
t71 -140.5q-93 -3 -162 -22.5t-143 -59.5zM520 823q-70 -75 -141.5 -193.5t-115.5 -232.5t-44 -174q0 -149 139 -149q97 0 250.5 131t267 315.5t113.5 335.5q0 111 -88 111q-68 0 -166 -54t-188 -153q-32 -36 -127 -176q18 94 100 239zM769 1617q-31 0 -52 -12t-50 -35
q-44 -34 -68 -34q-28 0 -28 30t33 76t92.5 79.5t136.5 33.5q46 0 79.5 -12.5t75.5 -35t60 -22.5q33 0 68 27q28 22 51 22q30 0 30 -47q0 -22 -23.5 -61.5t-67 -68t-95.5 -28.5q-33 0 -77 22l-88 44t-77 22z" />
    <glyph glyph-name="Odieresis" unicode="&#xd6;" 
d="M772 1026q27 7 54.5 14t56 12t55.5 5q58 0 99.5 -26t62 -70.5t20.5 -96.5q0 -81 -29.5 -185.5t-84.5 -212.5t-129 -204q-101 -130 -242.5 -209.5t-259.5 -79.5q-87 0 -153.5 47.5t-104 138t-37.5 212.5q0 164 89.5 328.5t226 298t275.5 214t226 80.5q71 0 109 -43.5
t71 -140.5q-93 -3 -162 -22.5t-143 -59.5zM520 823q-70 -75 -141.5 -193.5t-115.5 -232.5t-44 -174q0 -149 139 -149q97 0 250.5 131t267 315.5t113.5 335.5q0 111 -88 111q-68 0 -166 -54t-188 -153q-32 -36 -127 -176q18 94 100 239zM782 1527q-24 0 -39 15t-15 39
q0 17 24 63.5t58.5 83.5t69.5 37q26 0 41.5 -14.5t15.5 -40.5q0 -43 -55 -113t-100 -70zM1066 1527q-21 0 -37 13t-16 32q0 22 25.5 69.5t61 85.5t67.5 38q20 0 34.5 -13.5t14.5 -35.5q0 -45 -49.5 -117t-100.5 -72z" />
    <glyph glyph-name="multiply" unicode="&#xd7;" horiz-adv-x="1366" 
d="M608 625l-397 399l111 111l397 -400l397 400l113 -111l-398 -399l394 -394l-111 -110l-393 393l-397 -393l-111 110z" />
    <glyph glyph-name="Oslash" unicode="&#xd8;" 
d="M1079 991q20 21 62 66t110 117q35 -47 35 -74q0 -14 -18.5 -38.5t-62.5 -68.5t-89 -88q2 -8 2 -41q0 -126 -64 -290t-177 -312q-102 -131 -244 -210t-258 -79q-141 0 -219 115q-40 -42 -97.5 -109t-70.5 -67q-18 0 -33.5 17.5t-15.5 31.5q0 10 15 28t73 78.5t90 94.5
q-35 96 -35 209q0 164 89 328t227 299.5t275.5 214.5t223.5 79q71 0 108.5 -44t69.5 -140q-91 -3 -159.5 -22t-143.5 -60q27 7 54.5 14t56 12t55.5 5q92 0 141 -66zM219 262q63 52 190.5 155t243.5 197.5t192 159.5t138 123q-13 70 -82 70q-66 0 -165 -54t-189 -153
q-31 -35 -127 -176q18 94 100 239q-103 -110 -192.5 -282t-108.5 -279zM981 786q-59 -52 -150.5 -127.5t-196.5 -161t-230 -190.5t-177 -149q30 -84 131 -84q69 0 168 67.5t197 175.5t169 232t89 237z" />
    <glyph glyph-name="Ugrave" unicode="&#xd9;" horiz-adv-x="1280" 
d="M1227 788q-98 -144 -165 -261t-100.5 -199.5t-33.5 -122.5q0 -74 65 -74q69 0 312 188l-2 -69q-281 -287 -412 -287q-156 0 -156 162q0 97 95 275t290 460q-229 -250 -382.5 -411t-317.5 -312q-39 -37 -71 -67.5t-64 -48t-70 -17.5q-59 0 -98 46t-39 130q0 54 32 125.5
t97 166.5t160 208q154 185 213 261t59 97q0 15 -16 15q-19 0 -63.5 -17.5t-117.5 -57t-188 -112.5q-86 -54 -169.5 -87.5t-117.5 -33.5q-20 0 -33.5 11t-13.5 28q0 24 21 78.5t54.5 113t59.5 87.5q72 80 197 141t257 94t218 33q64 0 93.5 -21.5t29.5 -70.5
q0 -107 -27 -165.5t-90 -151.5q-23 -36 -68.5 -98.5t-92 -122t-76.5 -99.5t-62 -88q-87 -128 -110 -165t-23 -64q0 -35 33 -35q30 0 58 21.5t120 101.5q106 91 206 191t182 190.5t208 234.5q141 164 180 205t64 41q22 0 39.5 -35.5t17.5 -99.5q0 -34 -34.5 -90.5
t-147.5 -221.5zM1143 1486q-33 0 -81 64q-60 78 -95 133t-35 86q0 43 64 43q58 0 90 -35.5t68 -130.5q32 -85 32 -115q0 -18 -12 -31.5t-31 -13.5z" />
    <glyph glyph-name="Uacute" unicode="&#xda;" horiz-adv-x="1280" 
d="M1227 788q-98 -144 -165 -261t-100.5 -199.5t-33.5 -122.5q0 -74 65 -74q69 0 312 188l-2 -69q-281 -287 -412 -287q-156 0 -156 162q0 97 95 275t290 460q-229 -250 -382.5 -411t-317.5 -312q-39 -37 -71 -67.5t-64 -48t-70 -17.5q-59 0 -98 46t-39 130q0 54 32 125.5
t97 166.5t160 208q154 185 213 261t59 97q0 15 -16 15q-19 0 -63.5 -17.5t-117.5 -57t-188 -112.5q-86 -54 -169.5 -87.5t-117.5 -33.5q-20 0 -33.5 11t-13.5 28q0 24 21 78.5t54.5 113t59.5 87.5q72 80 197 141t257 94t218 33q64 0 93.5 -21.5t29.5 -70.5
q0 -107 -27 -165.5t-90 -151.5q-23 -36 -68.5 -98.5t-92 -122t-76.5 -99.5t-62 -88q-87 -128 -110 -165t-23 -64q0 -35 33 -35q30 0 58 21.5t120 101.5q106 91 206 191t182 190.5t208 234.5q141 164 180 205t64 41q22 0 39.5 -35.5t17.5 -99.5q0 -34 -34.5 -90.5
t-147.5 -221.5zM1078 1484q-17 0 -31 11.5t-14 25.5q0 37 104 189q45 63 75.5 83.5t86.5 20.5q74 0 74 -51q0 -29 -64.5 -96t-138 -125t-92.5 -58z" />
    <glyph glyph-name="Ucircumflex" unicode="&#xdb;" horiz-adv-x="1280" 
d="M1227 788q-98 -144 -165 -261t-100.5 -199.5t-33.5 -122.5q0 -74 65 -74q69 0 312 188l-2 -69q-281 -287 -412 -287q-156 0 -156 162q0 97 95 275t290 460q-229 -250 -382.5 -411t-317.5 -312q-39 -37 -71 -67.5t-64 -48t-70 -17.5q-59 0 -98 46t-39 130q0 54 32 125.5
t97 166.5t160 208q154 185 213 261t59 97q0 15 -16 15q-19 0 -63.5 -17.5t-117.5 -57t-188 -112.5q-86 -54 -169.5 -87.5t-117.5 -33.5q-20 0 -33.5 11t-13.5 28q0 24 21 78.5t54.5 113t59.5 87.5q72 80 197 141t257 94t218 33q64 0 93.5 -21.5t29.5 -70.5
q0 -107 -27 -165.5t-90 -151.5q-23 -36 -68.5 -98.5t-92 -122t-76.5 -99.5t-62 -88q-87 -128 -110 -165t-23 -64q0 -35 33 -35q30 0 58 21.5t120 101.5q106 91 206 191t182 190.5t208 234.5q141 164 180 205t64 41q22 0 39.5 -35.5t17.5 -99.5q0 -34 -34.5 -90.5
t-147.5 -221.5zM1109 1628q-9 0 -23.5 -15t-28.5 -30q-90 -101 -137 -101q-45 0 -45 39q0 22 53 95t117.5 132.5t110.5 59.5t73 -57q24 -49 44 -126t20 -98q0 -15 -10.5 -29t-26.5 -14q-26 0 -60 32.5t-67 90.5q-7 21 -20 21z" />
    <glyph glyph-name="Udieresis" unicode="&#xdc;" horiz-adv-x="1280" 
d="M1227 788q-98 -144 -165 -261t-100.5 -199.5t-33.5 -122.5q0 -74 65 -74q69 0 312 188l-2 -69q-281 -287 -412 -287q-156 0 -156 162q0 97 95 275t290 460q-229 -250 -382.5 -411t-317.5 -312q-39 -37 -71 -67.5t-64 -48t-70 -17.5q-59 0 -98 46t-39 130q0 54 32 125.5
t97 166.5t160 208q154 185 213 261t59 97q0 15 -16 15q-19 0 -63.5 -17.5t-117.5 -57t-188 -112.5q-86 -54 -169.5 -87.5t-117.5 -33.5q-20 0 -33.5 11t-13.5 28q0 24 21 78.5t54.5 113t59.5 87.5q72 80 197 141t257 94t218 33q64 0 93.5 -21.5t29.5 -70.5
q0 -107 -27 -165.5t-90 -151.5q-23 -36 -68.5 -98.5t-92 -122t-76.5 -99.5t-62 -88q-87 -128 -110 -165t-23 -64q0 -35 33 -35q30 0 58 21.5t120 101.5q106 91 206 191t182 190.5t208 234.5q141 164 180 205t64 41q22 0 39.5 -35.5t17.5 -99.5q0 -34 -34.5 -90.5
t-147.5 -221.5zM941 1527q-24 0 -39 15t-15 39q0 17 24 63.5t58.5 83.5t69.5 37q26 0 41.5 -14.5t15.5 -40.5q0 -43 -55 -113t-100 -70zM1225 1527q-21 0 -37 13t-16 32q0 22 25.5 69.5t61 85.5t67.5 38q20 0 34.5 -13.5t14.5 -35.5q0 -45 -49.5 -117t-100.5 -72z" />
    <glyph glyph-name="Yacute" unicode="&#xdd;" horiz-adv-x="1130" 
d="M-131 696l18 117q9 60 32 98t80.5 83.5t178.5 129.5q291 203 453 203q49 0 69.5 -20t20.5 -70q0 -35 -26.5 -96t-97 -193t-124.5 -237q-44 -86 -100 -182.5t-75 -132.5t-19 -54q0 -20 13 -34.5t32 -14.5q26 0 58.5 28t127.5 121q46 46 98.5 109t130.5 162t144 184
q41 53 74 95t56.5 64.5t37.5 22.5q12 0 39 -30l24 -31q27 -38 27 -55q0 -20 -74.5 -146.5t-126.5 -219t-134.5 -267t-158.5 -387.5q203 153 278 204.5t109 51.5q23 0 23 -19q0 -21 -22 -54.5t-59 -74t-111.5 -117t-162.5 -165.5q-54 -55 -105 -128t-79 -113t-51 -46
q-34 -10 -62 15t-28 79q0 38 38.5 157t116.5 296q46 106 94 200.5t110.5 208t122.5 215.5t102 174q-100 -131 -198.5 -254.5t-220 -260t-245.5 -255.5q-54 -51 -77.5 -69.5t-61.5 -18.5q-24 0 -46.5 16.5t-37.5 43t-15 51.5q0 42 12.5 74t43.5 96q136 275 198 377
q222 356 222 399q0 14 -10 22.5t-25 8.5q-28 0 -67 -24.5t-98 -72.5t-143.5 -115t-177.5 -128q-37 -24 -83.5 -57t-53.5 -33q-14 0 -14 14q0 13 6 55zM874 1484q-17 0 -31 11.5t-14 25.5q0 37 104 189q45 63 75.5 83.5t86.5 20.5q74 0 74 -51q0 -29 -64.5 -96t-138 -125
t-92.5 -58z" />
    <glyph glyph-name="Thorn" unicode="&#xde;" horiz-adv-x="1280" 
d="M625 811q-160 -17 -316 -60t-284 -104q-12 -5 -20.5 0t-8.5 17q0 7 22.5 53.5t52.5 100.5t66 108q165 65 316.5 98t294.5 33q16 0 25.5 -0.5t21.5 -1.5q39 53 85 127t71 105.5t46 31.5q23 0 23 -45q0 -44 -24 -82.5t-103 -142.5q195 -22 293 -113.5t98 -233.5
q0 -105 -58 -200.5t-162.5 -167.5t-243 -112t-290.5 -40q-36 0 -64 3t-51 7t-38 5q-38 -63 -49 -91q12 -24 12 -43q0 -41 -31.5 -85.5t-113.5 -139.5q-10 -12 -29 -12q-41 0 -41 63q0 80 137 332q-54 19 -82 42t-28 63q0 108 270 176q125 183 203 309zM750 817
q-32 -45 -183 -289q74 9 113 9q37 0 37 -17q0 -10 -6.5 -12t-38 -5.5t-64 -7.5t-67.5 -14q-24 -37 -34 -54.5t-18 -29.5q54 -4 132 -4q118 0 217.5 20.5t170.5 56t110.5 83t39.5 100.5q0 80 -96.5 123t-278.5 43q-10 0 -17.5 -0.5t-16.5 -1.5z" />
    <glyph glyph-name="germandbls" unicode="&#xdf;" horiz-adv-x="831" 
d="M690 463q0 -198 -244 -291q51 -22 101 -22q39 0 71 9.5t67 31.5t65.5 47.5t99.5 87.5v-72q-88 -88 -160.5 -142.5t-141.5 -83t-134 -28.5q-81 0 -139.5 35t-88.5 89t-30 109q0 27 15.5 43.5t41.5 16.5q18 0 35.5 -8.5t65.5 -38t69 -41.5q64 14 96.5 45.5t32.5 91.5
q0 34 -9 76t-22 86.5t-20.5 79.5t-7.5 65q0 39 16.5 64t50.5 49q45 30 77.5 52.5t63 45t48.5 39.5q41 38 70.5 80t45 82.5t15.5 66.5q0 35 -33 35q-36 0 -82.5 -21.5t-97.5 -65t-101 -109.5q-74 -97 -252 -392q-104 -173 -165 -295.5t-127 -268t-95.5 -194t-58.5 -48.5
q-16 0 -27.5 20t-11.5 53q0 69 25.5 138t66 134t92.5 138q74 107 151 241.5t168.5 291t178.5 264.5t195 182q48 32 98.5 54.5t98.5 34t79 11.5q76 0 76 -74q0 -58 -26.5 -128t-81.5 -144t-134 -137q-52 -41 -79 -62t-42.5 -39t-15.5 -34q0 -13 18 -81t25.5 -102t7.5 -67z
" />
    <glyph glyph-name="agrave" unicode="&#xe0;" horiz-adv-x="831" 
d="M133 494q152 138 295 205t221 67q21 0 39 -17.5t28.5 -40.5t10.5 -34q0 -18 -14 -26.5t-49 -20.5q7 -16 18 -41t17 -40.5t6 -27.5q0 -24 -48.5 -89.5t-68 -96.5t-19.5 -76q0 -74 68 -74q70 0 219 131v-61q-253 -281 -362 -281q-39 0 -55.5 25.5t-16.5 75.5q0 79 57 229
q-146 -162 -217 -230.5t-117 -68.5q-22 0 -55 38t-58.5 98.5t-25.5 125.5q0 47 9 78.5t35 64.5t83 87zM612 604q-260 -119 -370.5 -202t-110.5 -171q0 -32 11 -52.5t30 -20.5q11 0 39 14q105 62 192 161.5t209 270.5zM673 911q-33 0 -81 64q-60 78 -95 133t-35 86
q0 43 64 43q58 0 90 -35.5t68 -130.5q32 -85 32 -115q0 -18 -12 -31.5t-31 -13.5z" />
    <glyph glyph-name="aacute" unicode="&#xe1;" horiz-adv-x="831" 
d="M133 494q152 138 295 205t221 67q21 0 39 -17.5t28.5 -40.5t10.5 -34q0 -18 -14 -26.5t-49 -20.5q7 -16 18 -41t17 -40.5t6 -27.5q0 -24 -48.5 -89.5t-68 -96.5t-19.5 -76q0 -74 68 -74q70 0 219 131v-61q-253 -281 -362 -281q-39 0 -55.5 25.5t-16.5 75.5q0 79 57 229
q-146 -162 -217 -230.5t-117 -68.5q-22 0 -55 38t-58.5 98.5t-25.5 125.5q0 47 9 78.5t35 64.5t83 87zM612 604q-260 -119 -370.5 -202t-110.5 -171q0 -32 11 -52.5t30 -20.5q11 0 39 14q105 62 192 161.5t209 270.5zM608 909q-17 0 -31 11.5t-14 25.5q0 37 104 189
q45 63 75.5 83.5t86.5 20.5q74 0 74 -51q0 -29 -64.5 -96t-138 -125t-92.5 -58z" />
    <glyph glyph-name="acircumflex" unicode="&#xe2;" horiz-adv-x="831" 
d="M133 494q152 138 295 205t221 67q21 0 39 -17.5t28.5 -40.5t10.5 -34q0 -18 -14 -26.5t-49 -20.5q7 -16 18 -41t17 -40.5t6 -27.5q0 -24 -48.5 -89.5t-68 -96.5t-19.5 -76q0 -74 68 -74q70 0 219 131v-61q-253 -281 -362 -281q-39 0 -55.5 25.5t-16.5 75.5q0 79 57 229
q-146 -162 -217 -230.5t-117 -68.5q-22 0 -55 38t-58.5 98.5t-25.5 125.5q0 47 9 78.5t35 64.5t83 87zM612 604q-260 -119 -370.5 -202t-110.5 -171q0 -32 11 -52.5t30 -20.5q11 0 39 14q105 62 192 161.5t209 270.5zM639 1053q-9 0 -23.5 -15t-28.5 -30q-90 -101 -137 -101
q-45 0 -45 39q0 22 53 95t117.5 132.5t110.5 59.5t73 -57q24 -49 44 -126t20 -98q0 -15 -10.5 -29t-26.5 -14q-26 0 -60 32.5t-67 90.5q-7 21 -20 21z" />
    <glyph glyph-name="atilde" unicode="&#xe3;" horiz-adv-x="831" 
d="M133 494q152 138 295 205t221 67q21 0 39 -17.5t28.5 -40.5t10.5 -34q0 -18 -14 -26.5t-49 -20.5q7 -16 18 -41t17 -40.5t6 -27.5q0 -24 -48.5 -89.5t-68 -96.5t-19.5 -76q0 -74 68 -74q70 0 219 131v-61q-253 -281 -362 -281q-39 0 -55.5 25.5t-16.5 75.5q0 79 57 229
q-146 -162 -217 -230.5t-117 -68.5q-22 0 -55 38t-58.5 98.5t-25.5 125.5q0 47 9 78.5t35 64.5t83 87zM612 604q-260 -119 -370.5 -202t-110.5 -171q0 -32 11 -52.5t30 -20.5q11 0 39 14q105 62 192 161.5t209 270.5zM458 1042q-31 0 -52 -12t-50 -35q-44 -34 -68 -34
q-28 0 -28 30t33 76t92.5 79.5t136.5 33.5q46 0 79.5 -12.5t75.5 -35t60 -22.5q33 0 68 27q28 22 51 22q30 0 30 -47q0 -22 -23.5 -61.5t-67 -68t-95.5 -28.5q-33 0 -77 22l-88 44t-77 22z" />
    <glyph glyph-name="adieresis" unicode="&#xe4;" horiz-adv-x="831" 
d="M133 494q152 138 295 205t221 67q21 0 39 -17.5t28.5 -40.5t10.5 -34q0 -18 -14 -26.5t-49 -20.5q7 -16 18 -41t17 -40.5t6 -27.5q0 -24 -48.5 -89.5t-68 -96.5t-19.5 -76q0 -74 68 -74q70 0 219 131v-61q-253 -281 -362 -281q-39 0 -55.5 25.5t-16.5 75.5q0 79 57 229
q-146 -162 -217 -230.5t-117 -68.5q-22 0 -55 38t-58.5 98.5t-25.5 125.5q0 47 9 78.5t35 64.5t83 87zM612 604q-260 -119 -370.5 -202t-110.5 -171q0 -32 11 -52.5t30 -20.5q11 0 39 14q105 62 192 161.5t209 270.5zM471 952q-24 0 -39 15t-15 39q0 17 24 63.5t58.5 83.5
t69.5 37q26 0 41.5 -14.5t15.5 -40.5q0 -43 -55 -113t-100 -70zM755 952q-21 0 -37 13t-16 32q0 22 25.5 69.5t61 85.5t67.5 38q20 0 34.5 -13.5t14.5 -35.5q0 -45 -49.5 -117t-100.5 -72z" />
    <glyph glyph-name="aring" unicode="&#xe5;" horiz-adv-x="831" 
d="M133 494q152 138 295 205t221 67q21 0 39 -17.5t28.5 -40.5t10.5 -34q0 -18 -14 -26.5t-49 -20.5q7 -16 18 -41t17 -40.5t6 -27.5q0 -24 -48.5 -89.5t-68 -96.5t-19.5 -76q0 -74 68 -74q70 0 219 131v-61q-253 -281 -362 -281q-39 0 -55.5 25.5t-16.5 75.5q0 79 57 229
q-146 -162 -217 -230.5t-117 -68.5q-22 0 -55 38t-58.5 98.5t-25.5 125.5q0 47 9 78.5t35 64.5t83 87zM612 604q-260 -119 -370.5 -202t-110.5 -171q0 -32 11 -52.5t30 -20.5q11 0 39 14q105 62 192 161.5t209 270.5zM606 903q-62 0 -104 43t-42 103q0 45 25.5 90.5t70 75.5
t97.5 30q65 0 105 -40t40 -107q0 -47 -28 -92.5t-72.5 -74t-91.5 -28.5zM616 965q25 0 53 19.5t47 48t19 54.5q0 31 -17.5 49.5t-46.5 18.5q-27 0 -55.5 -19.5t-45.5 -49.5t-17 -54q0 -29 18 -48t45 -19z" />
    <glyph glyph-name="ae" unicode="&#xe6;" horiz-adv-x="1044" 
d="M223 588q73 61 166.5 102.5t166.5 59.5t93 18q21 0 45.5 -28t24.5 -54q0 -12 -13 -36.5t-47 -80.5q89 82 154 122t129 40q115 0 115 -90q0 -56 -47.5 -120t-144 -125.5t-240.5 -112.5v-43q0 -44 28.5 -79.5t83.5 -35.5q59 0 137 46.5t193 141.5v-59
q-109 -138 -211 -208.5t-190 -70.5q-218 0 -215 287q-110 -126 -185.5 -191t-113.5 -65q-27 0 -62.5 38.5t-60.5 97.5t-25 120q0 79 53.5 155.5t165.5 170.5zM598 598q-35 -7 -68 -23q-199 -90 -300 -176.5t-101 -165.5q0 -71 43 -71q27 0 97 51.5t157.5 149.5t171.5 235z
M641 344q132 55 204.5 134.5t72.5 121.5q0 31 -27 31q-24 0 -85 -43.5t-110 -108.5t-55 -135z" />
    <glyph glyph-name="ccedilla" unicode="&#xe7;" horiz-adv-x="598" 
d="M618 319v-67q-161 -156 -246.5 -219.5t-156.5 -63.5q-91 0 -147 89t-56 200q0 43 2 66.5t13 52.5q26 67 113.5 154.5t185 147.5t151.5 60q19 0 40 -10.5t32.5 -29t11.5 -37.5q0 -39 -30.5 -97.5t-71 -102.5t-62.5 -44q-20 0 -24 13t-6 56q0 2 -7 2q-5 0 -25 -13.5
t-70.5 -53t-86.5 -66.5q-22 -17 -39.5 -46.5t-17.5 -55.5q0 -52 38 -87.5t99 -35.5q45 0 100.5 23t121 65.5t138.5 99.5zM213 -113q40 0 63 -25t23 -65q0 -57 -51 -109t-116 -84t-93 -32q-10 0 -17.5 10.5t-7.5 24.5q0 18 52 41q108 55 108 114q0 13 -10 24t-23 11
q-1 0 -18 -4t-23 -4q-16 0 -16 25q0 20 43.5 46.5t85.5 26.5z" />
    <glyph glyph-name="egrave" unicode="&#xe8;" horiz-adv-x="598" 
d="M176 279v-25q0 -59 29 -92t76 -33q49 0 101.5 23t104.5 61t127 102v-61q-113 -136 -212 -208.5t-201 -72.5q-89 0 -141 69t-52 189q0 105 49 190.5t160 180.5q76 65 151 98t134 33q47 0 74.5 -21.5t27.5 -64.5q0 -63 -47 -125.5t-143.5 -124t-237.5 -118.5zM186 344
q90 35 154 87t94.5 99.5t30.5 69.5q0 23 -21 23q-18 0 -58.5 -23t-82 -60t-74.5 -87t-43 -109zM530 911q-33 0 -81 64q-60 78 -95 133t-35 86q0 43 64 43q58 0 90 -35.5t68 -130.5q32 -85 32 -115q0 -18 -12 -31.5t-31 -13.5z" />
    <glyph glyph-name="eacute" unicode="&#xe9;" horiz-adv-x="598" 
d="M176 279v-25q0 -59 29 -92t76 -33q49 0 101.5 23t104.5 61t127 102v-61q-113 -136 -212 -208.5t-201 -72.5q-89 0 -141 69t-52 189q0 105 49 190.5t160 180.5q76 65 151 98t134 33q47 0 74.5 -21.5t27.5 -64.5q0 -63 -47 -125.5t-143.5 -124t-237.5 -118.5zM186 344
q90 35 154 87t94.5 99.5t30.5 69.5q0 23 -21 23q-18 0 -58.5 -23t-82 -60t-74.5 -87t-43 -109zM465 909q-17 0 -31 11.5t-14 25.5q0 37 104 189q45 63 75.5 83.5t86.5 20.5q74 0 74 -51q0 -29 -64.5 -96t-138 -125t-92.5 -58z" />
    <glyph glyph-name="ecircumflex" unicode="&#xea;" horiz-adv-x="598" 
d="M176 279v-25q0 -59 29 -92t76 -33q49 0 101.5 23t104.5 61t127 102v-61q-113 -136 -212 -208.5t-201 -72.5q-89 0 -141 69t-52 189q0 105 49 190.5t160 180.5q76 65 151 98t134 33q47 0 74.5 -21.5t27.5 -64.5q0 -63 -47 -125.5t-143.5 -124t-237.5 -118.5zM186 344
q90 35 154 87t94.5 99.5t30.5 69.5q0 23 -21 23q-18 0 -58.5 -23t-82 -60t-74.5 -87t-43 -109zM496 1053q-9 0 -23.5 -15t-28.5 -30q-90 -101 -137 -101q-45 0 -45 39q0 22 53 95t117.5 132.5t110.5 59.5t73 -57q24 -49 44 -126t20 -98q0 -15 -10.5 -29t-26.5 -14
q-26 0 -60 32.5t-67 90.5q-7 21 -20 21z" />
    <glyph glyph-name="edieresis" unicode="&#xeb;" horiz-adv-x="598" 
d="M176 279v-25q0 -59 29 -92t76 -33q49 0 101.5 23t104.5 61t127 102v-61q-113 -136 -212 -208.5t-201 -72.5q-89 0 -141 69t-52 189q0 105 49 190.5t160 180.5q76 65 151 98t134 33q47 0 74.5 -21.5t27.5 -64.5q0 -63 -47 -125.5t-143.5 -124t-237.5 -118.5zM186 344
q90 35 154 87t94.5 99.5t30.5 69.5q0 23 -21 23q-18 0 -58.5 -23t-82 -60t-74.5 -87t-43 -109zM328 952q-24 0 -39 15t-15 39q0 17 24 63.5t58.5 83.5t69.5 37q26 0 41.5 -14.5t15.5 -40.5q0 -43 -55 -113t-100 -70zM612 952q-21 0 -37 13t-16 32q0 22 25.5 69.5t61 85.5
t67.5 38q20 0 34.5 -13.5t14.5 -35.5q0 -45 -49.5 -117t-100.5 -72z" />
    <glyph glyph-name="igrave" unicode="&#xec;" horiz-adv-x="469" 
d="M494 315v-73q-97 -125 -181 -188.5t-143 -63.5q-82 0 -122 86t-40 188q0 39 8 74.5t19 58.5t41 72q142 221 260 221q61 0 61 -47q0 -32 -39.5 -100t-70.5 -97q-87 -84 -113.5 -117t-26.5 -75q0 -36 27 -60t70 -24q47 0 103.5 34.5t146.5 110.5zM449 911q-33 0 -81 64
q-60 78 -95 133t-35 86q0 43 64 43q58 0 90 -35.5t68 -130.5q32 -85 32 -115q0 -18 -12 -31.5t-31 -13.5z" />
    <glyph glyph-name="iacute" unicode="&#xed;" horiz-adv-x="469" 
d="M494 315v-73q-97 -125 -181 -188.5t-143 -63.5q-82 0 -122 86t-40 188q0 39 8 74.5t19 58.5t41 72q142 221 260 221q61 0 61 -47q0 -32 -39.5 -100t-70.5 -97q-87 -84 -113.5 -117t-26.5 -75q0 -36 27 -60t70 -24q47 0 103.5 34.5t146.5 110.5zM384 909q-17 0 -31 11.5
t-14 25.5q0 37 104 189q45 63 75.5 83.5t86.5 20.5q74 0 74 -51q0 -29 -64.5 -96t-138 -125t-92.5 -58z" />
    <glyph glyph-name="icircumflex" unicode="&#xee;" horiz-adv-x="469" 
d="M494 315v-73q-97 -125 -181 -188.5t-143 -63.5q-82 0 -122 86t-40 188q0 39 8 74.5t19 58.5t41 72q142 221 260 221q61 0 61 -47q0 -32 -39.5 -100t-70.5 -97q-87 -84 -113.5 -117t-26.5 -75q0 -36 27 -60t70 -24q47 0 103.5 34.5t146.5 110.5zM415 1053q-9 0 -23.5 -15
t-28.5 -30q-90 -101 -137 -101q-45 0 -45 39q0 22 53 95t117.5 132.5t110.5 59.5t73 -57q24 -49 44 -126t20 -98q0 -15 -10.5 -29t-26.5 -14q-26 0 -60 32.5t-67 90.5q-7 21 -20 21z" />
    <glyph glyph-name="idieresis" unicode="&#xef;" horiz-adv-x="469" 
d="M494 315v-73q-97 -125 -181 -188.5t-143 -63.5q-82 0 -122 86t-40 188q0 39 8 74.5t19 58.5t41 72q142 221 260 221q61 0 61 -47q0 -32 -39.5 -100t-70.5 -97q-87 -84 -113.5 -117t-26.5 -75q0 -36 27 -60t70 -24q47 0 103.5 34.5t146.5 110.5zM247 952q-24 0 -39 15
t-15 39q0 17 24 63.5t58.5 83.5t69.5 37q26 0 41.5 -14.5t15.5 -40.5q0 -43 -55 -113t-100 -70zM531 952q-21 0 -37 13t-16 32q0 22 25.5 69.5t61 85.5t67.5 38q20 0 34.5 -13.5t14.5 -35.5q0 -45 -49.5 -117t-100.5 -72z" />
    <glyph glyph-name="eth" unicode="&#xf0;" horiz-adv-x="641" 
d="M438 694q-18 68 -48 132.5t-58 97.5q-8 -5 -58.5 -40.5t-74 -41t-23.5 31.5q0 59 105 111q-43 42 -72.5 71.5t-47.5 58.5t-18 63q0 53 41 53q36 0 89.5 -50t111.5 -137q77 41 127 41q19 0 37 -8t18 -20q0 -11 -9.5 -19t-25.5 -15.5t-48.5 -22t-51.5 -25.5
q48 -80 82.5 -151t54 -144.5t19.5 -153.5q0 -58 -10 -94t-33 -88q-77 -166 -166 -255t-172 -89q-53 0 -100 37.5t-75 99t-28 131.5q0 102 75.5 212.5t203.5 189.5q48 31 82 34.5t73 -10.5zM453 639q-9 -21 -18.5 -35.5t-33.5 -30.5q-99 -62 -147.5 -102.5t-75 -87
t-35.5 -117.5q-1 -11 -7.5 -29.5t-6.5 -29.5q0 -70 76 -70q60 0 124 44t107 124.5t43 181.5q0 55 -26 152z" />
    <glyph glyph-name="ntilde" unicode="&#xf1;" horiz-adv-x="748" 
d="M690 496q-176 -196 -176 -273q0 -43 35 -43q29 0 75.5 30.5t145.5 108.5v-69q-142 -140 -218 -202t-124 -62q-82 0 -82 108q0 32 10 63t27.5 64.5t53.5 96t83 141.5q-57 -29 -143 -115q-56 -54 -95 -102.5t-83.5 -108t-65 -80t-41.5 -20.5q-32 0 -59 67t-27 156
q0 55 12.5 86t49.5 88q69 106 119 155.5t96 49.5q32 0 51.5 -11t19.5 -34q0 -10 -6 -21t-13.5 -20t-31.5 -35q-158 -175 -158 -227q0 -29 19 -29q12 0 46.5 38.5t89 101t129 130.5t169.5 131q53 37 88 37q16 0 31.5 -44t15.5 -89q0 -22 -43 -67zM520 1042q-31 0 -52 -12
t-50 -35q-44 -34 -68 -34q-28 0 -28 30t33 76t92.5 79.5t136.5 33.5q46 0 79.5 -12.5t75.5 -35t60 -22.5q33 0 68 27q28 22 51 22q30 0 30 -47q0 -22 -23.5 -61.5t-67 -68t-95.5 -28.5q-33 0 -77 22l-88 44t-77 22z" />
    <glyph glyph-name="ograve" unicode="&#xf2;" horiz-adv-x="641" 
d="M659 317v-67q-66 -60 -106 -80t-115 -16q-130 -154 -229 -154q-56 0 -102 37t-73.5 101t-27.5 143q0 64 42.5 142t110 145.5t144.5 109t143 41.5q47 0 74 -14.5t27 -40.5q0 -20 -23 -46q38 -8 52 -26.5t14 -67.5q0 -48 -22.5 -121t-61.5 -137l18 -18h15q17 0 33.5 8.5
t29.5 18t57 42.5zM453 580q-83 -50 -142 -90.5t-100 -82t-55 -83.5q-25 -112 -25 -121q0 -66 92 -66q43 0 144 74q-17 47 -17 90q0 63 26 128.5t77 150.5zM530 911q-33 0 -81 64q-60 78 -95 133t-35 86q0 43 64 43q58 0 90 -35.5t68 -130.5q32 -85 32 -115q0 -18 -12 -31.5
t-31 -13.5z" />
    <glyph glyph-name="oacute" unicode="&#xf3;" horiz-adv-x="641" 
d="M659 317v-67q-66 -60 -106 -80t-115 -16q-130 -154 -229 -154q-56 0 -102 37t-73.5 101t-27.5 143q0 64 42.5 142t110 145.5t144.5 109t143 41.5q47 0 74 -14.5t27 -40.5q0 -20 -23 -46q38 -8 52 -26.5t14 -67.5q0 -48 -22.5 -121t-61.5 -137l18 -18h15q17 0 33.5 8.5
t29.5 18t57 42.5zM453 580q-83 -50 -142 -90.5t-100 -82t-55 -83.5q-25 -112 -25 -121q0 -66 92 -66q43 0 144 74q-17 47 -17 90q0 63 26 128.5t77 150.5zM465 909q-17 0 -31 11.5t-14 25.5q0 37 104 189q45 63 75.5 83.5t86.5 20.5q74 0 74 -51q0 -29 -64.5 -96t-138 -125
t-92.5 -58z" />
    <glyph glyph-name="ocircumflex" unicode="&#xf4;" horiz-adv-x="641" 
d="M659 317v-67q-66 -60 -106 -80t-115 -16q-130 -154 -229 -154q-56 0 -102 37t-73.5 101t-27.5 143q0 64 42.5 142t110 145.5t144.5 109t143 41.5q47 0 74 -14.5t27 -40.5q0 -20 -23 -46q38 -8 52 -26.5t14 -67.5q0 -48 -22.5 -121t-61.5 -137l18 -18h15q17 0 33.5 8.5
t29.5 18t57 42.5zM453 580q-83 -50 -142 -90.5t-100 -82t-55 -83.5q-25 -112 -25 -121q0 -66 92 -66q43 0 144 74q-17 47 -17 90q0 63 26 128.5t77 150.5zM496 1053q-9 0 -23.5 -15t-28.5 -30q-90 -101 -137 -101q-45 0 -45 39q0 22 53 95t117.5 132.5t110.5 59.5t73 -57
q24 -49 44 -126t20 -98q0 -15 -10.5 -29t-26.5 -14q-26 0 -60 32.5t-67 90.5q-7 21 -20 21z" />
    <glyph glyph-name="otilde" unicode="&#xf5;" horiz-adv-x="641" 
d="M659 317v-67q-66 -60 -106 -80t-115 -16q-130 -154 -229 -154q-56 0 -102 37t-73.5 101t-27.5 143q0 64 42.5 142t110 145.5t144.5 109t143 41.5q47 0 74 -14.5t27 -40.5q0 -20 -23 -46q38 -8 52 -26.5t14 -67.5q0 -48 -22.5 -121t-61.5 -137l18 -18h15q17 0 33.5 8.5
t29.5 18t57 42.5zM453 580q-83 -50 -142 -90.5t-100 -82t-55 -83.5q-25 -112 -25 -121q0 -66 92 -66q43 0 144 74q-17 47 -17 90q0 63 26 128.5t77 150.5zM315 1042q-31 0 -52 -12t-50 -35q-44 -34 -68 -34q-28 0 -28 30t33 76t92.5 79.5t136.5 33.5q46 0 79.5 -12.5
t75.5 -35t60 -22.5q33 0 68 27q28 22 51 22q30 0 30 -47q0 -22 -23.5 -61.5t-67 -68t-95.5 -28.5q-33 0 -77 22l-88 44t-77 22z" />
    <glyph glyph-name="odieresis" unicode="&#xf6;" horiz-adv-x="641" 
d="M659 317v-67q-66 -60 -106 -80t-115 -16q-130 -154 -229 -154q-56 0 -102 37t-73.5 101t-27.5 143q0 64 42.5 142t110 145.5t144.5 109t143 41.5q47 0 74 -14.5t27 -40.5q0 -20 -23 -46q38 -8 52 -26.5t14 -67.5q0 -48 -22.5 -121t-61.5 -137l18 -18h15q17 0 33.5 8.5
t29.5 18t57 42.5zM453 580q-83 -50 -142 -90.5t-100 -82t-55 -83.5q-25 -112 -25 -121q0 -66 92 -66q43 0 144 74q-17 47 -17 90q0 63 26 128.5t77 150.5zM328 952q-24 0 -39 15t-15 39q0 17 24 63.5t58.5 83.5t69.5 37q26 0 41.5 -14.5t15.5 -40.5q0 -43 -55 -113t-100 -70
zM612 952q-21 0 -37 13t-16 32q0 22 25.5 69.5t61 85.5t67.5 38q20 0 34.5 -13.5t14.5 -35.5q0 -45 -49.5 -117t-100.5 -72z" />
    <glyph glyph-name="divide" unicode="&#xf7;" horiz-adv-x="1366" 
d="M616 1047q0 40 30 68t69 28q20 0 38.5 -8t32.5 -22t21.5 -31.5t7.5 -37.5q0 -63 -49.5 -88t-99.5 1.5t-50 89.5zM616 217q0 46 30 72t70 26t69.5 -25t29.5 -73q0 -40 -29 -69t-69 -29q-41 0 -71 29t-30 69zM170 551v151h1096v-151h-1096z" />
    <glyph glyph-name="oslash" unicode="&#xf8;" horiz-adv-x="641" 
d="M659 317v-67q-66 -61 -105 -80.5t-116 -15.5q-67 -78 -122 -116t-109 -38q-63 0 -113 47q-47 -70 -72.5 -117t-31.5 -47q-8 10 -20.5 29.5t-12.5 32.5q0 12 23.5 58.5t70.5 96.5q-45 79 -45 181q0 86 71 190t175.5 176t191.5 72q69 0 95 -31q130 115 172 115q5 0 10 -4
t8.5 -10.5t3.5 -12.5q0 -30 -16 -47.5t-73.5 -55.5t-92.5 -65q22 -11 30.5 -29.5t8.5 -54.5q0 -49 -22 -120.5t-62 -137.5l16 -18h15q21 0 41.5 12t80.5 57zM451 580q-83 -50 -142 -90.5t-100 -82t-55 -83.5q-4 -11 -13.5 -59t-9.5 -62q0 -66 92 -66q43 0 144 74
q-19 68 -19 90q0 34 7.5 67.5t21 68t26 58.5t48.5 85z" />
    <glyph glyph-name="ugrave" unicode="&#xf9;" horiz-adv-x="788" 
d="M487 383q-145 -192 -220.5 -273t-123.5 -81q-38 0 -70 31.5t-49.5 85t-17.5 114.5q0 40 7.5 72t28.5 70.5t55.5 83.5t84.5 102q30 35 50.5 59t40 32.5t63.5 8.5q32 0 61 -8.5t29 -17.5q0 -18 -29.5 -65t-95 -114.5t-151.5 -132.5q-19 -59 -19 -90q0 -43 33 -43
q12 0 40 20.5t94.5 79t119.5 103.5q39 34 90.5 101.5t83.5 101.5q74 78 101 101.5t52 23.5q24 0 32.5 -15t8.5 -61q0 -21 -4 -34t-16.5 -33.5t-50.5 -75.5t-90 -130q-28 -40 -49 -87.5t-21 -71.5q0 -52 41 -52q34 0 79 28t138 101v-67q-117 -108 -173 -157t-97 -74t-78 -25
q-84 0 -84 100q0 38 25 102.5t81 186.5zM612 911q-33 0 -81 64q-60 78 -95 133t-35 86q0 43 64 43q58 0 90 -35.5t68 -130.5q32 -85 32 -115q0 -18 -12 -31.5t-31 -13.5z" />
    <glyph glyph-name="uacute" unicode="&#xfa;" horiz-adv-x="788" 
d="M487 383q-145 -192 -220.5 -273t-123.5 -81q-38 0 -70 31.5t-49.5 85t-17.5 114.5q0 40 7.5 72t28.5 70.5t55.5 83.5t84.5 102q30 35 50.5 59t40 32.5t63.5 8.5q32 0 61 -8.5t29 -17.5q0 -18 -29.5 -65t-95 -114.5t-151.5 -132.5q-19 -59 -19 -90q0 -43 33 -43
q12 0 40 20.5t94.5 79t119.5 103.5q39 34 90.5 101.5t83.5 101.5q74 78 101 101.5t52 23.5q24 0 32.5 -15t8.5 -61q0 -21 -4 -34t-16.5 -33.5t-50.5 -75.5t-90 -130q-28 -40 -49 -87.5t-21 -71.5q0 -52 41 -52q34 0 79 28t138 101v-67q-117 -108 -173 -157t-97 -74t-78 -25
q-84 0 -84 100q0 38 25 102.5t81 186.5zM547 909q-17 0 -31 11.5t-14 25.5q0 37 104 189q45 63 75.5 83.5t86.5 20.5q74 0 74 -51q0 -29 -64.5 -96t-138 -125t-92.5 -58z" />
    <glyph glyph-name="ucircumflex" unicode="&#xfb;" horiz-adv-x="788" 
d="M487 383q-145 -192 -220.5 -273t-123.5 -81q-38 0 -70 31.5t-49.5 85t-17.5 114.5q0 40 7.5 72t28.5 70.5t55.5 83.5t84.5 102q30 35 50.5 59t40 32.5t63.5 8.5q32 0 61 -8.5t29 -17.5q0 -18 -29.5 -65t-95 -114.5t-151.5 -132.5q-19 -59 -19 -90q0 -43 33 -43
q12 0 40 20.5t94.5 79t119.5 103.5q39 34 90.5 101.5t83.5 101.5q74 78 101 101.5t52 23.5q24 0 32.5 -15t8.5 -61q0 -21 -4 -34t-16.5 -33.5t-50.5 -75.5t-90 -130q-28 -40 -49 -87.5t-21 -71.5q0 -52 41 -52q34 0 79 28t138 101v-67q-117 -108 -173 -157t-97 -74t-78 -25
q-84 0 -84 100q0 38 25 102.5t81 186.5zM578 1053q-9 0 -23.5 -15t-28.5 -30q-90 -101 -137 -101q-45 0 -45 39q0 22 53 95t117.5 132.5t110.5 59.5t73 -57q24 -49 44 -126t20 -98q0 -15 -10.5 -29t-26.5 -14q-26 0 -60 32.5t-67 90.5q-7 21 -20 21z" />
    <glyph glyph-name="udieresis" unicode="&#xfc;" horiz-adv-x="788" 
d="M487 383q-145 -192 -220.5 -273t-123.5 -81q-38 0 -70 31.5t-49.5 85t-17.5 114.5q0 40 7.5 72t28.5 70.5t55.5 83.5t84.5 102q30 35 50.5 59t40 32.5t63.5 8.5q32 0 61 -8.5t29 -17.5q0 -18 -29.5 -65t-95 -114.5t-151.5 -132.5q-19 -59 -19 -90q0 -43 33 -43
q12 0 40 20.5t94.5 79t119.5 103.5q39 34 90.5 101.5t83.5 101.5q74 78 101 101.5t52 23.5q24 0 32.5 -15t8.5 -61q0 -21 -4 -34t-16.5 -33.5t-50.5 -75.5t-90 -130q-28 -40 -49 -87.5t-21 -71.5q0 -52 41 -52q34 0 79 28t138 101v-67q-117 -108 -173 -157t-97 -74t-78 -25
q-84 0 -84 100q0 38 25 102.5t81 186.5zM410 952q-24 0 -39 15t-15 39q0 17 24 63.5t58.5 83.5t69.5 37q26 0 41.5 -14.5t15.5 -40.5q0 -43 -55 -113t-100 -70zM694 952q-21 0 -37 13t-16 32q0 22 25.5 69.5t61 85.5t67.5 38q20 0 34.5 -13.5t14.5 -35.5q0 -45 -49.5 -117
t-100.5 -72z" />
    <glyph glyph-name="yacute" unicode="&#xfd;" horiz-adv-x="768" 
d="M477 276l-178 -151q-127 -111 -170 -111q-39 0 -82 89.5t-43 156.5q0 57 17.5 96.5t60.5 102.5q61 85 117 144t99 91.5t60 32.5q27 0 52.5 -28t25.5 -58q0 -19 -27.5 -61t-87 -106.5t-165.5 -154.5l-19 -55q-8 -16 -8 -28q0 -27 27 -27q28 0 131.5 71t224.5 191
q47 47 78 83t56 67.5t41.5 47.5t29.5 17q25 3 39 -21t14 -71q0 -27 -24 -67.5t-90 -138t-131.5 -202t-133.5 -235.5q3 3 61.5 60t123.5 119t107 99.5t105 87.5v-67q-135 -145 -244.5 -275t-169 -208t-69.5 -91q-27 -35 -48.5 -65.5t-36 -47t-23.5 -16.5q-21 0 -37.5 41.5
t-16.5 73.5q0 29 11 51q72 162 323 563zM547 909q-17 0 -31 11.5t-14 25.5q0 37 104 189q45 63 75.5 83.5t86.5 20.5q74 0 74 -51q0 -29 -64.5 -96t-138 -125t-92.5 -58z" />
    <glyph glyph-name="thorn" unicode="&#xfe;" horiz-adv-x="831" 
d="M338 633l-143 -180q-43 -57 -85.5 -109t-107.5 -113v72q43 43 148 176l290 375q40 50 85.5 123.5t76.5 124t55 74.5q30 30 73.5 46.5t74.5 12t31 -32.5q0 -30 -19.5 -57t-88.5 -104t-128 -156q-34 -44 -80 -114.5t-99.5 -160.5t-107.5 -190q38 28 141 111t157.5 114
t111.5 31q53 0 53 -82q0 -62 -32.5 -135t-95.5 -148.5t-165 -158.5q39 -7 49 -7q145 0 314 168v-69q-64 -64 -143 -123.5t-151 -95t-114 -35.5q-52 0 -116 30q-95 -71 -127 -71q-21 0 -21 20q0 25 24 67t80 81.5t144 54.5q101 116 140.5 174t39.5 109q0 53 -47 53
q-26 0 -52.5 -14t-56.5 -41t-67.5 -66t-93.5 -98q-52 -54 -92.5 -120.5t-77 -152.5t-97.5 -237q-30 -79 -66.5 -130.5t-62.5 -51.5q-17 0 -28 26t-11 60q0 74 46 170.5t137 230.5q76 112 158 258.5t147 290.5z" />
    <glyph glyph-name="ydieresis" unicode="&#xff;" horiz-adv-x="768" 
d="M477 276l-178 -151q-127 -111 -170 -111q-39 0 -82 89.5t-43 156.5q0 57 17.5 96.5t60.5 102.5q61 85 117 144t99 91.5t60 32.5q27 0 52.5 -28t25.5 -58q0 -19 -27.5 -61t-87 -106.5t-165.5 -154.5l-19 -55q-8 -16 -8 -28q0 -27 27 -27q28 0 131.5 71t224.5 191
q47 47 78 83t56 67.5t41.5 47.5t29.5 17q25 3 39 -21t14 -71q0 -27 -24 -67.5t-90 -138t-131.5 -202t-133.5 -235.5q3 3 61.5 60t123.5 119t107 99.5t105 87.5v-67q-135 -145 -244.5 -275t-169 -208t-69.5 -91q-27 -35 -48.5 -65.5t-36 -47t-23.5 -16.5q-21 0 -37.5 41.5
t-16.5 73.5q0 29 11 51q72 162 323 563zM410 952q-24 0 -39 15t-15 39q0 17 24 63.5t58.5 83.5t69.5 37q26 0 41.5 -14.5t15.5 -40.5q0 -43 -55 -113t-100 -70zM694 952q-21 0 -37 13t-16 32q0 22 25.5 69.5t61 85.5t67.5 38q20 0 34.5 -13.5t14.5 -35.5q0 -45 -49.5 -117
t-100.5 -72z" />
    <glyph glyph-name="uni0100.AMacron" unicode="&#x100;" horiz-adv-x="1300" 
d="M891 412q-120 -4 -176 -4q-86 0 -238 4q-32 -35 -78 -82.5t-87 -88t-70.5 -69t-48.5 -47.5q-111 -108 -144.5 -141t-70.5 -59.5t-68 -26.5q-35 0 -35 32q0 35 50 108t113 129t103 56q11 0 31 -10l190 203q-36 5 -94 6.5t-78 8.5t-20 34q0 43 92 135q50 51 94 65t168 15
q-73 -10 -103.5 -23.5t-33.5 -40.5h53.5t64 0.5t58.5 1.5q164 160 298 278.5t282.5 225t316.5 195.5q33 -43 33 -90q0 -39 -25.5 -90t-108 -191.5t-167.5 -298.5q28 0 46.5 -0.5t39.5 -1.5q57 0 69.5 -2t12.5 -20q0 -8 -15.5 -28.5t-54.5 -68t-76 -96.5l-147 -12
q-117 -220 -117 -248q0 -41 43 -41q21 0 174 88l-8 -53q-82 -62 -127.5 -97.5t-79 -59t-61 -35t-55.5 -11.5q-33 0 -65 30.5t-32 86.5q0 23 17 65.5t36.5 81.5t98.5 187zM702 639l324 6q57 97 92.5 157t78 130.5t73 119.5t67.5 111q-72 -45 -147 -100t-169 -132.5t-167 -144
t-152 -147.5zM1722 1396q-10 -3 -36.5 -6t-63.5 -6t-81 -6t-89 -5t-88.5 -3t-78.5 -1q-57 0 -86 4t-29 19q0 20 54 77q16 17 45.5 29.5t68 21t82.5 13t89 4.5q7 0 32.5 -0.5t59.5 -1.5t70.5 -3t65.5 -5q20 5 30.5 6.5t12.5 1.5q1 0 18 -2t36 -6t35 -8.5t16 -8.5
q-1 -3 -16 -19t-38.5 -34.5t-52 -36t-56.5 -24.5z" />
    <glyph glyph-name="uni0101.aMacron" unicode="&#x101;" horiz-adv-x="831" 
d="M133 494q152 138 295 205t221 67q21 0 39 -17.5t28.5 -40.5t10.5 -34q0 -18 -14 -26.5t-49 -20.5q7 -16 18 -41t17 -40.5t6 -27.5q0 -24 -48.5 -89.5t-68 -96.5t-19.5 -76q0 -74 68 -74q70 0 219 131v-61q-253 -281 -362 -281q-39 0 -55.5 25.5t-16.5 75.5q0 79 57 229
q-146 -162 -217 -230.5t-117 -68.5q-22 0 -55 38t-58.5 98.5t-25.5 125.5q0 47 9 78.5t35 64.5t83 87zM612 604q-260 -119 -370.5 -202t-110.5 -171q0 -32 11 -52.5t30 -20.5q11 0 39 14q105 62 192 161.5t209 270.5zM895 865q-10 -3 -36.5 -6t-63.5 -6t-81 -6t-89 -5
t-88.5 -3t-78.5 -1q-57 0 -86 4t-29 19q0 20 54 77q16 17 45.5 29.5t68 21t82.5 13t89 4.5q7 0 32.5 -0.5t59.5 -1.5t70.5 -3t65.5 -5q20 5 30.5 6.5t12.5 1.5q1 0 18 -2t36 -6t35 -8.5t16 -8.5q-1 -3 -16 -19t-38.5 -34.5t-52 -36t-56.5 -24.5z" />
    <glyph glyph-name="uni0102.ABreve" unicode="&#x102;" horiz-adv-x="1300" 
d="M891 412q-120 -4 -176 -4q-86 0 -238 4q-32 -35 -78 -82.5t-87 -88t-70.5 -69t-48.5 -47.5q-111 -108 -144.5 -141t-70.5 -59.5t-68 -26.5q-35 0 -35 32q0 35 50 108t113 129t103 56q11 0 31 -10l190 203q-36 5 -94 6.5t-78 8.5t-20 34q0 43 92 135q50 51 94 65t168 15
q-73 -10 -103.5 -23.5t-33.5 -40.5h53.5t64 0.5t58.5 1.5q164 160 298 278.5t282.5 225t316.5 195.5q33 -43 33 -90q0 -39 -25.5 -90t-108 -191.5t-167.5 -298.5q28 0 46.5 -0.5t39.5 -1.5q57 0 69.5 -2t12.5 -20q0 -8 -15.5 -28.5t-54.5 -68t-76 -96.5l-147 -12
q-117 -220 -117 -248q0 -41 43 -41q21 0 174 88l-8 -53q-82 -62 -127.5 -97.5t-79 -59t-61 -35t-55.5 -11.5q-33 0 -65 30.5t-32 86.5q0 23 17 65.5t36.5 81.5t98.5 187zM702 639l324 6q57 97 92.5 157t78 130.5t73 119.5t67.5 111q-72 -45 -147 -100t-169 -132.5t-167 -144
t-152 -147.5zM1333 1634q25 0 62 -37q38 -36 72.5 -51.5t80.5 -15.5q84 0 166 65q37 31 55 31t30.5 -13t12.5 -36q0 -39 -39.5 -85.5t-106 -79t-136.5 -32.5q-104 0 -176 66t-72 129q0 24 14.5 41.5t36.5 17.5z" />
    <glyph glyph-name="uni0103.aBreve" unicode="&#x103;" horiz-adv-x="831" 
d="M133 494q152 138 295 205t221 67q21 0 39 -17.5t28.5 -40.5t10.5 -34q0 -18 -14 -26.5t-49 -20.5q7 -16 18 -41t17 -40.5t6 -27.5q0 -24 -48.5 -89.5t-68 -96.5t-19.5 -76q0 -74 68 -74q70 0 219 131v-61q-253 -281 -362 -281q-39 0 -55.5 25.5t-16.5 75.5q0 79 57 229
q-146 -162 -217 -230.5t-117 -68.5q-22 0 -55 38t-58.5 98.5t-25.5 125.5q0 47 9 78.5t35 64.5t83 87zM612 604q-260 -119 -370.5 -202t-110.5 -171q0 -32 11 -52.5t30 -20.5q11 0 39 14q105 62 192 161.5t209 270.5zM572 1087q25 0 62 -37q38 -36 72.5 -51.5t80.5 -15.5
q84 0 166 65q37 31 55 31t30.5 -13t12.5 -36q0 -39 -39.5 -85.5t-106 -79t-136.5 -32.5q-104 0 -176 66t-72 129q0 24 14.5 41.5t36.5 17.5z" />
    <glyph glyph-name="uni0104.AOgonek" unicode="&#x104;" horiz-adv-x="1300" 
d="M1158 164q-100 -75 -160.5 -122.5t-94.5 -79t-47.5 -54t-18.5 -46.5q-4 -15 -4 -29q0 -26 13.5 -39t34.5 -13q20 0 38 8t33 8q11 0 18.5 -8.5t7.5 -22.5q0 -29 -20 -52.5t-49 -40.5t-62.5 -26.5t-61.5 -9.5q-26 0 -49.5 7.5t-40.5 23t-27 38.5t-10 55q0 61 34.5 114
t92.5 104q-20 13 -34 36t-14 55q0 16 4 32t14 41q7 18 12 30.5t10.5 25t13.5 28t20.5 39.5t31.5 59t47 87q-60 -2 -104 -3t-72 -1q-43 0 -102.5 1t-135.5 3q-17 -18 -36.5 -39t-41.5 -43.5t-44 -45.5t-43 -43l-264 -257q-34 -33 -69.5 -59.5t-66.5 -26.5q-36 0 -36 32
t52 108q24 36 52.5 69.5t57.5 59t55.5 41t47.5 15.5q12 0 31 -10l190 203q-49 6 -85 7t-60 3t-36 9t-12 24q0 4 0.5 7.5t1.5 8.5q3 12 20.5 39.5t44 58t58 57t62.5 35.5q43 13 168 15q-38 -5 -63 -10.5t-40.5 -12.5t-23 -17t-10.5 -24h117q20 1 34.5 1t24.5 1
q117 114 222.5 211.5t211.5 182.5t218.5 160t244.5 145q16 -22 24.5 -44.5t8.5 -46.5q0 -22 -7 -43t-19 -46q-11 -22 -40.5 -73t-68.5 -118.5t-82.5 -145t-83.5 -153.5h86t51 -1.5t24.5 -5.5t6.5 -11q0 -6 -1 -8q-1 -5 -12.5 -20.5t-31 -40t-45.5 -57.5t-56 -73l-147 -12
q-65 -121 -91.5 -181t-26.5 -73q0 -17 12.5 -26t31.5 -9q23 0 174 88zM1195 932l141 231q-63 -40 -143 -99t-165.5 -129t-170 -146t-156.5 -150l324 6l92 157z" />
    <glyph glyph-name="uni0105.aOgonek" unicode="&#x105;" horiz-adv-x="831" 
d="M855 252q-81 -88 -145 -149t-115 -93q-43 -27 -68 -52t-38 -47.5t-16.5 -42t-3.5 -35.5q0 -26 13.5 -39t34.5 -13q20 0 38 8t33 8q11 0 18.5 -8.5t7.5 -22.5q0 -29 -20 -52.5t-49 -40.5t-62.5 -26.5t-61.5 -9.5q-26 0 -49.5 7.5t-40.5 23t-27 38.5t-10 55
q0 66 39.5 122.5t105.5 110.5q-19 22 -19 72q0 43 14.5 99.5t43.5 135.5q-74 -81 -126.5 -138t-90.5 -92.5t-65.5 -52t-51.5 -16.5q-15 0 -38.5 22t-45.5 57.5t-38 81t-16 93.5q0 37 3 63.5t16 51t38 53t69 70.5q76 69 152.5 120.5t145.5 85t126 50t95 16.5q15 0 28.5 -11.5
t24 -26.5t16.5 -30.5t6 -22.5q0 -19 -14 -27.5t-49 -20.5l18 -41q10 -23 15.5 -38.5t6.5 -27.5q2 -25 -49 -92q-27 -35 -43.5 -58.5t-26.5 -42.5t-13.5 -35.5t-3.5 -37.5q0 -35 18.5 -53.5t50.5 -18.5q70 0 219 131v-61zM210 172q54 32 100.5 71.5t92.5 90.5t96 117.5
t112 152.5q-133 -61 -225 -110.5t-149 -93.5t-82.5 -86t-25.5 -88q0 -30 12.5 -49t29.5 -19q8 0 39 14z" />
    <glyph glyph-name="uni0106.CAcute" unicode="&#x106;" horiz-adv-x="1237" 
d="M1262 319v-65q-168 -187 -308.5 -308.5t-274.5 -187t-259 -65.5q-108 0 -185.5 43t-117 125.5t-39.5 195.5q0 89 28.5 188.5t82.5 201t132.5 209.5t184.5 227q110 123 217 212.5t194 140.5t161.5 76t123.5 25q50 0 85 -24t54 -70t19 -106q0 -113 -77 -251.5t-192 -267.5
t-219.5 -210.5t-150.5 -81.5q-31 0 -57.5 24.5t-26.5 55.5q0 57 60.5 138t132 148.5t85.5 67.5q7 0 7 -6q0 -9 -10.5 -31t-10.5 -27q0 -8 6 -8q17 0 98 91t148.5 200.5t67.5 179.5q0 29 -12.5 44.5t-37.5 15.5q-70 0 -212.5 -113.5t-292 -289t-249.5 -362.5t-100 -329
q0 -82 24.5 -137t72 -85t114.5 -30q145 0 329 113t405 333zM1352 1438q-17 0 -31 11.5t-14 25.5q0 37 104 189q45 63 75.5 83.5t86.5 20.5q74 0 74 -51q0 -29 -64.5 -96t-138 -125t-92.5 -58z" />
    <glyph glyph-name="uni0107.cAcute" unicode="&#x107;" horiz-adv-x="598" 
d="M618 313v-67q-107 -105 -174.5 -163t-126 -90t-114.5 -32q-55 0 -101 43.5t-72 114t-26 149.5q0 68 30 121t116 137q102 100 189.5 154.5t137.5 54.5q36 0 61 -25t25 -63q0 -32 -33 -91t-74 -102.5t-65 -43.5q-26 0 -26 28q1 8 1.5 15t0.5 14q0 12 -8.5 13.5t-20.5 -7.5
q-100 -70 -137 -98.5t-58.5 -57.5t-21.5 -61q0 -59 38 -96t99 -37q63 0 151.5 48.5t208.5 141.5zM604 822q-17 0 -31 11.5t-14 25.5q0 37 104 189q45 63 75.5 83.5t86.5 20.5q74 0 74 -51q0 -29 -64.5 -96t-138 -125t-92.5 -58z" />
    <glyph glyph-name="uni0108.CCircumflex" unicode="&#x108;" horiz-adv-x="1237" 
d="M1262 319v-65q-168 -187 -308.5 -308.5t-274.5 -187t-259 -65.5q-108 0 -185.5 43t-117 125.5t-39.5 195.5q0 89 28.5 188.5t82.5 201t132.5 209.5t184.5 227q110 123 217 212.5t194 140.5t161.5 76t123.5 25q50 0 85 -24t54 -70t19 -106q0 -113 -77 -251.5t-192 -267.5
t-219.5 -210.5t-150.5 -81.5q-31 0 -57.5 24.5t-26.5 55.5q0 57 60.5 138t132 148.5t85.5 67.5q7 0 7 -6q0 -9 -10.5 -31t-10.5 -27q0 -8 6 -8q17 0 98 91t148.5 200.5t67.5 179.5q0 29 -12.5 44.5t-37.5 15.5q-70 0 -212.5 -113.5t-292 -289t-249.5 -362.5t-100 -329
q0 -82 24.5 -137t72 -85t114.5 -30q145 0 329 113t405 333zM1372 1578q-9 0 -23.5 -15t-28.5 -30q-90 -101 -137 -101q-45 0 -45 39q0 22 53 95t117.5 132.5t110.5 59.5t73 -57q24 -49 44 -126t20 -98q0 -15 -10.5 -29t-26.5 -14q-26 0 -60 32.5t-67 90.5q-7 21 -20 21z" />
    <glyph glyph-name="uni0109.cCircumflex" unicode="&#x109;" horiz-adv-x="598" 
d="M618 313v-67q-107 -105 -174.5 -163t-126 -90t-114.5 -32q-55 0 -101 43.5t-72 114t-26 149.5q0 68 30 121t116 137q102 100 189.5 154.5t137.5 54.5q36 0 61 -25t25 -63q0 -32 -33 -91t-74 -102.5t-65 -43.5q-26 0 -26 28q1 8 1.5 15t0.5 14q0 12 -8.5 13.5t-20.5 -7.5
q-100 -70 -137 -98.5t-58.5 -57.5t-21.5 -61q0 -59 38 -96t99 -37q63 0 151.5 48.5t208.5 141.5zM583 948q-9 0 -23.5 -15t-28.5 -30q-90 -101 -137 -101q-45 0 -45 39q0 22 53 95t117.5 132.5t110.5 59.5t73 -57q24 -49 44 -126t20 -98q0 -15 -10.5 -29t-26.5 -14
q-26 0 -60 32.5t-67 90.5q-7 21 -20 21z" />
    <glyph glyph-name="uni010A.CDot" unicode="&#x10a;" horiz-adv-x="1237" 
d="M1262 319v-65q-168 -187 -308.5 -308.5t-274.5 -187t-259 -65.5q-108 0 -185.5 43t-117 125.5t-39.5 195.5q0 89 28.5 188.5t82.5 201t132.5 209.5t184.5 227q110 123 217 212.5t194 140.5t161.5 76t123.5 25q50 0 85 -24t54 -70t19 -106q0 -113 -77 -251.5t-192 -267.5
t-219.5 -210.5t-150.5 -81.5q-31 0 -57.5 24.5t-26.5 55.5q0 57 60.5 138t132 148.5t85.5 67.5q7 0 7 -6q0 -9 -10.5 -31t-10.5 -27q0 -8 6 -8q17 0 98 91t148.5 200.5t67.5 179.5q0 29 -12.5 44.5t-37.5 15.5q-70 0 -212.5 -113.5t-292 -289t-249.5 -362.5t-100 -329
q0 -82 24.5 -137t72 -85t114.5 -30q145 0 329 113t405 333zM1320 1458q-24 0 -38.5 15.5t-14.5 38.5q0 17 23 63t58 83.5t70 37.5q26 0 42 -15t16 -40t-26.5 -70t-63 -79t-66.5 -34z" />
    <glyph glyph-name="uni010B.cDot" unicode="&#x10b;" horiz-adv-x="598" 
d="M618 313v-67q-107 -105 -174.5 -163t-126 -90t-114.5 -32q-55 0 -101 43.5t-72 114t-26 149.5q0 68 30 121t116 137q102 100 189.5 154.5t137.5 54.5q36 0 61 -25t25 -63q0 -32 -33 -91t-74 -102.5t-65 -43.5q-26 0 -26 28q1 8 1.5 15t0.5 14q0 12 -8.5 13.5t-20.5 -7.5
q-100 -70 -137 -98.5t-58.5 -57.5t-21.5 -61q0 -59 38 -96t99 -37q63 0 151.5 48.5t208.5 141.5zM574 812q-24 0 -38.5 15.5t-14.5 38.5q0 17 23 63t58 83.5t70 37.5q26 0 42 -15t16 -40t-26.5 -70t-63 -79t-66.5 -34z" />
    <glyph glyph-name="uni010C.CCaron" unicode="&#x10c;" horiz-adv-x="1237" 
d="M1262 319v-65q-168 -187 -308.5 -308.5t-274.5 -187t-259 -65.5q-108 0 -185.5 43t-117 125.5t-39.5 195.5q0 89 28.5 188.5t82.5 201t132.5 209.5t184.5 227q110 123 217 212.5t194 140.5t161.5 76t123.5 25q50 0 85 -24t54 -70t19 -106q0 -113 -77 -251.5t-192 -267.5
t-219.5 -210.5t-150.5 -81.5q-31 0 -57.5 24.5t-26.5 55.5q0 57 60.5 138t132 148.5t85.5 67.5q7 0 7 -6q0 -9 -10.5 -31t-10.5 -27q0 -8 6 -8q17 0 98 91t148.5 200.5t67.5 179.5q0 29 -12.5 44.5t-37.5 15.5q-70 0 -212.5 -113.5t-292 -289t-249.5 -362.5t-100 -329
q0 -82 24.5 -137t72 -85t114.5 -30q145 0 329 113t405 333zM1366 1609q6 0 13.5 5.5t17.5 18l18 22.5q89 100 140 100q43 0 43 -39q0 -23 -52.5 -95t-118.5 -132t-110 -60q-35 0 -55.5 26.5t-42.5 94.5q-39 113 -39 160q0 15 10 29t27 14q16 0 37.5 -15t46.5 -45.5t43 -62.5
q2 -5 9 -13t13 -8z" />
    <glyph glyph-name="uni010D.cCaron" unicode="&#x10d;" horiz-adv-x="598" 
d="M618 313v-67q-107 -105 -174.5 -163t-126 -90t-114.5 -32q-55 0 -101 43.5t-72 114t-26 149.5q0 68 30 121t116 137q102 100 189.5 154.5t137.5 54.5q36 0 61 -25t25 -63q0 -32 -33 -91t-74 -102.5t-65 -43.5q-26 0 -26 28q1 8 1.5 15t0.5 14q0 12 -8.5 13.5t-20.5 -7.5
q-100 -70 -137 -98.5t-58.5 -57.5t-21.5 -61q0 -59 38 -96t99 -37q63 0 151.5 48.5t208.5 141.5zM558 985q6 0 13.5 5.5t17.5 18l18 22.5q89 100 140 100q43 0 43 -39q0 -23 -52.5 -95t-118.5 -132t-110 -60q-35 0 -55.5 26.5t-42.5 94.5q-39 113 -39 160q0 15 10 29t27 14
q16 0 37.5 -15t46.5 -45.5t43 -62.5q2 -5 9 -13t13 -8z" />
    <glyph glyph-name="uni010E.DCaron" unicode="&#x10e;" horiz-adv-x="1323" 
d="M106 879q0 -7 13 -7q9 0 81.5 12t131.5 13q-66 -18 -113.5 -36.5t-98 -41t-72.5 -30t-38 -7.5q-51 0 -51 66q0 170 86 239q35 28 112.5 66.5t175 73t214.5 59.5t231 25q117 0 215 -34t164 -95.5t101.5 -150.5t35.5 -200q0 -169 -97.5 -328t-260 -280.5t-366.5 -192.5
t-402 -71q-37 0 -58.5 8t-30.5 31.5t-9 69.5q0 57 9 93t30 83q144 319 501 803q-72 -8 -158 -30.5t-163 -49.5t-130 -52t-53 -36zM639 1053q0 -2 4 -22.5t4 -35.5q0 -23 -23.5 -64.5t-92.5 -147.5t-118 -186t-116 -206q-21 -40 -29 -54t-25.5 -46t-25.5 -55t-8 -35
q0 -26 28.5 -36.5t81.5 -10.5q136 0 288 49.5t285.5 137.5t213.5 199t80 232q0 138 -101 212.5t-294 74.5q-81 0 -152 -6zM1092 1536q6 0 13.5 5.5t17.5 18l18 22.5q89 100 140 100q43 0 43 -39q0 -23 -52.5 -95t-118.5 -132t-110 -60q-35 0 -55.5 26.5t-42.5 94.5
q-39 113 -39 160q0 15 10 29t27 14q16 0 37.5 -15t46.5 -45.5t43 -62.5q2 -5 9 -13t13 -8z" />
    <glyph glyph-name="uni010F.dCaron" unicode="&#x10f;" horiz-adv-x="854" 
d="M473 313q-88 -100 -157.5 -170t-113 -104.5t-59.5 -34.5q-26 0 -58.5 42t-55.5 107t-23 132q0 97 94 195.5t214 163.5t180 65q49 0 96 -62q77 161 146.5 286t116.5 186t67 61q22 0 40.5 -21.5t18.5 -48.5q0 -52 -76 -178.5t-150 -246.5t-127 -236.5t-53 -215.5
q0 -90 58 -90q35 0 88 39.5t151 132.5v-73q-216 -279 -333 -279q-47 0 -67.5 36t-20.5 107q0 96 24 207zM547 557q-89 -30 -209 -96.5t-145 -91.5q-22 -20 -39 -75t-17 -83q0 -17 10 -28t25 -11q14 0 32 12t57.5 47t51.5 45q17 15 75.5 64.5t85.5 77.5t46 62.5t27 76.5z
M1056 1003q-23 0 -33.5 10.5t-10.5 36.5q0 17 3 39.5t11 54.5q12 54 25 92t33 62.5t49.5 35.5t73.5 11q20 0 33 -9.5t13 -31.5q0 -5 -0.5 -9t-1.5 -9q-9 -39 -34 -88.5t-55 -92.5t-59 -72.5t-47 -29.5z" />
    <glyph glyph-name="uni0110.DMacron" unicode="&#x110;" horiz-adv-x="1323" 
d="M1294 831q0 -169 -97.5 -328t-260 -280.5t-366.5 -192.5t-402 -71q-37 0 -58.5 8t-30.5 31.5t-9 69.5q0 63 20.5 128.5t60 140.5t130.5 226q-95 -11 -176 -27t-78 -16q-33 0 -33 27q0 56 83 85t269 36q99 153 264 379q-72 -8 -158 -30.5t-163 -49.5t-130 -52t-53 -36
q0 -7 13 -7q9 0 81.5 12t131.5 13q-66 -18 -113.5 -36.5t-98 -41t-72.5 -30t-38 -7.5q-51 0 -51 66q0 170 86 239q35 28 112.5 66.5t175 73t214.5 59.5t231 25q117 0 215 -34t164 -95.5t101.5 -150.5t35.5 -200zM459 670h22q123 0 184.5 -16t61.5 -62q0 -27 -33 -27
q-5 0 -46.5 5t-67 7.5t-52.5 2.5q-64 0 -129 -5q-75 -124 -132.5 -237t-57.5 -137q0 -26 28.5 -36.5t81.5 -10.5q136 0 288 49.5t285.5 137.5t213.5 199t80 232q0 138 -101 212.5t-294 74.5q-81 0 -152 -6q0 -2 4 -22.5t4 -35.5q0 -20 -20.5 -58t-62 -102t-105.5 -165z" />
    <glyph glyph-name="uni0111.dMacron" unicode="&#x111;" horiz-adv-x="854" 
d="M869 242q-218 -279 -333 -279q-48 0 -68 35.5t-20 107.5q0 96 24 207q-136 -154 -221.5 -231.5t-108.5 -77.5q-19 0 -42.5 24.5t-44.5 63.5t-35.5 88t-14.5 98q0 13 1 25.5t4 25.5q10 45 41.5 90.5t75.5 88t96 79t102 64t94.5 43t73.5 15.5q49 0 96 -62q32 66 61 123.5
t56 108.5q-55 -3 -109 -4.5t-97 -1.5q-57 0 -86 4.5t-29 19.5q0 8 15 29t39 47q16 17 46 29.5t68.5 21t82.5 13t89 4.5q6 0 26 -0.5t47 -1.5q88 141 121 141q12 0 22.5 -6.5t19 -17t13 -24t4.5 -27.5q0 -23 -23 -74q19 5 28.5 6.5t11.5 1.5t19 -2t36 -6t34.5 -8.5t15.5 -8.5
q-1 -3 -16 -19t-38 -34.5t-51.5 -36t-56.5 -24.5q-14 -5 -60 -9q-55 -92 -110 -180.5t-98.5 -171.5t-71 -159.5t-27.5 -144.5q0 -92 59 -92q18 0 39.5 9.5t49 30t64 53t86.5 79.5v-73zM388 340q39 33 65 58t44 48.5t29.5 49.5t19.5 61q-45 -15 -97 -39.5t-113 -57.5
q-60 -33 -95.5 -56.5t-48.5 -34.5q-8 -7 -17.5 -23.5t-18 -37.5t-14 -45.5t-5.5 -48.5q0 -20 7.5 -31t26.5 -11q7 0 14.5 2.5t17.5 9.5t24 18.5t34 28.5z" />
    <glyph glyph-name="uni0112.EMacron" unicode="&#x112;" horiz-adv-x="1260" 
d="M1333 1260v-68q0 -42 -16.5 -53t-121 -59t-200.5 -113q37 54 67.5 80t82.5 65q-45 18 -125 18q-124 0 -267.5 -49t-244 -117t-100.5 -114q0 -24 30.5 -39.5t98 -24t168.5 -11.5t249 -3q108 0 139 -8t31 -37q0 -37 -36.5 -84.5t-96.5 -56.5q-93 -15 -148 -25.5
t-130.5 -35.5t-167.5 -72q-137 -72 -214 -146t-77 -131q0 -49 55 -76.5t158 -27.5q355 0 723 319q2 -98 -21.5 -172.5t-95.5 -142.5q-60 -57 -175.5 -109t-252 -83t-256.5 -31q-139 0 -230 66.5t-91 176.5q0 80 44 159t135 151.5t230.5 131.5t321.5 93q26 5 26 16
q0 12 -30.5 14.5t-112 3.5t-143.5 7t-131 26q-71 22 -109.5 77t-38.5 122q0 86 62 173t175 157t273.5 112.5t351.5 42.5q110 0 153.5 -12.5t50.5 -33t7 -76.5zM1322 1514q-10 -3 -36.5 -6t-63.5 -6t-81 -6t-89 -5t-88.5 -3t-78.5 -1q-57 0 -86 4t-29 19q0 20 54 77
q16 17 45.5 29.5t68 21t82.5 13t89 4.5q7 0 32.5 -0.5t59.5 -1.5t70.5 -3t65.5 -5q20 5 30.5 6.5t12.5 1.5q1 0 18 -2t36 -6t35 -8.5t16 -8.5q-1 -3 -16 -19t-38.5 -34.5t-52 -36t-56.5 -24.5z" />
    <glyph glyph-name="uni0113.eMacron" unicode="&#x113;" horiz-adv-x="598" 
d="M176 279v-25q0 -59 29 -92t76 -33q49 0 101.5 23t104.5 61t127 102v-61q-113 -136 -212 -208.5t-201 -72.5q-89 0 -141 69t-52 189q0 105 49 190.5t160 180.5q76 65 151 98t134 33q47 0 74.5 -21.5t27.5 -64.5q0 -63 -47 -125.5t-143.5 -124t-237.5 -118.5zM186 344
q90 35 154 87t94.5 99.5t30.5 69.5q0 23 -21 23q-18 0 -58.5 -23t-82 -60t-74.5 -87t-43 -109zM747 853q-10 -3 -36.5 -6t-63.5 -6t-81 -6t-89 -5t-88.5 -3t-78.5 -1q-57 0 -86 4t-29 19q0 20 54 77q16 17 45.5 29.5t68 21t82.5 13t89 4.5q7 0 32.5 -0.5t59.5 -1.5t70.5 -3
t65.5 -5q20 5 30.5 6.5t12.5 1.5q1 0 18 -2t36 -6t35 -8.5t16 -8.5q-1 -3 -16 -19t-38.5 -34.5t-52 -36t-56.5 -24.5z" />
    <glyph glyph-name="uni0114.EBreve" unicode="&#x114;" horiz-adv-x="1260" 
d="M1333 1260v-68q0 -42 -16.5 -53t-121 -59t-200.5 -113q37 54 67.5 80t82.5 65q-45 18 -125 18q-124 0 -267.5 -49t-244 -117t-100.5 -114q0 -24 30.5 -39.5t98 -24t168.5 -11.5t249 -3q108 0 139 -8t31 -37q0 -37 -36.5 -84.5t-96.5 -56.5q-93 -15 -148 -25.5
t-130.5 -35.5t-167.5 -72q-137 -72 -214 -146t-77 -131q0 -49 55 -76.5t158 -27.5q355 0 723 319q2 -98 -21.5 -172.5t-95.5 -142.5q-60 -57 -175.5 -109t-252 -83t-256.5 -31q-139 0 -230 66.5t-91 176.5q0 80 44 159t135 151.5t230.5 131.5t321.5 93q26 5 26 16
q0 12 -30.5 14.5t-112 3.5t-143.5 7t-131 26q-71 22 -109.5 77t-38.5 122q0 86 62 173t175 157t273.5 112.5t351.5 42.5q110 0 153.5 -12.5t50.5 -33t7 -76.5zM829 1714q25 0 62 -37q38 -36 72.5 -51.5t80.5 -15.5q84 0 166 65q37 31 55 31t30.5 -13t12.5 -36
q0 -39 -39.5 -85.5t-106 -79t-136.5 -32.5q-104 0 -176 66t-72 129q0 24 14.5 41.5t36.5 17.5z" />
    <glyph glyph-name="uni0115.eBreve" unicode="&#x115;" horiz-adv-x="598" 
d="M176 279v-25q0 -59 29 -92t76 -33q49 0 101.5 23t104.5 61t127 102v-61q-113 -136 -212 -208.5t-201 -72.5q-89 0 -141 69t-52 189q0 105 49 190.5t160 180.5q76 65 151 98t134 33q47 0 74.5 -21.5t27.5 -64.5q0 -63 -47 -125.5t-143.5 -124t-237.5 -118.5zM186 344
q90 35 154 87t94.5 99.5t30.5 69.5q0 23 -21 23q-18 0 -58.5 -23t-82 -60t-74.5 -87t-43 -109zM337 1074q25 0 62 -37q38 -36 72.5 -51.5t80.5 -15.5q84 0 166 65q37 31 55 31t30.5 -13t12.5 -36q0 -39 -39.5 -85.5t-106 -79t-136.5 -32.5q-104 0 -176 66t-72 129
q0 24 14.5 41.5t36.5 17.5z" />
    <glyph glyph-name="uni0116.EDot" unicode="&#x116;" horiz-adv-x="1260" 
d="M1333 1260v-68q0 -42 -16.5 -53t-121 -59t-200.5 -113q37 54 67.5 80t82.5 65q-45 18 -125 18q-124 0 -267.5 -49t-244 -117t-100.5 -114q0 -24 30.5 -39.5t98 -24t168.5 -11.5t249 -3q108 0 139 -8t31 -37q0 -37 -36.5 -84.5t-96.5 -56.5q-93 -15 -148 -25.5
t-130.5 -35.5t-167.5 -72q-137 -72 -214 -146t-77 -131q0 -49 55 -76.5t158 -27.5q355 0 723 319q2 -98 -21.5 -172.5t-95.5 -142.5q-60 -57 -175.5 -109t-252 -83t-256.5 -31q-139 0 -230 66.5t-91 176.5q0 80 44 159t135 151.5t230.5 131.5t321.5 93q26 5 26 16
q0 12 -30.5 14.5t-112 3.5t-143.5 7t-131 26q-71 22 -109.5 77t-38.5 122q0 86 62 173t175 157t273.5 112.5t351.5 42.5q110 0 153.5 -12.5t50.5 -33t7 -76.5zM998 1474q-24 0 -38.5 15.5t-14.5 38.5q0 17 23 63t58 83.5t70 37.5q26 0 42 -15t16 -40t-26.5 -70t-63 -79
t-66.5 -34z" />
    <glyph glyph-name="uni0117.eDot" unicode="&#x117;" horiz-adv-x="598" 
d="M176 279v-25q0 -59 29 -92t76 -33q49 0 101.5 23t104.5 61t127 102v-61q-113 -136 -212 -208.5t-201 -72.5q-89 0 -141 69t-52 189q0 105 49 190.5t160 180.5q76 65 151 98t134 33q47 0 74.5 -21.5t27.5 -64.5q0 -63 -47 -125.5t-143.5 -124t-237.5 -118.5zM186 344
q90 35 154 87t94.5 99.5t30.5 69.5q0 23 -21 23q-18 0 -58.5 -23t-82 -60t-74.5 -87t-43 -109zM499 823q-24 0 -38.5 15.5t-14.5 38.5q0 17 23 63t58 83.5t70 37.5q26 0 42 -15t16 -40t-26.5 -70t-63 -79t-66.5 -34z" />
    <glyph glyph-name="uni0118.EOgonek" unicode="&#x118;" horiz-adv-x="1260" 
d="M1332 1192q0 -20 -4.5 -34t-11.5 -19q-5 -3 -39 -19t-82 -40t-102 -53.5t-99 -59.5q19 28 34.5 46.5t32 33.5t36 29.5t47.5 35.5q-47 18 -125 18q-64 0 -134 -14.5t-138 -37.5t-129.5 -53t-108.5 -61t-74.5 -61t-27.5 -53q0 -24 30 -39.5t95.5 -24t169.5 -11.5t251 -3
q51 0 84.5 -1.5t52.5 -6t26.5 -12.5t7.5 -21q0 -18 -9 -41t-26 -44.5t-42 -38t-57 -21.5q-48 -8 -84.5 -14.5t-63.5 -11.5q-54 -11 -130.5 -35t-167.5 -72q-138 -73 -214.5 -146.5t-76.5 -131.5q0 -49 55 -76t158 -27q356 0 723 319q0 -57 -7 -108t-27.5 -96.5t-57 -86
t-96.5 -77.5q-48 -32 -76.5 -59.5t-42.5 -50.5t-18 -43t-4 -37q0 -26 13.5 -39t34.5 -13q20 0 38 8t33 8q11 0 18.5 -8.5t7.5 -22.5q0 -29 -20 -52.5t-49 -40.5t-62.5 -26.5t-61.5 -9.5q-26 0 -49.5 7.5t-40.5 23t-27 38.5t-10 55q0 40 15.5 77t45.5 74q-91 -27 -182.5 -43
t-175.5 -16q-71 0 -130 18t-101.5 50.5t-66 78t-23.5 101.5q0 78 46.5 158t139 152t229 129.5t316.5 90.5q26 5 26 17q0 11 -32 13t-111 4q-41 1 -75.5 2t-66.5 4.5t-64 9.5t-68 17q-36 10 -63.5 30t-46.5 46.5t-28.5 58t-9.5 64.5q0 59 28.5 118t81.5 113t129.5 100
t172.5 80.5t209 54t241 19.5q55 0 92.5 -3.5t60.5 -9.5q22 -6 34 -13.5t17 -19.5t6 -30t1 -46v-68z" />
    <glyph glyph-name="uni0119.eOgonek" unicode="&#x119;" horiz-adv-x="598" 
d="M613 254q-60 -72 -113 -125.5t-107 -88.5q-53 -41 -85 -70.5t-49.5 -53t-23 -43t-5.5 -40.5q0 -26 13.5 -39t34.5 -13q20 0 38 8t33 8q11 0 18.5 -8.5t7.5 -22.5q0 -29 -20 -52.5t-49 -40.5t-62.5 -26.5t-61.5 -9.5q-26 0 -49.5 7.5t-40.5 23t-27 38.5t-10 55
q0 60 32 112t89 101q-78 9 -123 76t-45 181q0 51 11 97t36 90t64.5 89t96.5 95q76 66 150.5 98.5t134.5 32.5q48 0 75 -22t27 -65q0 -94 -106.5 -186.5t-321.5 -180.5q0 -78 28.5 -114t76.5 -36q37 0 73.5 12t76.5 35.5t84.5 58t98.5 80.5v-61zM185 344q69 25 121 62.5
t87.5 75t53 70t17.5 47.5q0 24 -21 24q-20 0 -58.5 -21.5t-79 -59t-74.5 -88.5t-46 -110z" />
    <glyph glyph-name="uni011A.ECaron" unicode="&#x11a;" horiz-adv-x="1260" 
d="M1333 1260v-68q0 -42 -16.5 -53t-121 -59t-200.5 -113q37 54 67.5 80t82.5 65q-45 18 -125 18q-124 0 -267.5 -49t-244 -117t-100.5 -114q0 -24 30.5 -39.5t98 -24t168.5 -11.5t249 -3q108 0 139 -8t31 -37q0 -37 -36.5 -84.5t-96.5 -56.5q-93 -15 -148 -25.5
t-130.5 -35.5t-167.5 -72q-137 -72 -214 -146t-77 -131q0 -49 55 -76.5t158 -27.5q355 0 723 319q2 -98 -21.5 -172.5t-95.5 -142.5q-60 -57 -175.5 -109t-252 -83t-256.5 -31q-139 0 -230 66.5t-91 176.5q0 80 44 159t135 151.5t230.5 131.5t321.5 93q26 5 26 16
q0 12 -30.5 14.5t-112 3.5t-143.5 7t-131 26q-71 22 -109.5 77t-38.5 122q0 86 62 173t175 157t273.5 112.5t351.5 42.5q110 0 153.5 -12.5t50.5 -33t7 -76.5zM1022 1619q6 0 13.5 5.5t17.5 18l18 22.5q89 100 140 100q43 0 43 -39q0 -23 -52.5 -95t-118.5 -132t-110 -60
q-35 0 -55.5 26.5t-42.5 94.5q-39 113 -39 160q0 15 10 29t27 14q16 0 37.5 -15t46.5 -45.5t43 -62.5q2 -5 9 -13t13 -8z" />
    <glyph glyph-name="uni011B.eCaron" unicode="&#x11b;" horiz-adv-x="598" 
d="M176 279v-25q0 -59 29 -92t76 -33q49 0 101.5 23t104.5 61t127 102v-61q-113 -136 -212 -208.5t-201 -72.5q-89 0 -141 69t-52 189q0 105 49 190.5t160 180.5q76 65 151 98t134 33q47 0 74.5 -21.5t27.5 -64.5q0 -63 -47 -125.5t-143.5 -124t-237.5 -118.5zM186 344
q90 35 154 87t94.5 99.5t30.5 69.5q0 23 -21 23q-18 0 -58.5 -23t-82 -60t-74.5 -87t-43 -109zM524 982q6 0 13.5 5.5t17.5 18l18 22.5q89 100 140 100q43 0 43 -39q0 -23 -52.5 -95t-118.5 -132t-110 -60q-35 0 -55.5 26.5t-42.5 94.5q-39 113 -39 160q0 15 10 29t27 14
q16 0 37.5 -15t46.5 -45.5t43 -62.5q2 -5 9 -13t13 -8z" />
    <glyph glyph-name="uni011C.GCircumflex" unicode="&#x11c;" horiz-adv-x="1153" 
d="M1174 319v-53q-114 -96 -226 -183.5t-272 -195.5q-82 -112 -141 -183.5t-102 -118.5t-44 -48q-14 -17 -47 -34t-55 -17q-31 0 -51.5 22.5t-20.5 53.5q0 80 84 170.5t246 185.5q80 115 153 231.5t127.5 212.5t100.5 189q-72 -60 -143 -115.5t-139 -106t-84 -62.5l-28 -21
q-174 -152 -260 -152q-82 0 -138 78t-56 197q0 75 24 156.5t73.5 167.5t118.5 166t152 147q128 102 287 182.5t296 123t202 42.5q38 0 60.5 -18.5t32 -50t9.5 -66.5q0 -32 -20 -64q-29 -43 -102 -90.5t-147 -84t-85 -36.5q-6 0 -6 4q0 9 23 29t51 41q62 47 73 100
q-97 -27 -193 -71t-190 -105t-188 -139q-106 -89 -180.5 -185.5t-113 -178.5t-38.5 -126q0 -33 21 -57.5t57 -24.5q42 0 104 37q67 40 147.5 102.5t148.5 118.5t147 123q73 61 113.5 98.5t60.5 65.5q42 58 83.5 67t71 -16.5t29.5 -62.5q0 -12 -43.5 -93.5t-133 -236
t-220.5 -364.5q116 62 371 249zM1171 1574q-9 0 -23.5 -15t-28.5 -30q-90 -101 -137 -101q-45 0 -45 39q0 22 53 95t117.5 132.5t110.5 59.5t73 -57q24 -49 44 -126t20 -98q0 -15 -10.5 -29t-26.5 -14q-26 0 -60 32.5t-67 90.5q-7 21 -20 21z" />
    <glyph glyph-name="uni011D.gCircumflex" unicode="&#x11d;" horiz-adv-x="788" 
d="M811 248l-332 -273q-140 -242 -255 -361.5t-171 -119.5q-30 0 -30 37q0 72 73 184q29 44 66.5 86t71 72.5t88.5 76t75 62.5q100 204 144 312q-94 -100 -164 -164t-128.5 -98.5t-105.5 -34.5q-51 0 -94 81.5t-43 167.5q0 40 18.5 84t58 94t100.5 102.5t143 102.5
q155 97 241 97q64 0 64 -47q0 -65 -139 -127q-85 -37 -168.5 -98t-135 -129.5t-51.5 -123.5q0 -27 13 -43t34 -16q35 0 80 32t133 113q40 37 106.5 119.5t110 126t78.5 43.5q20 0 32.5 -12.5t12.5 -36.5q0 -46 -36.5 -133.5t-131.5 -286.5l242 176v-65zM651 941
q-9 0 -23.5 -15t-28.5 -30q-90 -101 -137 -101q-45 0 -45 39q0 22 53 95t117.5 132.5t110.5 59.5t73 -57q24 -49 44 -126t20 -98q0 -15 -10.5 -29t-26.5 -14q-26 0 -60 32.5t-67 90.5q-7 21 -20 21z" />
    <glyph glyph-name="uni011E.GBreve" unicode="&#x11e;" horiz-adv-x="1153" 
d="M1174 319v-53q-114 -96 -226 -183.5t-272 -195.5q-82 -112 -141 -183.5t-102 -118.5t-44 -48q-14 -17 -47 -34t-55 -17q-31 0 -51.5 22.5t-20.5 53.5q0 80 84 170.5t246 185.5q80 115 153 231.5t127.5 212.5t100.5 189q-72 -60 -143 -115.5t-139 -106t-84 -62.5l-28 -21
q-174 -152 -260 -152q-82 0 -138 78t-56 197q0 75 24 156.5t73.5 167.5t118.5 166t152 147q128 102 287 182.5t296 123t202 42.5q38 0 60.5 -18.5t32 -50t9.5 -66.5q0 -32 -20 -64q-29 -43 -102 -90.5t-147 -84t-85 -36.5q-6 0 -6 4q0 9 23 29t51 41q62 47 73 100
q-97 -27 -193 -71t-190 -105t-188 -139q-106 -89 -180.5 -185.5t-113 -178.5t-38.5 -126q0 -33 21 -57.5t57 -24.5q42 0 104 37q67 40 147.5 102.5t148.5 118.5t147 123q73 61 113.5 98.5t60.5 65.5q42 58 83.5 67t71 -16.5t29.5 -62.5q0 -12 -43.5 -93.5t-133 -236
t-220.5 -364.5q116 62 371 249zM980 1693q25 0 62 -37q38 -36 72.5 -51.5t80.5 -15.5q84 0 166 65q37 31 55 31t30.5 -13t12.5 -36q0 -39 -39.5 -85.5t-106 -79t-136.5 -32.5q-104 0 -176 66t-72 129q0 24 14.5 41.5t36.5 17.5z" />
    <glyph glyph-name="uni011F.gBreve" unicode="&#x11f;" horiz-adv-x="788" 
d="M811 248l-332 -273q-140 -242 -255 -361.5t-171 -119.5q-30 0 -30 37q0 72 73 184q29 44 66.5 86t71 72.5t88.5 76t75 62.5q100 204 144 312q-94 -100 -164 -164t-128.5 -98.5t-105.5 -34.5q-51 0 -94 81.5t-43 167.5q0 40 18.5 84t58 94t100.5 102.5t143 102.5
q155 97 241 97q64 0 64 -47q0 -65 -139 -127q-85 -37 -168.5 -98t-135 -129.5t-51.5 -123.5q0 -27 13 -43t34 -16q35 0 80 32t133 113q40 37 106.5 119.5t110 126t78.5 43.5q20 0 32.5 -12.5t12.5 -36.5q0 -46 -36.5 -133.5t-131.5 -286.5l242 176v-65zM478 1078
q25 0 62 -37q38 -36 72.5 -51.5t80.5 -15.5q84 0 166 65q37 31 55 31t30.5 -13t12.5 -36q0 -39 -39.5 -85.5t-106 -79t-136.5 -32.5q-104 0 -176 66t-72 129q0 24 14.5 41.5t36.5 17.5z" />
    <glyph glyph-name="uni0120.GDot" unicode="&#x120;" horiz-adv-x="1153" 
d="M1174 319v-53q-114 -96 -226 -183.5t-272 -195.5q-82 -112 -141 -183.5t-102 -118.5t-44 -48q-14 -17 -47 -34t-55 -17q-31 0 -51.5 22.5t-20.5 53.5q0 80 84 170.5t246 185.5q80 115 153 231.5t127.5 212.5t100.5 189q-72 -60 -143 -115.5t-139 -106t-84 -62.5l-28 -21
q-174 -152 -260 -152q-82 0 -138 78t-56 197q0 75 24 156.5t73.5 167.5t118.5 166t152 147q128 102 287 182.5t296 123t202 42.5q38 0 60.5 -18.5t32 -50t9.5 -66.5q0 -32 -20 -64q-29 -43 -102 -90.5t-147 -84t-85 -36.5q-6 0 -6 4q0 9 23 29t51 41q62 47 73 100
q-97 -27 -193 -71t-190 -105t-188 -139q-106 -89 -180.5 -185.5t-113 -178.5t-38.5 -126q0 -33 21 -57.5t57 -24.5q42 0 104 37q67 40 147.5 102.5t148.5 118.5t147 123q73 61 113.5 98.5t60.5 65.5q42 58 83.5 67t71 -16.5t29.5 -62.5q0 -12 -43.5 -93.5t-133 -236
t-220.5 -364.5q116 62 371 249zM1147 1425q-24 0 -38.5 15.5t-14.5 38.5q0 17 23 63t58 83.5t70 37.5q26 0 42 -15t16 -40t-26.5 -70t-63 -79t-66.5 -34z" />
    <glyph glyph-name="uni0121.gDot" unicode="&#x121;" horiz-adv-x="788" 
d="M811 248l-332 -273q-140 -242 -255 -361.5t-171 -119.5q-30 0 -30 37q0 72 73 184q29 44 66.5 86t71 72.5t88.5 76t75 62.5q100 204 144 312q-94 -100 -164 -164t-128.5 -98.5t-105.5 -34.5q-51 0 -94 81.5t-43 167.5q0 40 18.5 84t58 94t100.5 102.5t143 102.5
q155 97 241 97q64 0 64 -47q0 -65 -139 -127q-85 -37 -168.5 -98t-135 -129.5t-51.5 -123.5q0 -27 13 -43t34 -16q35 0 80 32t133 113q40 37 106.5 119.5t110 126t78.5 43.5q20 0 32.5 -12.5t12.5 -36.5q0 -46 -36.5 -133.5t-131.5 -286.5l242 176v-65zM650 853
q-24 0 -38.5 15.5t-14.5 38.5q0 17 23 63t58 83.5t70 37.5q26 0 42 -15t16 -40t-26.5 -70t-63 -79t-66.5 -34z" />
    <glyph glyph-name="uni0122.GCommaaccent" unicode="&#x122;" horiz-adv-x="1153" 
d="M1174 319v-53q-114 -96 -226 -183.5t-272 -195.5q-82 -112 -141 -183.5t-102 -118.5t-44 -48q-14 -17 -47 -34t-55 -17q-31 0 -51.5 22.5t-20.5 53.5q0 80 84 170.5t246 185.5q80 115 153 231.5t127.5 212.5t100.5 189q-72 -60 -143 -115.5t-139 -106t-84 -62.5l-28 -21
q-174 -152 -260 -152q-82 0 -138 78t-56 197q0 75 24 156.5t73.5 167.5t118.5 166t152 147q128 102 287 182.5t296 123t202 42.5q38 0 60.5 -18.5t32 -50t9.5 -66.5q0 -32 -20 -64q-29 -43 -102 -90.5t-147 -84t-85 -36.5q-6 0 -6 4q0 9 23 29t51 41q62 47 73 100
q-97 -27 -193 -71t-190 -105t-188 -139q-106 -89 -180.5 -185.5t-113 -178.5t-38.5 -126q0 -33 21 -57.5t57 -24.5q42 0 104 37q67 40 147.5 102.5t148.5 118.5t147 123q73 61 113.5 98.5t60.5 65.5q42 58 83.5 67t71 -16.5t29.5 -62.5q0 -12 -43.5 -93.5t-133 -236
t-220.5 -364.5q116 62 371 249zM99 -329q-23 0 -33.5 10.5t-10.5 36.5q0 17 3 39.5t11 54.5q12 54 25 92t33 62.5t49.5 35.5t73.5 11q20 0 33 -9.5t13 -31.5q0 -5 -0.5 -9t-1.5 -9q-9 -39 -34 -88.5t-55 -92.5t-59 -72.5t-47 -29.5z" />
    <glyph glyph-name="uni0123.gCommaaccent" unicode="&#x123;" horiz-adv-x="788" 
d="M811 248l-332 -273q-140 -242 -255 -361.5t-171 -119.5q-30 0 -30 37q0 72 73 184q29 44 66.5 86t71 72.5t88.5 76t75 62.5q100 204 144 312q-94 -100 -164 -164t-128.5 -98.5t-105.5 -34.5q-51 0 -94 81.5t-43 167.5q0 40 18.5 84t58 94t100.5 102.5t143 102.5
q155 97 241 97q64 0 64 -47q0 -65 -139 -127q-85 -37 -168.5 -98t-135 -129.5t-51.5 -123.5q0 -27 13 -43t34 -16q35 0 80 32t133 113q40 37 106.5 119.5t110 126t78.5 43.5q20 0 32.5 -12.5t12.5 -36.5q0 -46 -36.5 -133.5t-131.5 -286.5l242 176v-65zM611 903
q-23 0 -33.5 10.5t-10.5 36.5q0 17 3 39.5t11 54.5q12 54 25 92t33 62.5t49.5 35.5t73.5 11q20 0 33 -9.5t13 -31.5q0 -5 -0.5 -9t-1.5 -9q-9 -39 -34 -88.5t-55 -92.5t-59 -72.5t-47 -29.5z" />
    <glyph glyph-name="uni0124.HCircumflex" unicode="&#x124;" horiz-adv-x="1323" 
d="M229 878l-215 -113q-50 -25 -67 -25q-31 0 -45.5 19.5t-14.5 60.5q0 47 20 108.5t46 90.5q27 30 126.5 82.5t239.5 105.5t292 88t278 35q88 0 130 -28t42 -148q0 -65 -44.5 -144.5t-107 -154.5t-231.5 -266q90 14 132 18t157 17q133 192 215 306.5t139 190t68 86.5
q20 23 33.5 17.5t13.5 -41.5q0 -41 -8.5 -67t-26.5 -51.5t-19 -27.5q-26 -43 -75 -112.5t-96 -137.5t-107 -161q112 -4 221 -29l-180 -244q-74 10 -197 10q-30 -60 -46.5 -94t-28 -64.5t-11.5 -56.5q0 -16 9.5 -42.5t9.5 -30.5q0 -20 -29.5 -42.5t-69 -39.5t-61.5 -17
q-37 0 -37 56q0 116 119 323q-158 -13 -363 -47q-59 -78 -107 -148t-78.5 -118t-45 -64t-31.5 -16q-29 0 -49 25q-9 10 -11.5 20t-2.5 22v21q0 12 13 35t62 91.5t72 103.5q-26 -3 -67 -3q-52 0 -84.5 19t-32.5 47q0 32 17 68.5t44 61t54 24.5q18 0 43 -11l258 64
q216 234 322 370t106 175q0 22 -12 36.5t-33.5 22.5t-49.5 8q-33 0 -104.5 -18t-170.5 -53t-247 -97q-110 -45 -110 -57q0 -14 15 -18t38.5 -6t23.5 -7q0 -4 -11.5 -11t-31.5 -17zM1255 1520q-9 0 -23.5 -15t-28.5 -30q-90 -101 -137 -101q-45 0 -45 39q0 22 53 95
t117.5 132.5t110.5 59.5t73 -57q24 -49 44 -126t20 -98q0 -15 -10.5 -29t-26.5 -14q-26 0 -60 32.5t-67 90.5q-7 21 -20 21z" />
    <glyph glyph-name="uni0125.hCircumflex" unicode="&#x125;" horiz-adv-x="748" 
d="M764 315v-63q-87 -89 -150.5 -145.5t-111 -85.5t-80.5 -29q-78 0 -78 92q0 74 48.5 171.5t139.5 229.5q-45 -25 -85 -57.5t-71 -68t-52 -60.5q-65 -73 -125 -149.5t-81 -99.5t-40 -23q-78 0 -78 192q0 63 19 139t102 201q175 262 299.5 428.5t206.5 252t110 83.5
q35 -3 56.5 -14t21.5 -25q0 -25 -34.5 -82.5t-118.5 -179.5q-91 -129 -129 -181.5t-113.5 -149t-138 -172t-142.5 -163.5v-120q134 149 232 244t166 143.5t100 48.5q30 0 56 -35.5t26 -58.5q0 -10 -10 -25q-72 -86 -114.5 -142.5t-65.5 -101t-23 -76.5q0 -47 45 -47
q48 0 213 129zM891 1547q-9 0 -23.5 -15t-28.5 -30q-90 -101 -137 -101q-45 0 -45 39q0 22 53 95t117.5 132.5t110.5 59.5t73 -57q24 -49 44 -126t20 -98q0 -15 -10.5 -29t-26.5 -14q-26 0 -60 32.5t-67 90.5q-7 21 -20 21z" />
    <glyph glyph-name="uni0126.HMacron" unicode="&#x126;" horiz-adv-x="1323" 
d="M1144 353q-38 5 -86 7.5t-111 2.5l-46 -94q-16 -32 -28.5 -63t-12.5 -57q0 -8 3 -21t7 -25.5t7 -21.5t3 -8q0 -14 -19 -31t-44.5 -31.5t-52.5 -24.5t-43 -10q-39 0 -39 58q0 55 30 136.5t90 184.5q-79 -7 -169.5 -18.5t-193.5 -28.5q-60 -78 -107.5 -148t-78.5 -118
q-15 -24 -26 -39.5t-19 -24.5t-15.5 -12.5t-15.5 -3.5q-32 0 -48 24.5t-16 51.5q0 11 2 20t12 27q4 8 22 34.5t40 57.5t42.5 60t29.5 43q-26 -3 -67 -3q-63 0 -89.5 22t-26.5 54q0 23 10.5 48.5t27 46.5t36 35t37.5 14q10 0 21 -3t25 -8l258 64q54 58 99.5 109t85.5 97
q-48 -2 -84.5 -3.5t-58.5 -1.5q-57 0 -86 4.5t-29 19.5q1 8 15 29.5t39 46.5q66 68 246 68q4 0 30 1t68 3q56 71 79.5 113.5t23.5 62.5q0 31 -28.5 47t-66.5 16q-54 0 -180.5 -39t-341.5 -129q-62 -26 -85.5 -39t-23.5 -21q0 -10 11.5 -14t25.5 -6t26 -3t13 -5
q-1 -5 -12 -11t-31 -17l-214 -113q-25 -14 -41.5 -19.5t-24.5 -5.5q-61 0 -61 79q0 12 1 27t6 33q12 48 21.5 77.5t27 51.5t49 42.5t88.5 50.5q51 27 113.5 54.5t131.5 53t142.5 47.5t146 38.5t142.5 26t132 9.5q89 0 130 -28q42 -29 42 -148q0 -49 -26 -106t-68 -117l220 9
q70 99 113 156t67.5 86t34.5 36.5t15 7.5q10 0 14.5 -16t4.5 -38q0 -32 -8.5 -57t-26.5 -51l-19 -27q-11 -19 -26 -42t-35 -51q29 4 55 5.5t40 1.5q2 0 18.5 -2t35.5 -6t34.5 -8.5t15.5 -8.5q-1 -4 -15.5 -19.5t-38 -34.5t-52 -36t-56.5 -24q-10 -3 -47.5 -7.5t-94.5 -9.5
q-28 -40 -54.5 -80.5t-57.5 -88.5q57 -2 111.5 -9t109.5 -20zM1077 784q-60 -5 -122 -9.5t-123 -8.5q-31 -35 -69 -79t-86 -98q34 5 57 8t41.5 5.5t35 4t37.5 4t49 5.5t69 8z" />
    <glyph glyph-name="uni0127.hMacron" unicode="&#x127;" horiz-adv-x="748" 
d="M763 252q-128 -131 -210 -195.5t-132 -64.5q-79 0 -79 91q0 75 48.5 172t140.5 230q-33 -17 -64 -41t-58 -50t-49 -51t-37 -44q-50 -56 -85 -98t-59.5 -72.5t-39.5 -50t-25.5 -31t-18.5 -16t-18 -4.5q-77 0 -77 192q0 31 3 64t15 73.5t36 90t66 112.5q60 90 113.5 167.5
t102.5 146.5h-33q-57 0 -86 4.5t-29 19.5q1 8 15 29.5t39 46.5q27 27 85.5 43t130.5 22q109 143 179 214t97 71q42 0 61 -14.5t19 -29.5q0 -23 -34.5 -79t-108.5 -164q22 -1 43.5 -2t41.5 -3q20 5 30 6.5t12 1.5t19 -2t36 -6t34.5 -8.5t15.5 -8.5q-1 -4 -15.5 -19.5t-38 -34
t-52 -36t-56.5 -24.5q-18 -5 -66 -10t-114 -9q-48 -68 -96.5 -132.5t-100.5 -129t-107.5 -129.5t-118.5 -134v-120q200 221 323.5 328.5t174.5 107.5q15 0 29.5 -10.5t26 -25.5t18.5 -31t7 -27q0 -12 -9 -25q-54 -63 -92 -112t-63 -87t-36.5 -68t-11.5 -55q0 -45 45 -45
q48 0 213 129v-63z" />
    <glyph glyph-name="uni0128.ITilde" unicode="&#x128;" horiz-adv-x="897" 
d="M365 -29l-62 45q-14 12 -14 25t47 90q34 55 91.5 151t92.5 158t85.5 162.5t92.5 196.5q97 221 97 282q0 72 -56 72q-42 0 -119.5 -42.5t-160.5 -111.5t-138 -144t-55 -132q0 -9 5 -13.5t18 -4.5q24 0 78 28q24 12 24 -4t-76 -82.5t-112 -66.5q-31 0 -86.5 53.5
t-55.5 97.5q0 17 31 81t85 144.5t114 139.5q69 69 157.5 123t170 84t131.5 30q72 0 112.5 -54.5t40.5 -152.5q0 -130 -102 -376t-314 -576q3 -10 7 -21.5t4 -21.5q0 -2 -3 -7.5t-7 -11.5t-5 -8l-73 -120q-12 -21 -25 -21q-12 0 -20 8zM731 1475q-31 0 -52 -12t-50 -35
q-44 -34 -68 -34q-28 0 -28 30t33 76t92.5 79.5t136.5 33.5q46 0 79.5 -12.5t75.5 -35t60 -22.5q33 0 68 27q28 22 51 22q30 0 30 -47q0 -22 -23.5 -61.5t-67 -68t-95.5 -28.5q-33 0 -77 22l-88 44t-77 22z" />
    <glyph glyph-name="uni0129.iTilde" unicode="&#x129;" horiz-adv-x="469" 
d="M494 315v-73q-97 -125 -181 -188.5t-143 -63.5q-82 0 -122 86t-40 188q0 39 8 74.5t19 58.5t41 72q142 221 260 221q61 0 61 -47q0 -32 -39.5 -100t-70.5 -97q-87 -84 -113.5 -117t-26.5 -75q0 -36 27 -60t70 -24q47 0 103.5 34.5t146.5 110.5zM305 824q-31 0 -52 -12
t-50 -35q-44 -34 -68 -34q-28 0 -28 30t33 76t92.5 79.5t136.5 33.5q46 0 79.5 -12.5t75.5 -35t60 -22.5q33 0 68 27q28 22 51 22q30 0 30 -47q0 -22 -23.5 -61.5t-67 -68t-95.5 -28.5q-33 0 -77 22l-88 44t-77 22z" />
    <glyph glyph-name="uni012A.IMacron" unicode="&#x12a;" horiz-adv-x="897" 
d="M365 -29l-62 45q-14 12 -14 25t47 90q34 55 91.5 151t92.5 158t85.5 162.5t92.5 196.5q97 221 97 282q0 72 -56 72q-42 0 -119.5 -42.5t-160.5 -111.5t-138 -144t-55 -132q0 -9 5 -13.5t18 -4.5q24 0 78 28q24 12 24 -4t-76 -82.5t-112 -66.5q-31 0 -86.5 53.5
t-55.5 97.5q0 17 31 81t85 144.5t114 139.5q69 69 157.5 123t170 84t131.5 30q72 0 112.5 -54.5t40.5 -152.5q0 -130 -102 -376t-314 -576q3 -10 7 -21.5t4 -21.5q0 -2 -3 -7.5t-7 -11.5t-5 -8l-73 -120q-12 -21 -25 -21q-12 0 -20 8zM1064 1432q-10 -3 -36.5 -6t-63.5 -6
t-81 -6t-89 -5t-88.5 -3t-78.5 -1q-57 0 -86 4t-29 19q0 20 54 77q16 17 45.5 29.5t68 21t82.5 13t89 4.5q7 0 32.5 -0.5t59.5 -1.5t70.5 -3t65.5 -5q20 5 30.5 6.5t12.5 1.5q1 0 18 -2t36 -6t35 -8.5t16 -8.5q-1 -3 -16 -19t-38.5 -34.5t-52 -36t-56.5 -24.5z" />
    <glyph glyph-name="uni012B.iMacron" unicode="&#x12b;" horiz-adv-x="469" 
d="M494 315v-73q-97 -125 -181 -188.5t-143 -63.5q-82 0 -122 86t-40 188q0 39 8 74.5t19 58.5t41 72q142 221 260 221q61 0 61 -47q0 -32 -39.5 -100t-70.5 -97q-87 -84 -113.5 -117t-26.5 -75q0 -36 27 -60t70 -24q47 0 103.5 34.5t146.5 110.5zM630 816q-10 -3 -36.5 -6
t-63.5 -6t-81 -6t-89 -5t-88.5 -3t-78.5 -1q-57 0 -86 4t-29 19q0 20 54 77q16 17 45.5 29.5t68 21t82.5 13t89 4.5q7 0 32.5 -0.5t59.5 -1.5t70.5 -3t65.5 -5q20 5 30.5 6.5t12.5 1.5q1 0 18 -2t36 -6t35 -8.5t16 -8.5q-1 -3 -16 -19t-38.5 -34.5t-52 -36t-56.5 -24.5z" />
    <glyph glyph-name="uni012C.IBreve" unicode="&#x12c;" horiz-adv-x="897" 
d="M365 -29l-62 45q-14 12 -14 25t47 90q34 55 91.5 151t92.5 158t85.5 162.5t92.5 196.5q97 221 97 282q0 72 -56 72q-42 0 -119.5 -42.5t-160.5 -111.5t-138 -144t-55 -132q0 -9 5 -13.5t18 -4.5q24 0 78 28q24 12 24 -4t-76 -82.5t-112 -66.5q-31 0 -86.5 53.5
t-55.5 97.5q0 17 31 81t85 144.5t114 139.5q69 69 157.5 123t170 84t131.5 30q72 0 112.5 -54.5t40.5 -152.5q0 -130 -102 -376t-314 -576q3 -10 7 -21.5t4 -21.5q0 -2 -3 -7.5t-7 -11.5t-5 -8l-73 -120q-12 -21 -25 -21q-12 0 -20 8zM678 1649q25 0 62 -37
q38 -36 72.5 -51.5t80.5 -15.5q84 0 166 65q37 31 55 31t30.5 -13t12.5 -36q0 -39 -39.5 -85.5t-106 -79t-136.5 -32.5q-104 0 -176 66t-72 129q0 24 14.5 41.5t36.5 17.5z" />
    <glyph glyph-name="uni012D.iBreve" unicode="&#x12d;" horiz-adv-x="469" 
d="M494 315v-73q-97 -125 -181 -188.5t-143 -63.5q-82 0 -122 86t-40 188q0 39 8 74.5t19 58.5t41 72q142 221 260 221q61 0 61 -47q0 -32 -39.5 -100t-70.5 -97q-87 -84 -113.5 -117t-26.5 -75q0 -36 27 -60t70 -24q47 0 103.5 34.5t146.5 110.5zM266 1026q25 0 62 -37
q38 -36 72.5 -51.5t80.5 -15.5q84 0 166 65q37 31 55 31t30.5 -13t12.5 -36q0 -39 -39.5 -85.5t-106 -79t-136.5 -32.5q-104 0 -176 66t-72 129q0 24 14.5 41.5t36.5 17.5z" />
    <glyph glyph-name="uni012E.IOgonek" unicode="&#x12e;" horiz-adv-x="897" 
d="M497 131q-1 -6 -12.5 -26t-25.5 -43.5t-28.5 -45.5t-21.5 -32q-18 -26 -35.5 -42t-32 -30.5t-23 -32t-8.5 -46.5q0 -26 13.5 -39t34.5 -13q20 0 38 8t33 8q11 0 18.5 -8.5t7.5 -22.5q0 -29 -20 -52.5t-49 -40.5t-62.5 -26.5t-61.5 -9.5q-26 0 -49.5 7.5t-40.5 23
t-27 38.5t-10 55q0 58 32 111t89 102q14 13 20 27.5t9 26.5q3 13 15 38t31 58t42.5 72.5t48.5 81l50 83t47 79.5q46 81 92 174.5t83.5 180t63.5 155t32 99.5q4 17 4 37q0 33 -15 50t-41 17q-30 0 -76.5 -21t-99 -55.5t-106 -79.5t-96 -92.5t-69.5 -94t-27 -84.5q0 -9 5 -15
t19 -6q26 0 78 28q13 5 16 5q2 0 5 -1.5t3 -6.5q0 -8 -18 -28.5t-58 -55.5q-75 -66 -112 -66q-14 0 -38 15t-47 37.5t-40 48.5t-17 47q0 12 19 54.5t51 97.5t73.5 113.5t86.5 102.5q50 51 114 94.5t127.5 75t121 49.5t93.5 18q72 0 114 -52t42 -151q0 -68 -25.5 -164.5
t-77.5 -218t-130 -266t-183 -307.5q4 -10 7.5 -21.5t3.5 -21.5z" />
    <glyph glyph-name="uni012F.iOgonek" unicode="&#x12f;" horiz-adv-x="469" 
d="M493 242q-57 -75 -108.5 -128t-102.5 -82q-54 -32 -84.5 -61t-45.5 -54.5t-18.5 -46.5t-3.5 -37q0 -26 13.5 -39t34.5 -13q20 0 38 8t33 8q11 0 18.5 -8.5t7.5 -22.5q0 -29 -20 -52.5t-49 -40.5t-62.5 -26.5t-61.5 -9.5q-26 0 -49 7.5t-40 23t-27 38.5t-10 55
q0 29 7.5 56t25.5 56t48 60.5t75 69.5q-24 11 -43 37t-33 61.5t-21.5 76.5t-7.5 81q0 38 7 70q5 22 9 36.5t10 28.5t16 31t27 44q140 221 259 221q61 0 61 -48q0 -15 -12 -42.5t-29 -57t-36 -56.5t-33 -40q-44 -42 -71.5 -69t-42.5 -47t-20.5 -36.5t-5.5 -36.5
q0 -37 25.5 -62t71.5 -25q24 0 49 8.5t54.5 26t65.5 45t81 65.5v-73zM425 762q-28 0 -49 20t-21 51q0 23 12.5 49t31.5 48t42 36.5t43 14.5q29 0 49.5 -17.5t20.5 -51.5q0 -20 -11 -46t-29 -49t-41 -39t-48 -16z" />
    <glyph glyph-name="uni0130.IDot" unicode="&#x130;" horiz-adv-x="897" 
d="M365 -29l-62 45q-14 12 -14 25t47 90q34 55 91.5 151t92.5 158t85.5 162.5t92.5 196.5q97 221 97 282q0 72 -56 72q-42 0 -119.5 -42.5t-160.5 -111.5t-138 -144t-55 -132q0 -9 5 -13.5t18 -4.5q24 0 78 28q24 12 24 -4t-76 -82.5t-112 -66.5q-31 0 -86.5 53.5
t-55.5 97.5q0 17 31 81t85 144.5t114 139.5q69 69 157.5 123t170 84t131.5 30q72 0 112.5 -54.5t40.5 -152.5q0 -130 -102 -376t-314 -576q3 -10 7 -21.5t4 -21.5q0 -2 -3 -7.5t-7 -11.5t-5 -8l-73 -120q-12 -21 -25 -21q-12 0 -20 8zM819 1415q-24 0 -38.5 15.5t-14.5 38.5
q0 17 23 63t58 83.5t70 37.5q26 0 42 -15t16 -40t-26.5 -70t-63 -79t-66.5 -34z" />
    <glyph glyph-name="dotlessi" unicode="&#x131;" horiz-adv-x="469" 
d="M494 315v-73q-97 -125 -181 -188.5t-143 -63.5q-82 0 -122 86t-40 188q0 39 8 74.5t19 58.5t41 72q142 221 260 221q61 0 61 -47q0 -32 -39.5 -100t-70.5 -97q-87 -84 -113.5 -117t-26.5 -75q0 -36 27 -60t70 -24q47 0 103.5 34.5t146.5 110.5z" />
    <glyph glyph-name="uni0132.IJ" unicode="&#x132;" horiz-adv-x="1665" 
d="M365 -29l-62 45q-14 12 -14 25t47 90q34 55 91.5 151t92.5 158t85.5 162.5t92.5 196.5q97 221 97 282q0 72 -56 72q-42 0 -119.5 -42.5t-160.5 -111.5t-138 -144t-55 -132q0 -9 5 -13.5t18 -4.5q24 0 78 28q24 12 24 -4t-76 -82.5t-112 -66.5q-31 0 -86.5 53.5
t-55.5 97.5q0 17 31 81t85 144.5t114 139.5q69 69 157.5 123t170 84t131.5 30q72 0 112.5 -54.5t40.5 -152.5q0 -130 -102 -376t-314 -576q3 -10 7 -21.5t4 -21.5q0 -2 -3 -7.5t-7 -11.5t-5 -8l-73 -120q-12 -21 -25 -21q-12 0 -20 8zM1679 244l-266 -150
q-88 -149 -176.5 -281.5t-157 -219t-118.5 -132t-74 -45.5q-32 0 -52 21.5t-20 50.5q0 108 121.5 270.5t384.5 345.5q114 219 188 398t113 306t54.5 204t15.5 98q0 43 -33 43q-27 0 -79.5 -31t-113.5 -92.5t-114 -142.5q-53 -80 -96.5 -179.5t-67 -183.5t-23.5 -135
q0 -13 4 -57q9 14 22 34t33 41t42 35q13 10 31 16.5t18 -1.5q0 -6 -57 -75.5t-99 -125.5q-24 -32 -64 -60t-65 -28q-30 0 -39.5 28t-9.5 89q0 147 50.5 327t135.5 316q69 108 169 195.5t194.5 136.5t148.5 49q66 0 102 -41.5t36 -114.5q0 -36 -8.5 -81t-21.5 -91t-45 -148
t-42 -135q-31 -103 -81.5 -211.5t-143.5 -287.5l204 110v-65z" />
    <glyph glyph-name="uni0133.ij" unicode="&#x133;" horiz-adv-x="1044" 
d="M1068 246q-97 -85 -185.5 -166.5t-170.5 -163.5q-99 -193 -175 -291t-114 -98q-14 0 -21 15.5t-7 41.5q0 94 67 195.5t194 216.5q64 127 108 215.5t71.5 147.5t40 94t12.5 55q0 22 -21 22q-37 0 -82 -24.5t-93.5 -65t-99.5 -93t-100 -107.5q-57 -65 -104.5 -112.5
t-87 -78t-72 -45t-59.5 -14.5q-40 0 -70 23.5t-50.5 61.5t-30.5 86.5t-10 98.5q0 17 1 34.5t5 34.5q5 22 9 36.5t10 28.5t16 31t27 44q140 221 259 221q61 0 61 -48q0 -15 -12 -42.5t-29 -57t-36 -56.5t-33 -40q-44 -42 -71.5 -69t-42.5 -47t-20.5 -36.5t-5.5 -36.5
q0 -37 25.5 -62t71.5 -25q18 0 39 7t51 28.5t73 60.5t104 104q72 76 138 142.5t126.5 116t116 78t105.5 28.5q27 0 42.5 -12.5t15.5 -38.5q0 -5 -0.5 -10t-1.5 -10q-5 -21 -27.5 -74.5t-56.5 -128.5t-77 -165t-89 -183q40 27 71 49t61 45t61 49t71 61zM1162 928
q-12 -37 -22 -60.5t-21.5 -37t-26 -18.5t-34.5 -5q-86 0 -86 57q0 45 53 129q15 24 25.5 37t21 19.5t23 8t30.5 1.5q60 0 60 -49q0 -17 -6 -36.5t-17 -45.5zM425 762q-28 0 -49 20t-21 51q0 23 12.5 49t31.5 48t42 36.5t43 14.5q29 0 49.5 -17.5t20.5 -51.5q0 -20 -11 -46
t-29 -49t-41 -39t-48 -16z" />
    <glyph glyph-name="uni0134.JCircumflex" unicode="&#x134;" horiz-adv-x="768" 
d="M782 244l-266 -150q-88 -149 -176.5 -281.5t-157 -219t-118.5 -132t-74 -45.5q-32 0 -52 21.5t-20 50.5q0 108 121.5 270.5t384.5 345.5q114 219 188 398t113 306t54.5 204t15.5 98q0 43 -33 43q-27 0 -79.5 -31t-113.5 -92.5t-114 -142.5q-53 -80 -96.5 -179.5
t-67 -183.5t-23.5 -135q0 -13 4 -57q9 14 22 34t33 41t42 35q13 10 31 16.5t18 -1.5q0 -6 -57 -75.5t-99 -125.5q-24 -32 -64 -60t-65 -28q-30 0 -39.5 28t-9.5 89q0 147 50.5 327t135.5 316q69 108 169 195.5t194.5 136.5t148.5 49q66 0 102 -41.5t36 -114.5
q0 -36 -8.5 -81t-21.5 -91t-45 -148t-42 -135q-31 -103 -81.5 -211.5t-143.5 -287.5l204 110v-65zM846 1520q-9 0 -23.5 -15t-28.5 -30q-90 -101 -137 -101q-45 0 -45 39q0 22 53 95t117.5 132.5t110.5 59.5t73 -57q24 -49 44 -126t20 -98q0 -15 -10.5 -29t-26.5 -14
q-26 0 -60 32.5t-67 90.5q-7 21 -20 21z" />
    <glyph glyph-name="uni0135.jCircumflex" unicode="&#x135;" horiz-adv-x="575" 
d="M599 246q-97 -85 -185.5 -166.5t-170.5 -163.5q-100 -195 -175 -292t-113 -97q-14 0 -21 15.5t-7 41.5q0 94 66.5 195.5t193.5 216.5q64 127 108 215.5t71.5 147.5t40 94t12.5 55q0 22 -21 22q-9 0 -150 -65q-137 -64 -170 -64q-22 0 -22 22q0 11 5.5 28t14.5 43l28 79
l184 84q165 78 239 78q27 0 42.5 -12.5t15.5 -38.5q0 -5 -0.5 -10t-1.5 -10q-5 -21 -27.5 -74.5t-56.5 -128.5t-77 -165t-89 -183q40 27 71 49t61 45t61 49t71 61zM552 937q-9 0 -23.5 -15t-28.5 -30q-90 -101 -137 -101q-45 0 -45 39q0 22 53 95t117.5 132.5t110.5 59.5
t73 -57q24 -49 44 -126t20 -98q0 -15 -10.5 -29t-26.5 -14q-26 0 -60 32.5t-67 90.5q-7 21 -20 21z" />
    <glyph glyph-name="uni0136.KCommaaccent" unicode="&#x136;" horiz-adv-x="1343" 
d="M1214 -115q-12 0 -35.5 13t-68 44.5t-100.5 69.5l-541 363l-160 -211q0 -27 -7 -40.5t-30 -37.5q-55 -57 -93.5 -87t-69.5 -30q-15 0 -26 12.5t-11 30.5q0 24 28 64l293 364q-26 41 -26 84q0 44 24.5 75t56.5 50t177 96q206 273 206 306q0 22 -26 22q-27 0 -119.5 -32
t-243 -98.5t-356.5 -170.5q-17 -9 -38.5 -7.5t-36.5 17t-15 41.5q0 8 3.5 19t11.5 34.5t14 41.5q2 6 9.5 43t25.5 67.5t61.5 67.5t124.5 78q15 9 28 11.5t13 -7.5q0 -3 -29.5 -24.5t-64.5 -70.5q292 102 430.5 143.5t222.5 41.5q46 0 77 -62.5t31 -81.5q0 -28 -22 -63
l-160 -240q190 94 295.5 149.5t229.5 121t157 82t43 16.5q23 0 23 -21q0 -12 -34.5 -65.5t-76.5 -96t-70 -42.5q-7 0 -17 3.5t-19 6.5q-135 -70 -330.5 -166t-308.5 -150l-86 -129l507 -344q70 -47 101.5 -75t47 -61t15.5 -83q0 -82 -35 -82zM395 -349q-23 0 -33.5 10.5
t-10.5 36.5q0 17 3 39.5t11 54.5q12 54 25 92t33 62.5t49.5 35.5t73.5 11q20 0 33 -9.5t13 -31.5q0 -5 -0.5 -9t-1.5 -9q-9 -39 -34 -88.5t-55 -92.5t-59 -72.5t-47 -29.5z" />
    <glyph glyph-name="uni0137.kCommaaccent" unicode="&#x137;" horiz-adv-x="748" 
d="M770 315v-67q-112 -131 -188 -198.5t-127 -67.5q-49 0 -88.5 29t-71 80t-74.5 142q-51 -63 -92 -117.5t-57 -72.5t-29 -18q-27 0 -39 34.5t-12 100.5q0 90 21.5 173.5t62 162.5t104 170.5t142.5 191.5q109 138 188 225.5t137.5 132t97.5 44.5q48 0 48 -43
q0 -37 -177 -266.5t-516 -626.5v-86q227 243 365.5 361t214.5 118q31 0 48 -36.5t17 -84.5q0 -98 -84 -181.5t-258 -191.5q30 -45 53 -65.5t58 -20.5q31 0 67 21t73.5 53t115.5 104zM375 264q38 25 94.5 77.5t96.5 109t40 94.5q0 16 -14 16q-38 0 -130.5 -73t-180.5 -187
q38 0 94 -37zM53 -423q-23 0 -33.5 10.5t-10.5 36.5q0 17 3 39.5t11 54.5q12 54 25 92t33 62.5t49.5 35.5t73.5 11q20 0 33 -9.5t13 -31.5q0 -5 -0.5 -9t-1.5 -9q-9 -39 -34 -88.5t-55 -92.5t-59 -72.5t-47 -29.5z" />
    <glyph glyph-name="uni0138.kGreenlandic" unicode="&#x138;" horiz-adv-x="818" 
d="M839 248q-112 -133 -188 -199.5t-127 -66.5q-36 0 -65.5 14t-56.5 44t-54 77.5t-58 115.5q-60 -70 -95.5 -110t-56 -60t-30 -25t-17.5 -5q-16 0 -31.5 19t-27.5 50.5t-19.5 70.5t-7.5 80q0 20 1 36.5t7 35.5t18.5 43.5t36.5 61.5q68 106 118 155.5t96 49.5q29 0 49.5 -10
t20.5 -33q0 -10 -2 -17t-7.5 -15t-15.5 -18.5t-25 -27.5q-82 -91 -120.5 -147t-38.5 -83q0 -13 6 -19.5t14 -6.5q7 0 25.5 14t42 35.5t50 47.5t50.5 50.5t42 43t26 26.5q125 123 210.5 182.5t139.5 59.5q15 0 27 -9.5t20.5 -26t13 -38t4.5 -45.5q0 -49 -20 -93t-62 -88
t-106.5 -91.5t-153.5 -102.5q30 -45 53 -65.5t58 -20.5q22 0 44 8.5t50.5 29t67 54.5t94.5 86v-67zM444 264q32 21 72 57t75.5 76t59.5 78.5t24 65.5q0 20 -14 20q-18 0 -53 -20t-78 -55t-90 -82.5t-90 -102.5q39 0 94 -37z" />
    <glyph glyph-name="uni0139.LAcute" unicode="&#x139;" horiz-adv-x="1217" 
d="M1075 758l31 -31q-82 -103 -143.5 -150t-90.5 -47q-24 0 -24 43q0 107 141 330q119 193 119 215q0 19 -16 19q-28 0 -141 -126t-279 -356q-188 -256 -258 -366q133 -13 218.5 -33.5t248 -66.5t239.5 -54q-94 -107 -129.5 -145.5t-54.5 -46.5q-30 -13 -89 -1.5t-187 44.5
t-239.5 55t-203.5 22q-52 0 -89.5 -12t-104 -39.5t-93.5 -27.5q-39 0 -39 32q0 18 13 41q33 53 64 101t66 75t101 42t174 16q163 250 304 443.5t256.5 326.5t202.5 201.5t138 68.5q36 0 56 -20t20 -56q0 -120 -211 -497zM1260 1413q-17 0 -31 11.5t-14 25.5q0 37 104 189
q45 63 75.5 83.5t86.5 20.5q74 0 74 -51q0 -29 -64.5 -96t-138 -125t-92.5 -58z" />
    <glyph glyph-name="uni013A.lAcute" unicode="&#x13a;" horiz-adv-x="469" 
d="M494 326v-74q-209 -277 -340 -277q-71 0 -111.5 77.5t-40.5 203.5q0 102 48 242.5t128.5 285t167 252t160.5 150.5q30 18 47 18q21 0 28 -18.5t7 -63.5q0 -139 -113 -341.5t-315 -413.5q-10 -52 -10 -80q0 -64 27.5 -104t76.5 -40q25 0 54 19.5t61 48.5t125 115zM195 506
q52 51 100.5 116t91.5 139t67.5 133t24.5 89q0 23 -16 23q-6 0 -23 -11q-61 -50 -137 -195.5t-108 -293.5zM567 1255q-17 0 -31 11.5t-14 25.5q0 37 104 189q45 63 75.5 83.5t86.5 20.5q74 0 74 -51q0 -29 -64.5 -96t-138 -125t-92.5 -58z" />
    <glyph glyph-name="uni013B.LCommaaccent" unicode="&#x13b;" horiz-adv-x="1217" 
d="M1075 758l31 -31q-82 -103 -143.5 -150t-90.5 -47q-24 0 -24 43q0 107 141 330q119 193 119 215q0 19 -16 19q-28 0 -141 -126t-279 -356q-188 -256 -258 -366q133 -13 218.5 -33.5t248 -66.5t239.5 -54q-94 -107 -129.5 -145.5t-54.5 -46.5q-30 -13 -89 -1.5t-187 44.5
t-239.5 55t-203.5 22q-52 0 -89.5 -12t-104 -39.5t-93.5 -27.5q-39 0 -39 32q0 18 13 41q33 53 64 101t66 75t101 42t174 16q163 250 304 443.5t256.5 326.5t202.5 201.5t138 68.5q36 0 56 -20t20 -56q0 -120 -211 -497zM238 -390q-23 0 -33.5 10.5t-10.5 36.5q0 17 3 39.5
t11 54.5q12 54 25 92t33 62.5t49.5 35.5t73.5 11q20 0 33 -9.5t13 -31.5q0 -5 -0.5 -9t-1.5 -9q-9 -39 -34 -88.5t-55 -92.5t-59 -72.5t-47 -29.5z" />
    <glyph glyph-name="uni013C.lCommaaccent" unicode="&#x13c;" horiz-adv-x="469" 
d="M494 326v-74q-209 -277 -340 -277q-71 0 -111.5 77.5t-40.5 203.5q0 102 48 242.5t128.5 285t167 252t160.5 150.5q30 18 47 18q21 0 28 -18.5t7 -63.5q0 -139 -113 -341.5t-315 -413.5q-10 -52 -10 -80q0 -64 27.5 -104t76.5 -40q25 0 54 19.5t61 48.5t125 115zM195 506
q52 51 100.5 116t91.5 139t67.5 133t24.5 89q0 23 -16 23q-6 0 -23 -11q-61 -50 -137 -195.5t-108 -293.5zM-78 -444q-23 0 -33.5 10.5t-10.5 36.5q0 17 3 39.5t11 54.5q12 54 25 92t33 62.5t49.5 35.5t73.5 11q20 0 33 -9.5t13 -31.5q0 -5 -0.5 -9t-1.5 -9
q-9 -39 -34 -88.5t-55 -92.5t-59 -72.5t-47 -29.5z" />
    <glyph glyph-name="uni013D.LCaron" unicode="&#x13d;" horiz-adv-x="1217" 
d="M1075 758l31 -31q-82 -103 -143.5 -150t-90.5 -47q-24 0 -24 43q0 107 141 330q119 193 119 215q0 19 -16 19q-28 0 -141 -126t-279 -356q-188 -256 -258 -366q133 -13 218.5 -33.5t248 -66.5t239.5 -54q-94 -107 -129.5 -145.5t-54.5 -46.5q-30 -13 -89 -1.5t-187 44.5
t-239.5 55t-203.5 22q-52 0 -89.5 -12t-104 -39.5t-93.5 -27.5q-39 0 -39 32q0 18 13 41q33 53 64 101t66 75t101 42t174 16q163 250 304 443.5t256.5 326.5t202.5 201.5t138 68.5q36 0 56 -20t20 -56q0 -120 -211 -497zM1336 1003q-23 0 -33.5 10.5t-10.5 36.5q0 17 3 39.5
t11 54.5q12 54 25 92t33 62.5t49.5 35.5t73.5 11q20 0 33 -9.5t13 -31.5q0 -5 -0.5 -9t-1.5 -9q-9 -39 -34 -88.5t-55 -92.5t-59 -72.5t-47 -29.5z" />
    <glyph glyph-name="uni013E.lCaron" unicode="&#x13e;" horiz-adv-x="1151" 
d="M494 326v-74q-209 -277 -340 -277q-71 0 -111.5 77.5t-40.5 203.5q0 102 48 242.5t128.5 285t167 252t160.5 150.5q30 18 47 18q21 0 28 -18.5t7 -63.5q0 -139 -113 -341.5t-315 -413.5q-10 -52 -10 -80q0 -64 27.5 -104t76.5 -40q25 0 54 19.5t61 48.5t125 115zM195 506
q52 51 100.5 116t91.5 139t67.5 133t24.5 89q0 23 -16 23q-6 0 -23 -11q-61 -50 -137 -195.5t-108 -293.5zM662 1003q-23 0 -33.5 10.5t-10.5 36.5q0 17 3 39.5t11 54.5q12 54 25 92t33 62.5t49.5 35.5t73.5 11q20 0 33 -9.5t13 -31.5q0 -5 -0.5 -9t-1.5 -9
q-9 -39 -34 -88.5t-55 -92.5t-59 -72.5t-47 -29.5z" />
    <glyph glyph-name="uni013F.LDot" unicode="&#x13f;" horiz-adv-x="1217" 
d="M1075 758l31 -31q-82 -103 -143.5 -150t-90.5 -47q-24 0 -24 43q0 107 141 330q119 193 119 215q0 19 -16 19q-28 0 -141 -126t-279 -356q-188 -256 -258 -366q133 -13 218.5 -33.5t248 -66.5t239.5 -54q-94 -107 -129.5 -145.5t-54.5 -46.5q-30 -13 -89 -1.5t-187 44.5
t-239.5 55t-203.5 22q-52 0 -89.5 -12t-104 -39.5t-93.5 -27.5q-39 0 -39 32q0 18 13 41q33 53 64 101t66 75t101 42t174 16q163 250 304 443.5t256.5 326.5t202.5 201.5t138 68.5q36 0 56 -20t20 -56q0 -120 -211 -497zM622 344q-24 0 -38.5 15.5t-14.5 38.5q0 17 23 63
t58 83.5t70 37.5q26 0 42 -15t16 -40t-26.5 -70t-63 -79t-66.5 -34z" />
    <glyph glyph-name="uni0140.lDot" unicode="&#x140;" horiz-adv-x="469" 
d="M494 326v-74q-209 -277 -340 -277q-71 0 -111.5 77.5t-40.5 203.5q0 102 48 242.5t128.5 285t167 252t160.5 150.5q30 18 47 18q21 0 28 -18.5t7 -63.5q0 -139 -113 -341.5t-315 -413.5q-10 -52 -10 -80q0 -64 27.5 -104t76.5 -40q25 0 54 19.5t61 48.5t125 115zM195 506
q52 51 100.5 116t91.5 139t67.5 133t24.5 89q0 23 -16 23q-6 0 -23 -11q-61 -50 -137 -195.5t-108 -293.5zM426 476q-24 0 -38.5 15.5t-14.5 38.5q0 17 23 63t58 83.5t70 37.5q26 0 42 -15t16 -40t-26.5 -70t-63 -79t-66.5 -34z" />
    <glyph glyph-name="uni0141.LSlash" unicode="&#x141;" horiz-adv-x="1217" 
d="M1105 727q-82 -103 -143.5 -150t-90.5 -47q-24 0 -24 44q0 54 35.5 135.5t105.5 193.5q65 103 92 155.5t27 61.5q0 17 -16 17q-17 0 -58 -39.5t-102 -110.5t-138 -171t-166 -221l59 -5q20 5 30.5 6.5t12.5 1.5t18.5 -2t35.5 -6t34.5 -8.5t15.5 -8.5q-1 -4 -15.5 -19.5
t-38 -34t-52 -36t-56.5 -24.5q-20 -5 -60 -11t-97 -11q-35 -51 -61 -89t-40 -59q48 -5 85.5 -10t70 -11t63.5 -13t67 -16.5t79.5 -21.5l101.5 -28q164 -47 239 -54q-43 -49 -72.5 -83t-50 -56t-34 -34t-24 -18t-20 -7t-22.5 -1q-15 0 -36 3t-49.5 9t-65.5 15.5t-86 22.5
q-130 33 -239.5 55t-203.5 22q-53 0 -90 -12q-16 -5 -44 -16.5t-57.5 -22.5t-55.5 -19.5t-38 -8.5q-40 0 -40 35q0 16 14 38q32 54 63 101t66 75q34 27 99.5 42t174.5 16l93 141h-48q-57 0 -86 4.5t-29 19.5q0 8 14.5 29t40.5 47q63 63 224 68q124 177 231 313t195 229
t155 141t111 48q76 0 76 -79q0 -61 -54 -184.5t-157 -309.5z" />
    <glyph glyph-name="uni0142.lSlash" unicode="&#x142;" horiz-adv-x="469" 
d="M493 252q-208 -277 -340 -277q-33 0 -60.5 19.5t-48 54.5t-32 84t-11.5 108q0 108 43 239.5t118 272.5q-48 0 -73 5t-25 19q0 8 14 29t40 47q43 45 139 60q40 61 81.5 114t80.5 92.5t73 62t60 22.5q21 0 28 -18.5t7 -63.5t-11.5 -96.5t-35.5 -108.5q5 2 10 2h4q1 0 18 -2
t36 -6t35 -8.5t16 -8.5q-1 -3 -16 -19t-38.5 -34.5t-52 -36t-56.5 -24.5q-5 -2 -11.5 -3t-14.5 -3q-57 -99 -135.5 -201.5t-175.5 -205.5q-10 -50 -10 -80q0 -64 27.5 -104t76.5 -40q26 0 54 19.5t60 48.5l126 115v-74zM194 506q51 48 100 117t91 139q-23 -2 -50 -3.5
t-56 -3.5q-58 -120 -85 -249zM461 915q8 20 13 37t5 30q0 24 -17 24q-15 0 -38.5 -23.5t-49.5 -61.5z" />
    <glyph glyph-name="uni0143.NAcute" unicode="&#x143;" 
d="M219 387q179 293 267.5 461.5t88.5 214.5q0 17 -12 28t-28 11q-31 0 -175 -60q-119 -50 -174 -79.5t-151.5 -84.5t-110.5 -55q-28 0 -28 39q0 74 97 199t261 219q20 13 20 -2q0 -5 -24 -23t-42.5 -36.5t-41.5 -55.5q210 105 308.5 148t168.5 43q61 0 96 -25.5t35 -73.5
q0 -42 -33.5 -122t-97.5 -194.5t-130.5 -226.5t-240.5 -405q194 243 357 425t284 296t204 171.5t122 57.5q14 0 33 -26.5t34 -64.5t15 -62q0 -66 -33.5 -131t-99.5 -156q-188 -254 -274.5 -400t-86.5 -235q0 -67 70 -67q32 0 75 24t103 74t121 109l2 -78
q-86 -88 -154 -150.5t-128.5 -109.5t-108.5 -71t-84 -24q-52 0 -83.5 35.5t-31.5 93.5q0 54 23.5 130.5t72 176.5t120 217t161.5 244q88 126 88 162q0 21 -22 21q-89 0 -406 -355q-20 -22 -69.5 -81.5t-101 -126.5t-115.5 -150.5t-130 -169.5q-31 -41 -53 -41q-24 0 -63 39
t-39 57q0 21 55.5 105t89.5 141zM1042 1310q-17 0 -31 11.5t-14 25.5q0 37 104 189q45 63 75.5 83.5t86.5 20.5q74 0 74 -51q0 -29 -64.5 -96t-138 -125t-92.5 -58z" />
    <glyph glyph-name="uni0144.nAcute" unicode="&#x144;" horiz-adv-x="748" 
d="M690 496q-176 -196 -176 -273q0 -43 35 -43q29 0 75.5 30.5t145.5 108.5v-69q-142 -140 -218 -202t-124 -62q-82 0 -82 108q0 32 10 63t27.5 64.5t53.5 96t83 141.5q-57 -29 -143 -115q-56 -54 -95 -102.5t-83.5 -108t-65 -80t-41.5 -20.5q-32 0 -59 67t-27 156
q0 55 12.5 86t49.5 88q69 106 119 155.5t96 49.5q32 0 51.5 -11t19.5 -34q0 -10 -6 -21t-13.5 -20t-31.5 -35q-158 -175 -158 -227q0 -29 19 -29q12 0 46.5 38.5t89 101t129 130.5t169.5 131q53 37 88 37q16 0 31.5 -44t15.5 -89q0 -22 -43 -67zM617 769q-17 0 -31 11.5
t-14 25.5q0 37 104 189q45 63 75.5 83.5t86.5 20.5q74 0 74 -51q0 -29 -64.5 -96t-138 -125t-92.5 -58z" />
    <glyph glyph-name="uni0145.NCommaaccent" unicode="&#x145;" 
d="M219 387q179 293 267.5 461.5t88.5 214.5q0 17 -12 28t-28 11q-31 0 -175 -60q-119 -50 -174 -79.5t-151.5 -84.5t-110.5 -55q-28 0 -28 39q0 74 97 199t261 219q20 13 20 -2q0 -5 -24 -23t-42.5 -36.5t-41.5 -55.5q210 105 308.5 148t168.5 43q61 0 96 -25.5t35 -73.5
q0 -42 -33.5 -122t-97.5 -194.5t-130.5 -226.5t-240.5 -405q194 243 357 425t284 296t204 171.5t122 57.5q14 0 33 -26.5t34 -64.5t15 -62q0 -66 -33.5 -131t-99.5 -156q-188 -254 -274.5 -400t-86.5 -235q0 -67 70 -67q32 0 75 24t103 74t121 109l2 -78
q-86 -88 -154 -150.5t-128.5 -109.5t-108.5 -71t-84 -24q-52 0 -83.5 35.5t-31.5 93.5q0 54 23.5 130.5t72 176.5t120 217t161.5 244q88 126 88 162q0 21 -22 21q-89 0 -406 -355q-20 -22 -69.5 -81.5t-101 -126.5t-115.5 -150.5t-130 -169.5q-31 -41 -53 -41q-24 0 -63 39
t-39 57q0 21 55.5 105t89.5 141zM278 -325q-23 0 -33.5 10.5t-10.5 36.5q0 17 3 39.5t11 54.5q12 54 25 92t33 62.5t49.5 35.5t73.5 11q20 0 33 -9.5t13 -31.5q0 -5 -0.5 -9t-1.5 -9q-9 -39 -34 -88.5t-55 -92.5t-59 -72.5t-47 -29.5z" />
    <glyph glyph-name="uni0146.nCommaaccent" unicode="&#x146;" horiz-adv-x="748" 
d="M690 496q-176 -196 -176 -273q0 -43 35 -43q29 0 75.5 30.5t145.5 108.5v-69q-142 -140 -218 -202t-124 -62q-82 0 -82 108q0 32 10 63t27.5 64.5t53.5 96t83 141.5q-57 -29 -143 -115q-56 -54 -95 -102.5t-83.5 -108t-65 -80t-41.5 -20.5q-32 0 -59 67t-27 156
q0 55 12.5 86t49.5 88q69 106 119 155.5t96 49.5q32 0 51.5 -11t19.5 -34q0 -10 -6 -21t-13.5 -20t-31.5 -35q-158 -175 -158 -227q0 -29 19 -29q12 0 46.5 38.5t89 101t129 130.5t169.5 131q53 37 88 37q16 0 31.5 -44t15.5 -89q0 -22 -43 -67zM54 -408q-23 0 -33.5 10.5
t-10.5 36.5q0 17 3 39.5t11 54.5q12 54 25 92t33 62.5t49.5 35.5t73.5 11q20 0 33 -9.5t13 -31.5q0 -5 -0.5 -9t-1.5 -9q-9 -39 -34 -88.5t-55 -92.5t-59 -72.5t-47 -29.5z" />
    <glyph glyph-name="uni0147.NCaron" unicode="&#x147;" 
d="M219 387q179 293 267.5 461.5t88.5 214.5q0 17 -12 28t-28 11q-31 0 -175 -60q-119 -50 -174 -79.5t-151.5 -84.5t-110.5 -55q-28 0 -28 39q0 74 97 199t261 219q20 13 20 -2q0 -5 -24 -23t-42.5 -36.5t-41.5 -55.5q210 105 308.5 148t168.5 43q61 0 96 -25.5t35 -73.5
q0 -42 -33.5 -122t-97.5 -194.5t-130.5 -226.5t-240.5 -405q194 243 357 425t284 296t204 171.5t122 57.5q14 0 33 -26.5t34 -64.5t15 -62q0 -66 -33.5 -131t-99.5 -156q-188 -254 -274.5 -400t-86.5 -235q0 -67 70 -67q32 0 75 24t103 74t121 109l2 -78
q-86 -88 -154 -150.5t-128.5 -109.5t-108.5 -71t-84 -24q-52 0 -83.5 35.5t-31.5 93.5q0 54 23.5 130.5t72 176.5t120 217t161.5 244q88 126 88 162q0 21 -22 21q-89 0 -406 -355q-20 -22 -69.5 -81.5t-101 -126.5t-115.5 -150.5t-130 -169.5q-31 -41 -53 -41q-24 0 -63 39
t-39 57q0 21 55.5 105t89.5 141zM1066 1450q6 0 13.5 5.5t17.5 18l18 22.5q89 100 140 100q43 0 43 -39q0 -23 -52.5 -95t-118.5 -132t-110 -60q-35 0 -55.5 26.5t-42.5 94.5q-39 113 -39 160q0 15 10 29t27 14q16 0 37.5 -15t46.5 -45.5t43 -62.5q2 -5 9 -13t13 -8z" />
    <glyph glyph-name="uni0148.nCaron" unicode="&#x148;" horiz-adv-x="748" 
d="M690 496q-176 -196 -176 -273q0 -43 35 -43q29 0 75.5 30.5t145.5 108.5v-69q-142 -140 -218 -202t-124 -62q-82 0 -82 108q0 32 10 63t27.5 64.5t53.5 96t83 141.5q-57 -29 -143 -115q-56 -54 -95 -102.5t-83.5 -108t-65 -80t-41.5 -20.5q-32 0 -59 67t-27 156
q0 55 12.5 86t49.5 88q69 106 119 155.5t96 49.5q32 0 51.5 -11t19.5 -34q0 -10 -6 -21t-13.5 -20t-31.5 -35q-158 -175 -158 -227q0 -29 19 -29q12 0 46.5 38.5t89 101t129 130.5t169.5 131q53 37 88 37q16 0 31.5 -44t15.5 -89q0 -22 -43 -67zM625 909q6 0 13.5 5.5
t17.5 18l18 22.5q89 100 140 100q43 0 43 -39q0 -23 -52.5 -95t-118.5 -132t-110 -60q-35 0 -55.5 26.5t-42.5 94.5q-39 113 -39 160q0 15 10 29t27 14q16 0 37.5 -15t46.5 -45.5t43 -62.5q2 -5 9 -13t13 -8z" />
    <glyph glyph-name="uni0149.nApostrophe" unicode="&#x149;" horiz-adv-x="748" 
d="M690 496q-176 -196 -176 -273q0 -43 35 -43q29 0 75.5 30.5t145.5 108.5v-69q-142 -140 -218 -202t-124 -62q-82 0 -82 108q0 32 10 63t27.5 64.5t53.5 96t83 141.5q-57 -29 -143 -115q-56 -54 -95 -102.5t-83.5 -108t-65 -80t-41.5 -20.5q-32 0 -59 67t-27 156
q0 55 12.5 86t49.5 88q69 106 119 155.5t96 49.5q32 0 51.5 -11t19.5 -34q0 -10 -6 -21t-13.5 -20t-31.5 -35q-158 -175 -158 -227q0 -29 19 -29q12 0 46.5 38.5t89 101t129 130.5t169.5 131q53 37 88 37q16 0 31.5 -44t15.5 -89q0 -22 -43 -67zM449 776q0 6 -8 6
q-41 0 -41 41q0 33 26 77t64 76t67 32q41 0 41 -54t-39 -115.5t-87.5 -107t-61.5 -45.5q-6 0 -6 6q0 14 20 41q25 31 25 43z" />
    <glyph glyph-name="uni014A.Eng" unicode="&#x14a;" 
d="M228 86q-32 -41 -53 -41q-12 0 -29.5 12t-33.5 27.5t-27.5 32t-11.5 25.5q0 5 8 20.5t20.5 37t28 47t31.5 51t31 48.5t26 41q355 582 355 674q0 18 -10.5 29.5t-28.5 11.5q-34 0 -175 -60q-42 -18 -73 -32t-55.5 -25.5t-45 -22t-42.5 -22.5t-47.5 -27t-60.5 -35
q-95 -55 -110 -55q-29 0 -29 38q0 72 98 200q98 127 260 219q7 6 14 6q5 0 5 -8q-1 -3 -6 -8.5t-17 -14.5q-24 -18 -42.5 -37t-41.5 -55q108 54 181.5 90.5t126.5 59t91.5 32t76.5 9.5q63 0 97 -25.5t34 -74.5q0 -86 -131 -316q-24 -44 -44 -79.5t-41 -72t-45.5 -77.5
t-57.5 -96.5t-77.5 -129.5t-105.5 -176q195 244 355.5 423t283 296t205.5 174t123 57q12 -2 33 -27q29 -36 38.5 -70.5t9.5 -62.5q0 -31 -8 -61.5t-24.5 -64t-41.5 -71.5t-58 -83q-70 -95 -129.5 -184t-116 -175t-114 -172t-123.5 -176t-145 -186.5t-179 -203.5
q-48 -52 -96 -91t-90.5 -65.5t-78.5 -39.5t-61 -13q-17 0 -32.5 6.5t-27.5 17.5t-19 27t-7 35q0 21 10 47t25.5 52.5t35 51.5t38.5 44.5t36 31.5t27 12q16 0 20.5 -9.5t4.5 -21.5q0 -5 -0.5 -11t-0.5 -11q0 -18 11 -18q6 0 17 8q51 35 87 57.5t50 41.5q101 136 174 236
t128 176t96.5 136t80.5 116t80.5 115t95.5 135q45 63 66.5 104t21.5 58q0 21 -22 21q-90 0 -406 -355l-69 -82q-51 -60 -102 -126z" />
    <glyph glyph-name="uni014B.eng" unicode="&#x14b;" horiz-adv-x="748" 
d="M769 250q-113 -148 -222 -284t-212 -246q-48 -52 -96 -91t-90.5 -65.5t-78.5 -39.5t-61 -13q-34 0 -60 24t-26 62q0 21 10 47t25.5 52.5t35 51.5t38.5 44.5t36 31.5t27 12q16 0 20.5 -9.5t4.5 -21.5q0 -5 -0.5 -11t-0.5 -11q0 -18 11 -18q6 0 17 8q69 49 134.5 104
t123.5 112q-27 7 -44 30.5t-17 65.5q0 31 8 61t28 70.5t53.5 98t85.5 144.5q-33 -17 -74.5 -52.5t-85 -80.5t-86 -95.5t-76.5 -97.5q-22 -30 -37.5 -49t-27.5 -30.5t-21.5 -16t-19.5 -4.5q-16 0 -31.5 19t-27.5 50.5t-19.5 70.5t-7.5 80q0 20 1 36.5t7 35.5t18.5 43.5
t36.5 61.5q68 106 118 155.5t96 49.5q29 0 49.5 -10t20.5 -33q0 -10 -2 -17t-7.5 -15t-15.5 -18.5t-25 -27.5q-82 -91 -120.5 -147t-38.5 -83q0 -13 6 -19.5t14 -6.5q13 0 46.5 40t88 100.5t129.5 130.5t170 130q52 37 88 37q4 0 12.5 -11t16 -28t13.5 -38t6 -41
q0 -9 -1.5 -17.5t-6 -18t-13 -20.5t-23.5 -26q-91 -103 -134 -170t-43 -106q0 -20 10 -30t26 -10q15 0 32.5 7t42.5 23.5t60.5 43t85.5 65.5v-69z" />
    <glyph glyph-name="uni014C.OMacron" unicode="&#x14c;" 
d="M772 1026q27 7 54.5 14t56 12t55.5 5q58 0 99.5 -26t62 -70.5t20.5 -96.5q0 -81 -29.5 -185.5t-84.5 -212.5t-129 -204q-101 -130 -242.5 -209.5t-259.5 -79.5q-87 0 -153.5 47.5t-104 138t-37.5 212.5q0 164 89.5 328.5t226 298t275.5 214t226 80.5q71 0 109 -43.5
t71 -140.5q-93 -3 -162 -22.5t-143 -59.5zM520 823q-70 -75 -141.5 -193.5t-115.5 -232.5t-44 -174q0 -149 139 -149q97 0 250.5 131t267 315.5t113.5 335.5q0 111 -88 111q-68 0 -166 -54t-188 -153q-32 -36 -127 -176q18 94 100 239zM1210 1400q-10 -3 -36.5 -6t-63.5 -6
t-81 -6t-89 -5t-88.5 -3t-78.5 -1q-57 0 -86 4t-29 19q0 20 54 77q16 17 45.5 29.5t68 21t82.5 13t89 4.5q7 0 32.5 -0.5t59.5 -1.5t70.5 -3t65.5 -5q20 5 30.5 6.5t12.5 1.5q1 0 18 -2t36 -6t35 -8.5t16 -8.5q-1 -3 -16 -19t-38.5 -34.5t-52 -36t-56.5 -24.5z" />
    <glyph glyph-name="uni014D.oMacron" unicode="&#x14d;" horiz-adv-x="641" 
d="M659 317v-67q-66 -60 -106 -80t-115 -16q-130 -154 -229 -154q-56 0 -102 37t-73.5 101t-27.5 143q0 64 42.5 142t110 145.5t144.5 109t143 41.5q47 0 74 -14.5t27 -40.5q0 -20 -23 -46q38 -8 52 -26.5t14 -67.5q0 -48 -22.5 -121t-61.5 -137l18 -18h15q17 0 33.5 8.5
t29.5 18t57 42.5zM453 580q-83 -50 -142 -90.5t-100 -82t-55 -83.5q-25 -112 -25 -121q0 -66 92 -66q43 0 144 74q-17 47 -17 90q0 63 26 128.5t77 150.5zM748 808q-10 -3 -36.5 -6t-63.5 -6t-81 -6t-89 -5t-88.5 -3t-78.5 -1q-57 0 -86 4t-29 19q0 20 54 77
q16 17 45.5 29.5t68 21t82.5 13t89 4.5q7 0 32.5 -0.5t59.5 -1.5t70.5 -3t65.5 -5q20 5 30.5 6.5t12.5 1.5q1 0 18 -2t36 -6t35 -8.5t16 -8.5q-1 -3 -16 -19t-38.5 -34.5t-52 -36t-56.5 -24.5z" />
    <glyph glyph-name="uni014E.OBreve" unicode="&#x14e;" 
d="M772 1026q27 7 54.5 14t56 12t55.5 5q58 0 99.5 -26t62 -70.5t20.5 -96.5q0 -81 -29.5 -185.5t-84.5 -212.5t-129 -204q-101 -130 -242.5 -209.5t-259.5 -79.5q-87 0 -153.5 47.5t-104 138t-37.5 212.5q0 164 89.5 328.5t226 298t275.5 214t226 80.5q71 0 109 -43.5
t71 -140.5q-93 -3 -162 -22.5t-143 -59.5zM520 823q-70 -75 -141.5 -193.5t-115.5 -232.5t-44 -174q0 -149 139 -149q97 0 250.5 131t267 315.5t113.5 335.5q0 111 -88 111q-68 0 -166 -54t-188 -153q-32 -36 -127 -176q18 94 100 239zM778 1599q25 0 62 -37
q38 -36 72.5 -51.5t80.5 -15.5q84 0 166 65q37 31 55 31t30.5 -13t12.5 -36q0 -39 -39.5 -85.5t-106 -79t-136.5 -32.5q-104 0 -176 66t-72 129q0 24 14.5 41.5t36.5 17.5z" />
    <glyph glyph-name="uni014F.oBreve" unicode="&#x14f;" horiz-adv-x="641" 
d="M659 317v-67q-66 -60 -106 -80t-115 -16q-130 -154 -229 -154q-56 0 -102 37t-73.5 101t-27.5 143q0 64 42.5 142t110 145.5t144.5 109t143 41.5q47 0 74 -14.5t27 -40.5q0 -20 -23 -46q38 -8 52 -26.5t14 -67.5q0 -48 -22.5 -121t-61.5 -137l18 -18h15q17 0 33.5 8.5
t29.5 18t57 42.5zM453 580q-83 -50 -142 -90.5t-100 -82t-55 -83.5q-25 -112 -25 -121q0 -66 92 -66q43 0 144 74q-17 47 -17 90q0 63 26 128.5t77 150.5zM365 1021q25 0 62 -37q38 -36 72.5 -51.5t80.5 -15.5q84 0 166 65q37 31 55 31t30.5 -13t12.5 -36q0 -39 -39.5 -85.5
t-106 -79t-136.5 -32.5q-104 0 -176 66t-72 129q0 24 14.5 41.5t36.5 17.5z" />
    <glyph glyph-name="uni0150.ODoubleAcute" unicode="&#x150;" 
d="M772 1026q27 7 54.5 14t56 12t55.5 5q58 0 99.5 -26t62 -70.5t20.5 -96.5q0 -81 -29.5 -185.5t-84.5 -212.5t-129 -204q-101 -130 -242.5 -209.5t-259.5 -79.5q-87 0 -153.5 47.5t-104 138t-37.5 212.5q0 164 89.5 328.5t226 298t275.5 214t226 80.5q71 0 109 -43.5
t71 -140.5q-93 -3 -162 -22.5t-143 -59.5zM520 823q-70 -75 -141.5 -193.5t-115.5 -232.5t-44 -174q0 -149 139 -149q97 0 250.5 131t267 315.5t113.5 335.5q0 111 -88 111q-68 0 -166 -54t-188 -153q-32 -36 -127 -176q18 94 100 239zM739 1337q-14 0 -29.5 11.5
t-15.5 23.5q0 42 105 191q46 63 72.5 83.5t82.5 20.5q40 0 60 -10t20 -43q0 -26 -64 -92.5t-137.5 -125.5t-93.5 -59zM1077 1337q-16 0 -30.5 12t-14.5 23q0 38 105 191q43 62 71.5 83t83.5 21q40 0 60 -10t20 -43q0 -26 -64 -92.5t-137.5 -125.5t-93.5 -59z" />
    <glyph glyph-name="uni0151.oDoubleAcute" unicode="&#x151;" horiz-adv-x="641" 
d="M659 317v-67q-66 -60 -106 -80t-115 -16q-130 -154 -229 -154q-56 0 -102 37t-73.5 101t-27.5 143q0 64 42.5 142t110 145.5t144.5 109t143 41.5q47 0 74 -14.5t27 -40.5q0 -20 -23 -46q38 -8 52 -26.5t14 -67.5q0 -48 -22.5 -121t-61.5 -137l18 -18h15q17 0 33.5 8.5
t29.5 18t57 42.5zM453 580q-83 -50 -142 -90.5t-100 -82t-55 -83.5q-25 -112 -25 -121q0 -66 92 -66q43 0 144 74q-17 47 -17 90q0 63 26 128.5t77 150.5zM308 751q-14 0 -29.5 11.5t-15.5 23.5q0 42 105 191q46 63 72.5 83.5t82.5 20.5q40 0 60 -10t20 -43q0 -26 -64 -92.5
t-137.5 -125.5t-93.5 -59zM646 751q-16 0 -30.5 12t-14.5 23q0 38 105 191q43 62 71.5 83t83.5 21q40 0 60 -10t20 -43q0 -26 -64 -92.5t-137.5 -125.5t-93.5 -59z" />
    <glyph glyph-name="OE" unicode="&#x152;" horiz-adv-x="1749" 
d="M377 -31q-77 0 -143 47.5t-106 144t-40 232.5q0 171 82 337.5t209 298.5t260.5 209t228.5 77q52 0 91.5 -16.5t91.5 -51.5q73 54 133 86t125.5 45t165.5 13q105 0 185 -8t97 -13q52 -15 61 -39t9 -98q0 -57 -5 -79.5t-32.5 -42t-99.5 -42.5q-19 -5 -43.5 -17t-55.5 -31.5
t-51 -32.5t-76 -48q32 60 67 95t101 83q-74 28 -138 37.5t-144 9.5q-52 0 -93 -4.5t-65.5 -9.5t-63.5 -14q13 -35 24 -83t11 -106q0 -109 -76 -313q88 3 196 9.5t136 6.5q25 0 39.5 -7.5t14.5 -22.5q0 -13 -19 -50t-45 -70.5t-53 -49.5q-49 -31 -199 -31h-174
q-90 -155 -217 -270q19 -42 71 -62t142 -20q102 0 234 38.5t237 104.5q67 44 246 182q-2 -100 -24.5 -169t-96.5 -142q-66 -65 -171.5 -120.5t-228.5 -87.5t-237 -32q-100 0 -170 20t-113 59.5t-71 103.5q-116 -56 -207 -56zM553 934q-108 -139 -183 -276t-113 -249
t-38 -184q0 -68 35 -108.5t94 -40.5q64 0 156.5 52.5t183.5 150.5q103 109 179 240.5t116.5 251.5t40.5 196q0 73 -23.5 105t-76.5 32q-67 0 -136 -42.5t-125 -102.5t-103 -121t-85 -111q10 40 27 87t29 72.5t22 47.5z" />
    <glyph glyph-name="oe" unicode="&#x153;" horiz-adv-x="981" 
d="M879 731q106 0 106 -88q0 -40 -23 -84.5t-74.5 -93.5t-132.5 -95t-190 -83q-2 -17 -2 -41q0 -51 27 -84t76 -33q63 0 145 46t193 136v-59q-112 -138 -219 -208.5t-183 -70.5q-78 0 -122.5 36.5t-73.5 107.5q-133 -119 -205 -119q-46 0 -91 37.5t-72.5 99t-27.5 127.5
q0 78 42 159.5t109.5 149t141.5 108t137 40.5q91 0 199 -84q67 47 132 71.5t108 24.5zM578 582q-34 12 -68 12q-87 0 -229 -123q-146 -122 -146 -258q0 -33 18.5 -55.5t45.5 -22.5q81 0 194 94q4 98 50.5 186.5t134.5 166.5zM580 344q90 38 152.5 88t95 98t32.5 76
q0 25 -31 25q-22 0 -83 -44t-111 -109.5t-55 -133.5z" />
    <glyph glyph-name="uni0154.RAcute" unicode="&#x154;" horiz-adv-x="1343" 
d="M776 92l-377 184q-144 -197 -161 -260q-12 -45 -53.5 -75.5t-59.5 -30.5q-51 0 -51 39q0 22 60.5 126.5t166.5 246.5q-59 24 -73 32t-11 30.5t35 70.5q28 42 42 56.5t33 23t40 11.5t118 15q79 107 171.5 231t144.5 193q-157 -21 -219 -35q-66 -13 -110.5 -21.5t-62.5 -15
t-18 -18.5q0 -11 22 -15t55.5 -4t52 -2.5t18.5 -11.5q0 -10 -24.5 -11.5t-137.5 -6.5q-64 -2 -107.5 -4t-60.5 -2q-23 0 -36 14t-13 37q0 17 19 63t54 93t80 73q51 31 158.5 62.5t239 51t260.5 19.5q78 0 152.5 -9t135 -22t95.5 -26q91 -30 139.5 -91t48.5 -134
q0 -71 -24.5 -138.5t-75 -125t-121.5 -93.5q-58 -30 -176 -61t-285 -55t-373 -35q154 -54 287.5 -108.5t225 -97t143.5 -69.5q73 -38 95 -55t29 -44t7 -89q0 -70 -8.5 -103.5t-36.5 -33.5q-9 0 -47.5 19.5t-106.5 57t-123.5 67t-175.5 87.5zM864 995q1 -7 1.5 -13t0.5 -17
q0 -28 -17.5 -64.5t-45 -75t-82 -110t-100.5 -131.5q210 40 358.5 77t244.5 74.5t144.5 79t48.5 86.5q0 50 -101.5 78.5t-248.5 28.5q-30 0 -63.5 -1.5t-80 -6t-59.5 -5.5zM1121 1289q-17 0 -31 11.5t-14 25.5q0 37 104 189q45 63 75.5 83.5t86.5 20.5q74 0 74 -51
q0 -29 -64.5 -96t-138 -125t-92.5 -58z" />
    <glyph glyph-name="uni0155.rAcute" unicode="&#x155;" horiz-adv-x="598" 
d="M6 238v65q54 64 82 109q-32 11 -46.5 27t-14.5 48q0 36 30 91t74 103t80 62q14 7 27 7q20 0 20 -19q0 -17 -31 -69q206 32 260 32q21 0 29 -4q17 -9 28 -42t11 -66q0 -21 -18.5 -45.5t-63.5 -71.5q-53 -57 -89 -124t-36 -101q0 -47 58 -47q61 0 212 124v-67
q-83 -87 -137 -137t-100 -79.5t-82 -29.5q-42 0 -70 38.5t-28 111.5q0 43 22 98t64.5 119.5t95.5 128.5q-28 -6 -63 -12.5t-74 -13.5t-60 -11q-62 -124 -180 -225zM405 754q-17 0 -31 11.5t-14 25.5q0 37 104 189q45 63 75.5 83.5t86.5 20.5q74 0 74 -51q0 -29 -64.5 -96
t-138 -125t-92.5 -58z" />
    <glyph glyph-name="uni0156.RCommaaccent" unicode="&#x156;" horiz-adv-x="1343" 
d="M776 92l-377 184q-144 -197 -161 -260q-12 -45 -53.5 -75.5t-59.5 -30.5q-51 0 -51 39q0 22 60.5 126.5t166.5 246.5q-59 24 -73 32t-11 30.5t35 70.5q28 42 42 56.5t33 23t40 11.5t118 15q79 107 171.5 231t144.5 193q-157 -21 -219 -35q-66 -13 -110.5 -21.5t-62.5 -15
t-18 -18.5q0 -11 22 -15t55.5 -4t52 -2.5t18.5 -11.5q0 -10 -24.5 -11.5t-137.5 -6.5q-64 -2 -107.5 -4t-60.5 -2q-23 0 -36 14t-13 37q0 17 19 63t54 93t80 73q51 31 158.5 62.5t239 51t260.5 19.5q78 0 152.5 -9t135 -22t95.5 -26q91 -30 139.5 -91t48.5 -134
q0 -71 -24.5 -138.5t-75 -125t-121.5 -93.5q-58 -30 -176 -61t-285 -55t-373 -35q154 -54 287.5 -108.5t225 -97t143.5 -69.5q73 -38 95 -55t29 -44t7 -89q0 -70 -8.5 -103.5t-36.5 -33.5q-9 0 -47.5 19.5t-106.5 57t-123.5 67t-175.5 87.5zM864 995q1 -7 1.5 -13t0.5 -17
q0 -28 -17.5 -64.5t-45 -75t-82 -110t-100.5 -131.5q210 40 358.5 77t244.5 74.5t144.5 79t48.5 86.5q0 50 -101.5 78.5t-248.5 28.5q-30 0 -63.5 -1.5t-80 -6t-59.5 -5.5zM363 -345q-23 0 -33.5 10.5t-10.5 36.5q0 17 3 39.5t11 54.5q12 54 25 92t33 62.5t49.5 35.5
t73.5 11q20 0 33 -9.5t13 -31.5q0 -5 -0.5 -9t-1.5 -9q-9 -39 -34 -88.5t-55 -92.5t-59 -72.5t-47 -29.5z" />
    <glyph glyph-name="uni0157.rCommaaccent" unicode="&#x157;" horiz-adv-x="598" 
d="M6 238v65q54 64 82 109q-32 11 -46.5 27t-14.5 48q0 36 30 91t74 103t80 62q14 7 27 7q20 0 20 -19q0 -17 -31 -69q206 32 260 32q21 0 29 -4q17 -9 28 -42t11 -66q0 -21 -18.5 -45.5t-63.5 -71.5q-53 -57 -89 -124t-36 -101q0 -47 58 -47q61 0 212 124v-67
q-83 -87 -137 -137t-100 -79.5t-82 -29.5q-42 0 -70 38.5t-28 111.5q0 43 22 98t64.5 119.5t95.5 128.5q-28 -6 -63 -12.5t-74 -13.5t-60 -11q-62 -124 -180 -225zM-43 -433q-23 0 -33.5 10.5t-10.5 36.5q0 17 3 39.5t11 54.5q12 54 25 92t33 62.5t49.5 35.5t73.5 11
q20 0 33 -9.5t13 -31.5q0 -5 -0.5 -9t-1.5 -9q-9 -39 -34 -88.5t-55 -92.5t-59 -72.5t-47 -29.5z" />
    <glyph glyph-name="uni0158.RCaron" unicode="&#x158;" horiz-adv-x="1343" 
d="M776 92l-377 184q-144 -197 -161 -260q-12 -45 -53.5 -75.5t-59.5 -30.5q-51 0 -51 39q0 22 60.5 126.5t166.5 246.5q-59 24 -73 32t-11 30.5t35 70.5q28 42 42 56.5t33 23t40 11.5t118 15q79 107 171.5 231t144.5 193q-157 -21 -219 -35q-66 -13 -110.5 -21.5t-62.5 -15
t-18 -18.5q0 -11 22 -15t55.5 -4t52 -2.5t18.5 -11.5q0 -10 -24.5 -11.5t-137.5 -6.5q-64 -2 -107.5 -4t-60.5 -2q-23 0 -36 14t-13 37q0 17 19 63t54 93t80 73q51 31 158.5 62.5t239 51t260.5 19.5q78 0 152.5 -9t135 -22t95.5 -26q91 -30 139.5 -91t48.5 -134
q0 -71 -24.5 -138.5t-75 -125t-121.5 -93.5q-58 -30 -176 -61t-285 -55t-373 -35q154 -54 287.5 -108.5t225 -97t143.5 -69.5q73 -38 95 -55t29 -44t7 -89q0 -70 -8.5 -103.5t-36.5 -33.5q-9 0 -47.5 19.5t-106.5 57t-123.5 67t-175.5 87.5zM864 995q1 -7 1.5 -13t0.5 -17
q0 -28 -17.5 -64.5t-45 -75t-82 -110t-100.5 -131.5q210 40 358.5 77t244.5 74.5t144.5 79t48.5 86.5q0 50 -101.5 78.5t-248.5 28.5q-30 0 -63.5 -1.5t-80 -6t-59.5 -5.5zM1253 1482q6 0 13.5 5.5t17.5 18l18 22.5q89 100 140 100q43 0 43 -39q0 -23 -52.5 -95t-118.5 -132
t-110 -60q-35 0 -55.5 26.5t-42.5 94.5q-39 113 -39 160q0 15 10 29t27 14q16 0 37.5 -15t46.5 -45.5t43 -62.5q2 -5 9 -13t13 -8z" />
    <glyph glyph-name="uni0159.rCaron" unicode="&#x159;" horiz-adv-x="598" 
d="M6 238v65q54 64 82 109q-32 11 -46.5 27t-14.5 48q0 36 30 91t74 103t80 62q14 7 27 7q20 0 20 -19q0 -17 -31 -69q206 32 260 32q21 0 29 -4q17 -9 28 -42t11 -66q0 -21 -18.5 -45.5t-63.5 -71.5q-53 -57 -89 -124t-36 -101q0 -47 58 -47q61 0 212 124v-67
q-83 -87 -137 -137t-100 -79.5t-82 -29.5q-42 0 -70 38.5t-28 111.5q0 43 22 98t64.5 119.5t95.5 128.5q-28 -6 -63 -12.5t-74 -13.5t-60 -11q-62 -124 -180 -225zM501 960q6 0 13.5 5.5t17.5 18l18 22.5q89 100 140 100q43 0 43 -39q0 -23 -52.5 -95t-118.5 -132t-110 -60
q-35 0 -55.5 26.5t-42.5 94.5q-39 113 -39 160q0 15 10 29t27 14q16 0 37.5 -15t46.5 -45.5t43 -62.5q2 -5 9 -13t13 -8z" />
    <glyph glyph-name="uni015A.SAcute" unicode="&#x15a;" horiz-adv-x="1323" 
d="M1051 289q-25 46 -75 83t-112.5 59.5t-130.5 33.5q-202 30 -377 131q-15 8 -32 34t-17 50q0 88 29.5 176.5t75.5 138.5q74 83 266.5 145t433.5 62q144 0 222.5 -22t78.5 -68q0 -75 -20.5 -116t-44 -54.5t-82.5 -36.5q-63 -22 -109.5 -46t-79.5 -46t-41 -22q-10 0 -10 8
q0 17 35.5 51.5t87.5 60.5q55 29 55 37q0 13 -61 13q-185 0 -342 -33t-247.5 -87t-90.5 -110q0 -35 37.5 -49.5t165.5 -48.5t229 -78q145 -62 215 -129t70 -150q0 -57 -27.5 -114.5t-80.5 -105.5t-122 -79q-59 -25 -148.5 -47t-194 -34.5t-199.5 -12.5q-175 0 -281.5 33
t-106.5 100q0 30 36 93.5t85 85.5q43 17 83 19.5t40 -9.5q0 -3 -3 -6t-7 -5l-8 -4q-20 -8 -32.5 -12.5t-20 -9t-7.5 -12.5q0 -21 207 -21q180 0 295 13t203 47t160 94zM1038 1264q-17 0 -31 11.5t-14 25.5q0 37 104 189q45 63 75.5 83.5t86.5 20.5q74 0 74 -51
q0 -29 -64.5 -96t-138 -125t-92.5 -58z" />
    <glyph glyph-name="uni015B.sAcute" unicode="&#x15b;" horiz-adv-x="639" 
d="M12 287v24q258 272 355 381q22 123 106 123q21 0 45 -12l6 -19q-4 -12 -4 -34q0 -19 14.5 -70.5t22.5 -86.5t8 -79q0 -66 -30 -126.5t-87 -116t-147 -113.5q36 -6 57 -6q41 0 88.5 20.5t97 55t115.5 89.5v-67q-128 -125 -229 -189.5t-174 -64.5q-94 0 -174 80
q-47 48 -58.5 92t-11.5 119zM385 440l-18 146q-62 -70 -265 -269q60 -13 82 -35t62 -85q68 28 104.5 76.5t36.5 132.5q0 10 -0.5 18t-1.5 16zM513 901q-17 0 -31 11.5t-14 25.5q0 37 104 189q45 63 75.5 83.5t86.5 20.5q74 0 74 -51q0 -29 -64.5 -96t-138 -125t-92.5 -58z
" />
    <glyph glyph-name="uni015C.SCircumflex" unicode="&#x15c;" horiz-adv-x="1323" 
d="M1051 289q-25 46 -75 83t-112.5 59.5t-130.5 33.5q-202 30 -377 131q-15 8 -32 34t-17 50q0 88 29.5 176.5t75.5 138.5q74 83 266.5 145t433.5 62q144 0 222.5 -22t78.5 -68q0 -75 -20.5 -116t-44 -54.5t-82.5 -36.5q-63 -22 -109.5 -46t-79.5 -46t-41 -22q-10 0 -10 8
q0 17 35.5 51.5t87.5 60.5q55 29 55 37q0 13 -61 13q-185 0 -342 -33t-247.5 -87t-90.5 -110q0 -35 37.5 -49.5t165.5 -48.5t229 -78q145 -62 215 -129t70 -150q0 -57 -27.5 -114.5t-80.5 -105.5t-122 -79q-59 -25 -148.5 -47t-194 -34.5t-199.5 -12.5q-175 0 -281.5 33
t-106.5 100q0 30 36 93.5t85 85.5q43 17 83 19.5t40 -9.5q0 -3 -3 -6t-7 -5l-8 -4q-20 -8 -32.5 -12.5t-20 -9t-7.5 -12.5q0 -21 207 -21q180 0 295 13t203 47t160 94zM1101 1408q-9 0 -23.5 -15t-28.5 -30q-90 -101 -137 -101q-45 0 -45 39q0 22 53 95t117.5 132.5
t110.5 59.5t73 -57q24 -49 44 -126t20 -98q0 -15 -10.5 -29t-26.5 -14q-26 0 -60 32.5t-67 90.5q-7 21 -20 21z" />
    <glyph glyph-name="uni015D.sCircumflex" unicode="&#x15d;" horiz-adv-x="639" 
d="M12 287v24q258 272 355 381q22 123 106 123q21 0 45 -12l6 -19q-4 -12 -4 -34q0 -19 14.5 -70.5t22.5 -86.5t8 -79q0 -66 -30 -126.5t-87 -116t-147 -113.5q36 -6 57 -6q41 0 88.5 20.5t97 55t115.5 89.5v-67q-128 -125 -229 -189.5t-174 -64.5q-94 0 -174 80
q-47 48 -58.5 92t-11.5 119zM385 440l-18 146q-62 -70 -265 -269q60 -13 82 -35t62 -85q68 28 104.5 76.5t36.5 132.5q0 10 -0.5 18t-1.5 16zM550 996q-9 0 -23.5 -15t-28.5 -30q-90 -101 -137 -101q-45 0 -45 39q0 22 53 95t117.5 132.5t110.5 59.5t73 -57q24 -49 44 -126
t20 -98q0 -15 -10.5 -29t-26.5 -14q-26 0 -60 32.5t-67 90.5q-7 21 -20 21z" />
    <glyph glyph-name="uni015E.SCedilla" unicode="&#x15e;" horiz-adv-x="1323" 
d="M1051 289q-25 46 -75 83t-112.5 59.5t-130.5 33.5q-202 30 -377 131q-15 8 -32 34t-17 50q0 88 29.5 176.5t75.5 138.5q74 83 266.5 145t433.5 62q144 0 222.5 -22t78.5 -68q0 -75 -20.5 -116t-44 -54.5t-82.5 -36.5q-63 -22 -109.5 -46t-79.5 -46t-41 -22q-10 0 -10 8
q0 17 35.5 51.5t87.5 60.5q55 29 55 37q0 13 -61 13q-185 0 -342 -33t-247.5 -87t-90.5 -110q0 -35 37.5 -49.5t165.5 -48.5t229 -78q145 -62 215 -129t70 -150q0 -57 -27.5 -114.5t-80.5 -105.5t-122 -79q-59 -25 -148.5 -47t-194 -34.5t-199.5 -12.5q-175 0 -281.5 33
t-106.5 100q0 30 36 93.5t85 85.5q43 17 83 19.5t40 -9.5q0 -3 -3 -6t-7 -5l-8 -4q-20 -8 -32.5 -12.5t-20 -9t-7.5 -12.5q0 -21 207 -21q180 0 295 13t203 47t160 94zM440 -180q51 0 81 -27.5t30 -75.5q0 -61 -43 -110.5t-110.5 -79t-137.5 -29.5q-61 0 -61 29
q0 15 10.5 18.5t34.5 8.5q65 9 112 44.5t47 77.5q0 20 -10.5 30.5t-27.5 10.5q-9 0 -15.5 -0.5t-13.5 -1.5q-25 0 -25 25q0 28 41.5 54t87.5 26z" />
    <glyph glyph-name="uni015F.sCedilla" unicode="&#x15f;" horiz-adv-x="639" 
d="M12 287v24q258 272 355 381q22 123 106 123q21 0 45 -12l6 -19q-4 -12 -4 -34q0 -19 14.5 -70.5t22.5 -86.5t8 -79q0 -66 -30 -126.5t-87 -116t-147 -113.5q36 -6 57 -6q41 0 88.5 20.5t97 55t115.5 89.5v-67q-128 -125 -229 -189.5t-174 -64.5q-94 0 -174 80
q-47 48 -58.5 92t-11.5 119zM385 440l-18 146q-62 -70 -265 -269q60 -13 82 -35t62 -85q68 28 104.5 76.5t36.5 132.5q0 10 -0.5 18t-1.5 16zM125 -65q51 0 81 -27.5t30 -75.5q0 -61 -43 -110.5t-110.5 -79t-137.5 -29.5q-61 0 -61 29q0 15 10.5 18.5t34.5 8.5
q65 9 112 44.5t47 77.5q0 20 -10.5 30.5t-27.5 10.5q-9 0 -15.5 -0.5t-13.5 -1.5q-25 0 -25 25q0 28 41.5 54t87.5 26z" />
    <glyph glyph-name="Scaron" unicode="&#x160;" horiz-adv-x="1323" 
d="M1051 289q-25 46 -75 83t-112.5 59.5t-130.5 33.5q-202 30 -377 131q-15 8 -32 34t-17 50q0 88 29.5 176.5t75.5 138.5q74 83 266.5 145t433.5 62q144 0 222.5 -22t78.5 -68q0 -75 -20.5 -116t-44 -54.5t-82.5 -36.5q-63 -22 -109.5 -46t-79.5 -46t-41 -22q-10 0 -10 8
q0 17 35.5 51.5t87.5 60.5q55 29 55 37q0 13 -61 13q-185 0 -342 -33t-247.5 -87t-90.5 -110q0 -35 37.5 -49.5t165.5 -48.5t229 -78q145 -62 215 -129t70 -150q0 -57 -27.5 -114.5t-80.5 -105.5t-122 -79q-59 -25 -148.5 -47t-194 -34.5t-199.5 -12.5q-175 0 -281.5 33
t-106.5 100q0 30 36 93.5t85 85.5q43 17 83 19.5t40 -9.5q0 -3 -3 -6t-7 -5l-8 -4q-20 -8 -32.5 -12.5t-20 -9t-7.5 -12.5q0 -21 207 -21q180 0 295 13t203 47t160 94zM1133 1662q6 0 13.5 5.5t17.5 18l18 22.5q89 100 140 100q43 0 43 -39q0 -23 -52.5 -95t-118.5 -132
t-110 -60q-35 0 -55.5 26.5t-42.5 94.5q-39 113 -39 160q0 15 10 29t27 14q16 0 37.5 -15t46.5 -45.5t43 -62.5q2 -5 9 -13t13 -8z" />
    <glyph glyph-name="scaron" unicode="&#x161;" horiz-adv-x="639" 
d="M12 287v24q258 272 355 381q22 123 106 123q21 0 45 -12l6 -19q-4 -12 -4 -34q0 -19 14.5 -70.5t22.5 -86.5t8 -79q0 -66 -30 -126.5t-87 -116t-147 -113.5q36 -6 57 -6q41 0 88.5 20.5t97 55t115.5 89.5v-67q-128 -125 -229 -189.5t-174 -64.5q-94 0 -174 80
q-47 48 -58.5 92t-11.5 119zM385 440l-18 146q-62 -70 -265 -269q60 -13 82 -35t62 -85q68 28 104.5 76.5t36.5 132.5q0 10 -0.5 18t-1.5 16zM520 1087q6 0 13.5 5.5t17.5 18l18 22.5q89 100 140 100q43 0 43 -39q0 -23 -52.5 -95t-118.5 -132t-110 -60q-35 0 -55.5 26.5
t-42.5 94.5q-39 113 -39 160q0 15 10 29t27 14q16 0 37.5 -15t46.5 -45.5t43 -62.5q2 -5 9 -13t13 -8z" />
    <glyph glyph-name="uni0162.TCedilla" unicode="&#x162;" 
d="M817 199l33 -25q-13 -28 -25 -49t-29 -51t-26 -45q-75 -131 -141 -131q-28 0 -48 22t-20 60q0 54 38.5 148t119 231.5t202.5 311.5t275 367q-88 13 -209 13q-139 0 -309.5 -31t-297 -71.5t-126.5 -59.5q0 -7 5 -9.5t16.5 -4t29.5 -3.5q117 -16 117 -36q0 -10 -51 -9.5
t-123 0.5q-57 0 -82.5 4.5t-34 17t-8.5 38.5q0 17 10 74q19 106 58.5 170t121 104.5t224.5 64.5q240 41 397 41q116 0 183 -9.5t98.5 -27.5t40 -35.5t22.5 -60.5l31 -92q3 -9 5 -14.5t3.5 -11.5t1.5 -11q0 -39 -17.5 -70t-64 -93t-68.5 -97q-258 -419 -352 -620zM521 -180
q51 0 81 -27.5t30 -75.5q0 -61 -43 -110.5t-110.5 -79t-137.5 -29.5q-61 0 -61 29q0 15 10.5 18.5t34.5 8.5q65 9 112 44.5t47 77.5q0 20 -10.5 30.5t-27.5 10.5q-9 0 -15.5 -0.5t-13.5 -1.5q-25 0 -25 25q0 28 41.5 54t87.5 26z" />
    <glyph glyph-name="uni0163.tCedilla" unicode="&#x163;" horiz-adv-x="512" 
d="M367 834h43q53 95 96 134.5t98 39.5t55 -25q0 -12 -43 -65t-65 -89q34 -4 60.5 -7t41.5 -5q-57 -106 -143 -217q-28 2 -47 3.5t-38.5 3t-47.5 3.5q-54 -87 -90.5 -155.5t-56 -125.5t-19.5 -108q0 -69 55 -69q38 0 99.5 40.5t164.5 124.5v-67q-270 -293 -399 -293
q-45 0 -72.5 35t-27.5 90q0 37 15.5 88t55.5 154q-14 -12 -26.5 -23.5t-23 -21t-22.5 -20t-24 -21.5v69q105 88 254 309q-15 1 -28 1.5t-31 0.5q-59 0 -88 -8q-12 -3 -22.5 -6.5t-14.5 -3.5t-4 6q0 33 41 99q33 56 62.5 83t72 36.5t119.5 9.5zM23 -97q51 0 81 -27.5
t30 -75.5q0 -61 -43 -110.5t-110.5 -79t-137.5 -29.5q-61 0 -61 29q0 15 10.5 18.5t34.5 8.5q65 9 112 44.5t47 77.5q0 20 -10.5 30.5t-27.5 10.5q-9 0 -15.5 -0.5t-13.5 -1.5q-25 0 -25 25q0 28 41.5 54t87.5 26z" />
    <glyph glyph-name="uni0164.TCaron" unicode="&#x164;" 
d="M817 199l33 -25q-13 -28 -25 -49t-29 -51t-26 -45q-75 -131 -141 -131q-28 0 -48 22t-20 60q0 54 38.5 148t119 231.5t202.5 311.5t275 367q-88 13 -209 13q-139 0 -309.5 -31t-297 -71.5t-126.5 -59.5q0 -7 5 -9.5t16.5 -4t29.5 -3.5q117 -16 117 -36q0 -10 -51 -9.5
t-123 0.5q-57 0 -82.5 4.5t-34 17t-8.5 38.5q0 17 10 74q19 106 58.5 170t121 104.5t224.5 64.5q240 41 397 41q116 0 183 -9.5t98.5 -27.5t40 -35.5t22.5 -60.5l31 -92q3 -9 5 -14.5t3.5 -11.5t1.5 -11q0 -39 -17.5 -70t-64 -93t-68.5 -97q-258 -419 -352 -620zM1129 1579
q6 0 13.5 5.5t17.5 18l18 22.5q89 100 140 100q43 0 43 -39q0 -23 -52.5 -95t-118.5 -132t-110 -60q-35 0 -55.5 26.5t-42.5 94.5q-39 113 -39 160q0 15 10 29t27 14q16 0 37.5 -15t46.5 -45.5t43 -62.5q2 -5 9 -13t13 -8z" />
    <glyph glyph-name="uni0165.tCaron" unicode="&#x165;" horiz-adv-x="1194" 
d="M367 834h43q53 95 96 134.5t98 39.5t55 -25q0 -12 -43 -65t-65 -89q34 -4 60.5 -7t41.5 -5q-57 -106 -143 -217q-28 2 -47 3.5t-38.5 3t-47.5 3.5q-54 -87 -90.5 -155.5t-56 -125.5t-19.5 -108q0 -69 55 -69q38 0 99.5 40.5t164.5 124.5v-67q-270 -293 -399 -293
q-45 0 -72.5 35t-27.5 90q0 37 15.5 88t55.5 154q-14 -12 -26.5 -23.5t-23 -21t-22.5 -20t-24 -21.5v69q105 88 254 309q-15 1 -28 1.5t-31 0.5q-59 0 -88 -8q-12 -3 -22.5 -6.5t-14.5 -3.5t-4 6q0 33 41 99q33 56 62.5 83t72 36.5t119.5 9.5zM741 1003q-23 0 -33.5 10.5
t-10.5 36.5q0 17 3 39.5t11 54.5q12 54 25 92t33 62.5t49.5 35.5t73.5 11q20 0 33 -9.5t13 -31.5q0 -5 -0.5 -9t-1.5 -9q-9 -39 -34 -88.5t-55 -92.5t-59 -72.5t-47 -29.5z" />
    </font>
</defs>
</svg>
