<?xml version="1.0" standalone="no"?>
<!DOCTYPE svg PUBLIC "-//W3C//DTD SVG 1.1//EN" "http://www.w3.org/Graphics/SVG/1.1/DTD/svg11.dtd" >
<svg xmlns="http://www.w3.org/2000/svg" xmlns:xlink="http://www.w3.org/1999/xlink" version="1.1">
<metadata>
Created by FontForge 20170731 at Sat Jan 31 14:23:45 2015
 By Aleksey,,,
Copyright (c) 2013 by Alessio Laiso (alessio.laiso@gmail.com). Licensed under the SIL Open Font License, Version 1.2.2
</metadata>
<defs>
<font id="Aleo-Bold" horiz-adv-x="762" >
  <font-face 
    font-family="Aleo"
    font-weight="700"
    font-stretch="normal"
    units-per-em="1000"
    panose-1="2 15 8 2 2 2 4 3 2 3"
    ascent="805"
    descent="-195"
    x-height="513"
    cap-height="723"
    bbox="11 -180 1130 937"
    underline-thickness="80"
    underline-position="-180"
    unicode-range="U+000D-FB02"
  />
<missing-glyph horiz-adv-x="561" 
d="M127 574q29 23 65 38q38 16 86 16q30 0 62 -10q30 -10 48 -26q20 -18 30 -42q10 -23 10 -53t-7 -48q-8 -22 -17 -34q-7 -10 -24 -25q-16 -14 -24 -20t-20 -18q-7 -7 -11 -20l-11 -48h-84l-9 57q-3 18 3 31q6 14 16 24q11 11 23 20q8 6 24 20q10 9 19 23q8 13 8 30
q0 19 -12 29q-11 10 -36 10q-18 0 -30 -3q-14 -3 -21 -7l-16 -8q-8 -4 -14 -4q-17 0 -25 15zM200 157q0 16 5 26q7 14 15 22q7 7 21 14q12 6 27 6q14 0 26 -6q16 -8 22 -14t14 -22q6 -12 6 -26q0 -15 -6 -27q-7 -14 -14 -21q-8 -8 -22 -15q-10 -5 -26 -5q-17 0 -27 5
q-12 6 -21 15t-15 21q-5 10 -5 27zM28 723h506v-723h-506v723zM61 35h437v654h-437v-654z" />
    <glyph glyph-name="fi" unicode="fi" horiz-adv-x="630" 
d="M588 90q25 -6 25 -31v-59h-82h-123h-76v59q0 25 25 31h3q2 1 4 1q5 2 14 3l30 5v322h-191v-322q27 -5 31 -5t10 -1.5t8 -1.5t5 -1h3q25 -6 25 -31v-59h-82h-123h-76v59q0 25 25 31q4 0 7 1q5 2 14 3l30 5v321l-45 7q-14 3 -23 10t-9 21v50h77v17q0 47 15 87q14 39 47 70
q30 29 80 46q49 17 113 17h19q2 0 4 -1h1h3q9 -1 16 -1q18 -1 33 -6q52 -12 93 -40q4 -3 10 -9q10 -12 15 -23q7 -17 7 -31t-7 -30q-6 -13 -17 -24q-12 -12 -25 -17q-15 -6 -31 -6q-17 0 -31 6q-13 6 -24 17t-17 24q-6 14 -6 30q0 8 1 12q-45 12 -92 0q-34 -10 -50 -24
q-20 -15 -29 -42q-9 -26 -9 -59v-13h318v-409q27 -5 31 -5t10 -1.5t8 -1.5t5 -1h3z" />
    <glyph glyph-name="fl" unicode="fl" horiz-adv-x="666" 
d="M646 68l4 -66q-18 -5 -31 -8q-20 -2 -32 -2q-43 0 -77 13q-31 13 -50 35t-28 52t-9 63v493h-94q-55 0 -86 -31q-30 -31 -30 -87v-21h122v-88h-118v-322q6 -1 16.5 -3t14.5 -3q16 -2 18 -2t5 -1h3q25 -6 25 -32v-58h-82h-123h-76v58q0 26 25 32h3q2 1 4 1q1 0 3 0.5t5 1
t6 0.5t13.5 2.5t16.5 3.5v321l-44 7q-14 3 -23 10t-9 21v51h76v21q0 43 13 79q12 37 39 66t67 45q40 18 97 18q44 0 85 -3q40 -3 82 -3h69v-577q0 -13 4 -33q3 -12 11 -22q7 -8 21 -12q16 -4 31 -4q19 0 25 -3q7 -3 8 -13z" />
    <glyph glyph-name=".notdef" horiz-adv-x="561" 
d="M127 574q29 23 65 38q38 16 86 16q30 0 62 -10q30 -10 48 -26q20 -18 30 -42q10 -23 10 -53t-7 -48q-8 -22 -17 -34q-7 -10 -24 -25q-16 -14 -24 -20t-20 -18q-7 -7 -11 -20l-11 -48h-84l-9 57q-3 18 3 31q6 14 16 24q11 11 23 20q8 6 24 20q10 9 19 23q8 13 8 30
q0 19 -12 29q-11 10 -36 10q-18 0 -30 -3q-14 -3 -21 -7l-16 -8q-8 -4 -14 -4q-17 0 -25 15zM200 157q0 16 5 26q7 14 15 22q7 7 21 14q12 6 27 6q14 0 26 -6q16 -8 22 -14t14 -22q6 -12 6 -26q0 -15 -6 -27q-7 -14 -14 -21q-8 -8 -22 -15q-10 -5 -26 -5q-17 0 -27 5
q-12 6 -21 15t-15 21q-5 10 -5 27zM28 723h506v-723h-506v723zM61 35h437v654h-437v-654z" />
    <glyph glyph-name=".null" horiz-adv-x="0" 
 />
    <glyph glyph-name="nonmarkingreturn" unicode="&#xd;" horiz-adv-x="75" 
 />
    <glyph glyph-name="NULL" horiz-adv-x="75" 
 />
    <glyph glyph-name="NULL" horiz-adv-x="75" 
 />
    <glyph glyph-name="space" unicode=" " horiz-adv-x="231" 
 />
    <glyph glyph-name="exclam" unicode="!" horiz-adv-x="186" 
d="M153 723v-286q0 -41 -5 -89q-4 -44 -12 -93h-83q-7 49 -12 93q-5 48 -5 89v286h117zM18 68q0 19 5 30q6 14 16 24q9 9 25 16q14 6 30 6t29 -6q14 -6 24 -16t16 -24t6 -30t-6 -30q-6 -13 -16 -23t-24 -16q-13 -6 -29 -6t-30 6q-16 7 -25 16q-10 10 -16 23q-5 11 -5 30z
" />
    <glyph glyph-name="quotedbl" unicode="&#x22;" horiz-adv-x="338" 
d="M131 723v-144l-11 -78q-3 -20 -13 -34q-8 -11 -31 -11q-18 0 -28 11q-11 13 -14 34l-10 78v144h107zM315 723v-144l-11 -78q-3 -20 -13 -34q-8 -11 -31 -11q-18 0 -28 11q-11 13 -14 34l-10 78v144h107z" />
    <glyph glyph-name="numbersign" unicode="#" horiz-adv-x="580" 
d="M413 204l-39 -204h-56q-16 0 -26 12q-11 13 -11 29v5q0 1 0.5 2.5t0.5 2.5l30 153h-103l-29 -159q-5 -25 -20 -35q-16 -10 -36 -10h-54l38 204h-58q-14 0 -24 8q-9 8 -9 25q0 11 1 17l7 39h95l26 138h-107l9 51q3 19 16 29q12 9 39 9h55l32 161q5 22 18 31q16 11 34 11
h56l-38 -203h102l38 203h56q18 0 28 -10q11 -11 11 -25q0 -2 -0.5 -4.5t-0.5 -3.5l-30 -160h101l-9 -52q-3 -18 -16 -28q-12 -9 -39 -9h-50l-25 -138h70q15 0 25 -8q8 -7 8 -26q0 -10 -1 -16l-6 -39h-109zM222 293h102l26 138h-102z" />
    <glyph glyph-name="dollar" unicode="$" horiz-adv-x="535" 
d="M210 -4q-61 8 -110 31q-51 24 -87 60l38 56q6 9 13 13q8 4 18 4q12 0 23 -7q4 -3 14 -9.5t15 -9.5q15 -9 36 -20q25 -12 48 -16l20 224q-38 11 -71 24q-38 15 -62 35q-29 25 -45 57q-17 36 -17 84q0 39 15 75t44 65q26 26 72 46q45 19 98 22l5 62q2 14 10 22q10 10 24 10
h45l-8 -99q52 -9 91 -30q35 -19 67 -49l-30 -45q-8 -12 -14 -15q-8 -5 -17 -5q-6 0 -18 5l-11 5.5t-12 5.5q-4 2 -30 14q-13 6 -35 11l-17 -206q19 -6 71 -25q34 -13 63 -34q28 -21 46 -52q18 -32 18 -79q0 -44 -16 -87q-15 -41 -45 -72q-30 -32 -73 -51q-41 -18 -100 -23
l-6 -73q-2 -14 -10 -22q-10 -10 -24 -10h-45zM402 207q0 19 -6 34q-7 15 -19 25q-14 12 -29 19q-27 12 -36 15l-17 -204q53 8 80 36t27 75zM160 534q0 -18 6 -33q5 -13 18 -26q10 -10 28 -20q16 -9 35 -16l15 185q-24 -3 -46 -11q-20 -9 -32 -21q-14 -14 -19 -26t-5 -32z
" />
    <glyph glyph-name="percent" unicode="%" horiz-adv-x="776" 
d="M352 548q0 -40 -14 -74q-12 -29 -37 -56q-22 -24 -53 -36q-30 -12 -64 -12q-36 0 -66 12q-31 12 -53 36q-24 26 -35 56q-12 33 -12 74q0 42 12 76q11 33 35 58q22 24 53 36q30 12 66 12q37 0 67 -12q31 -12 53 -36q24 -25 35 -58q13 -37 13 -76zM256 548q0 28 -6 48
t-15 32q-8 10 -23 17q-11 5 -28 5t-28 -5q-14 -6 -22 -17q-11 -15 -15 -32q-5 -16 -5 -48t5 -47q6 -18 15 -30q10 -13 22 -17t28 -4t28 4q14 5 23 17q11 14 16 30q5 15 5 47zM592 704q5 6 15 13q9 6 25 6h90l-538 -705q-5 -6 -15 -13q-7 -5 -22 -5h-92zM760 170
q0 -40 -14 -74q-12 -29 -37 -56q-22 -24 -53 -36q-32 -13 -64 -13q-34 0 -66 13q-31 12 -53 36q-24 26 -35 56q-13 36 -13 74q0 39 13 76q11 33 35 58q22 24 53 36q30 12 66 12q37 0 67 -12q31 -12 53 -36q24 -25 35 -58q13 -37 13 -76zM664 170q0 33 -5 49t-16 31
q-8 10 -23 17q-14 6 -28 6t-28 -6t-22 -17q-9 -12 -15 -31q-5 -16 -5 -49q0 -31 5 -47q5 -17 15 -30t22 -17q15 -5 28 -5t28 5q14 5 23 17q11 15 16 30q5 16 5 47z" />
    <glyph glyph-name="ampersand" unicode="&#x26;" horiz-adv-x="716" 
d="M317 731q45 0 78 -13q37 -15 60 -36q23 -22 39 -52q13 -24 16 -60l-78 -16h-1q-1 -1 -2 -1h-3q-9 0 -16 5q-5 3 -10 14q-4 12 -12 25q-9 14 -17 21q-9 8 -23 14q-11 5 -31 5q-23 0 -38 -7t-28 -20q-11 -11 -17 -28q-6 -16 -6 -34q0 -16 3 -29q4 -17 10 -28q12 -21 18 -29
q16 -20 28 -32l192 -199q17 31 27 66q8 28 12 71q1 9 8 18q6 8 18 8h78q0 -59 -20 -126q-18 -61 -52 -111l151 -157h-121q-12 0 -17 1q-8 2 -13 4q-11 5 -13 7q-9 6 -13 12l-50 51q-47 -38 -106 -61q-57 -22 -128 -22q-44 0 -82 14q-39 14 -71 42t-51 65q-19 38 -19 86
q0 33 11 64t30 56q20 26 47 47q26 20 59 36q-27 38 -39 73q-12 36 -12 71q0 40 13 72q13 33 40 58q26 24 65 40q37 15 86 15zM143 209q0 -27 9 -49q9 -23 26 -38q14 -13 38 -23q19 -8 47 -8q45 0 80 13q32 12 66 39l-190 195q-39 -25 -58 -59q-18 -33 -18 -70z" />
    <glyph glyph-name="quotesingle" unicode="'" horiz-adv-x="154" 
d="M131 723v-144l-11 -78q-3 -20 -13 -34q-8 -11 -31 -11q-18 0 -28 11q-11 13 -14 34l-10 78v144h107z" />
    <glyph glyph-name="parenleft" unicode="(" horiz-adv-x="242" 
d="M125 314q0 -106 25 -203q26 -101 72 -187q2 -4 4 -12t2 -10q0 -8 -6 -16q-4 -5 -12 -10l-54 -34q-41 62 -64 114q-25 56 -42 116q-16 58 -24 119q-8 64 -8 123q0 58 8 122q8 61 24 119q17 60 42 116q23 52 64 114l54 -33q8 -5 12 -10q6 -8 6 -16q0 -6 -7 -22
q-44 -82 -71 -188q-25 -97 -25 -202z" />
    <glyph glyph-name="parenright" unicode=")" horiz-adv-x="242" 
d="M117 314q0 105 -25 202q-27 106 -71 188q-7 16 -7 22q0 8 6 16q4 5 12 10l54 33q41 -62 64 -114q25 -56 42 -116q16 -58 24 -119q8 -64 8 -122q0 -59 -8 -123q-8 -61 -24 -119q-17 -60 -42 -116q-23 -52 -64 -114l-54 34q-8 5 -12 10q-6 8 -6 16q0 2 2 10q1 4 5 12
q44 82 71 187q25 97 25 203z" />
    <glyph glyph-name="asterisk" unicode="*" horiz-adv-x="362" 
d="M152 418v92q0 14 1 20q2 12 4 18q-6 -7 -13 -13q-3 -2 -16 -11l-79 -46l-29 50l79 46q9 6 18 9q12 4 18 5q-12 2 -18 5l-18 9l-79 47l28 50l80 -47q13 -9 16 -11q10 -8 14 -13q-4 12 -5 18t-1 20v92h58v-92q0 -14 -1 -20q-2 -12 -4 -18q6 7 13 13q2 2 16 11l79 46l30 -50
l-80 -46q-9 -6 -18 -9q-12 -4 -18 -5q15 -3 36 -14l79 -46l-28 -50l-80 46q-14 9 -16 11q-10 8 -14 13q6 -17 6 -38v-92h-58z" />
    <glyph glyph-name="plus" unicode="+" horiz-adv-x="529" 
d="M314 586v-204h194v-92h-194v-206h-100v206h-194v92h194v204h100z" />
    <glyph glyph-name="comma" unicode="," horiz-adv-x="198" 
d="M26 76q0 16 5 26q8 16 14 22q7 7 23 14q11 5 30 5q20 0 33 -6t23 -19t14 -27q5 -17 5 -32q0 -26 -7 -51q-5 -18 -22 -52q-14 -27 -34 -52q-22 -26 -47 -46l-22 20q-9 8 -9 18q0 4 3 9q4 6 7 9t13 15l7 7q7 8 10 13q12 18 14 24q8 17 10 29q-17 0 -28 5q-15 7 -23 16
t-14 23q-5 11 -5 30z" />
    <glyph glyph-name="hyphen" unicode="-" horiz-adv-x="316" 
d="M28 354h260v-104h-260v104z" />
    <glyph glyph-name="period" unicode="." horiz-adv-x="203" 
d="M26 68q0 16 6 30t16 24t24 16t30 6t30 -6t24 -16t16 -24t6 -30t-6 -30q-6 -13 -16 -23t-24 -16t-29 -6q-17 0 -30 6q-16 7 -25 16q-10 10 -16 23q-6 14 -6 30z" />
    <glyph glyph-name="slash" unicode="/" horiz-adv-x="436" 
d="M132 -2q-5 -12 -11 -20q-6 -7 -16 -14q-7 -4 -19 -8q-14 -4 -20 -4h-52l292 748q9 20 25 32q15 11 39 11h52z" />
    <glyph glyph-name="zero" unicode="0" horiz-adv-x="570" 
d="M550 362q0 -99 -20 -165q-22 -73 -56 -115q-36 -45 -85 -68q-47 -22 -105 -22t-105 22q-46 21 -83 68q-36 45 -56 115q-20 71 -20 165q0 93 20 164q20 70 56 115q37 47 83 68q47 22 105 22t105 -22q49 -23 85 -68q34 -42 56 -115q20 -66 20 -164zM422 362q0 83 -11 130
q-13 54 -31 82q-20 31 -44 42q-26 12 -52 12q-27 0 -51 -12q-25 -12 -44 -42q-17 -26 -30 -82q-12 -51 -12 -130t12 -130q13 -56 30 -82q20 -31 44 -43q26 -13 51 -13q24 0 52 13q24 11 44 42q18 28 31 83q11 47 11 130z" />
    <glyph glyph-name="one" unicode="1" horiz-adv-x="483" 
d="M447 83q20 -5 20 -25v-58h-196h-8h-196v58q0 20 20 25q18 3 126 11v420q0 16 2 52l-104 -87q-6 -6 -13 -8q-8 -2 -14 -2q-11 0 -18 4t-12 10l-39 53l220 188h102v-631q91 -7 110 -10z" />
    <glyph glyph-name="two" unicode="2" horiz-adv-x="542" 
d="M524 108v-108h-11h-29h-467v41q0 11 5 26q6 14 17 25l219 220q49 51 50 53q21 25 36 51q16 27 23 51t7 54q0 28 -7 46t-22 33q-14 14 -33 20q-23 7 -43 7q-44 0 -73 -23q-28 -22 -40 -60q-6 -19 -17 -27q-11 -9 -28 -9q-4 0 -16 2l-65 11q7 52 29 92q21 39 53 65
q30 26 74 40q40 13 90 13t92 -15q39 -14 70 -42q29 -26 46 -65t17 -84q0 -39 -12 -74q-12 -34 -31 -65q-20 -33 -46 -60q-18 -19 -56 -59l-163 -167q14 4 47 11q30 4 44 4h160q3 42 4 45q4 18 23 18h53v-70z" />
    <glyph glyph-name="three" unicode="3" horiz-adv-x="533" 
d="M283 731q52 0 90 -14q41 -15 69 -40q30 -27 44 -59q15 -35 15 -74q0 -31 -8 -60q-8 -27 -22 -46q-15 -20 -36 -33q-22 -14 -49 -23q68 -22 98 -62q32 -43 32 -106q0 -52 -20 -95q-19 -41 -54 -70q-34 -28 -79 -43q-42 -14 -95 -14q-54 0 -95 12q-37 11 -71 38
q-28 22 -50 60q-21 37 -36 82l54 22q14 6 28 6t24 -6t16 -16q10 -19 19 -34q10 -15 26 -30q15 -13 35 -22q19 -8 48 -8q33 0 56 10q24 10 39 27q16 18 23 37q8 22 8 40q0 27 -6 48q-7 23 -22 36q-18 15 -51 24q-29 8 -87 8v88q43 0 75 8q26 6 48 23q18 15 25 34q6 16 6 44
q0 51 -28 78q-27 26 -76 26q-46 0 -73 -23q-29 -25 -41 -60q-6 -18 -16 -27q-11 -9 -28 -9q-4 0 -16 2l-66 12q7 48 30 91q21 39 53 65q33 27 74 40q40 13 90 13z" />
    <glyph glyph-name="four" unicode="4" horiz-adv-x="584" 
d="M476 272h91v-71q0 -8 -7 -17q-6 -8 -18 -8h-66v-176h-108v176h-305q-12 0 -22 8q-9 7 -12 20l-13 62l343 458h117v-452zM368 509q0 23 1 35q0 1 1 15.5t2 22.5l-224 -310h220v237z" />
    <glyph glyph-name="five" unicode="5" horiz-adv-x="515" 
d="M472 670q0 -25 -17 -42t-55 -17h-200l-26 -151q47 10 90 10q55 0 100 -17q42 -16 73 -47q30 -30 45 -70q14 -38 14 -87q0 -59 -20 -105q-22 -50 -56 -81q-38 -35 -85 -52q-52 -19 -107 -19q-37 0 -65 7q-33 8 -57 19q-29 13 -50 27q-19 12 -40 32l38 53q12 17 32 17
q12 0 25 -8q27 -17 29 -18q17 -9 40 -17q24 -8 54 -8q36 0 60 10q25 10 44 31q16 18 26 47q8 24 8 60q0 59 -34 92t-101 33q-54 0 -105 -19l-77 22l60 351h357v-53z" />
    <glyph glyph-name="six" unicode="6" horiz-adv-x="541" 
d="M310 452q40 0 80 -14q36 -13 68 -41q30 -27 48 -67q18 -41 18 -95q0 -47 -19 -95q-17 -42 -52 -77q-32 -32 -81 -52q-47 -19 -104 -19q-58 0 -104 18q-42 16 -78 52q-31 31 -50 80q-18 46 -18 104q0 51 21 105q19 49 65 111l172 232q8 11 26 20t40 9h110l-214 -263
q-2 -3 -7 -8t-7 -8l-12 -15q23 11 45 17q24 6 53 6zM137 227q0 -34 8 -55q9 -25 25 -42q17 -18 40 -27q27 -10 55 -10q32 0 55 10q24 10 42 28q17 17 28 42q10 23 10 53q0 29 -10 56q-9 24 -27 42q-16 16 -42 26q-24 9 -54 9t-53 -10t-41 -28t-27 -42t-9 -52z" />
    <glyph glyph-name="seven" unicode="7" horiz-adv-x="538" 
d="M20 723h500v-53q0 -22 -5 -39q-2 -6 -7 -15l-4 -10l-273 -564q-9 -18 -24 -30t-42 -12h-90l280 552q19 36 39 59h-291q-6 -62 -6 -63q-5 -18 -24 -18h-53v107v1v1v84z" />
    <glyph glyph-name="eight" unicode="8" horiz-adv-x="536" 
d="M268 -8q-56 0 -102 15q-45 15 -80 43q-33 27 -51 66t-18 87q0 64 31 108q31 45 98 66q-52 22 -79 63q-26 39 -26 97q0 40 17 77q15 33 46 61q28 25 72 41q42 15 92 15t92 -15q44 -16 72 -41q31 -28 46 -61q17 -37 17 -77q0 -57 -27 -97q-28 -41 -78 -63q67 -21 98 -66
q31 -44 31 -108q0 -48 -18 -87t-51 -66q-35 -28 -80 -43q-46 -15 -102 -15zM268 88q32 0 54 9t38 25q16 15 24 36q8 22 8 47q0 60 -33 90q-34 31 -91 31t-91 -31q-33 -30 -33 -90q0 -25 8 -47q7 -19 24 -36q16 -16 38 -25q23 -9 54 -9zM268 422q28 0 51 10q20 8 33 25
q13 16 17 36q6 21 6 42q0 18 -7 39q-6 19 -19 33q-12 13 -33 23q-17 8 -48 8q-30 0 -47 -8q-23 -10 -34 -23q-13 -14 -19 -33q-6 -18 -6 -39q0 -24 5 -42q6 -21 18 -36q13 -17 33 -25q23 -10 50 -10z" />
    <glyph glyph-name="nine" unicode="9" horiz-adv-x="523" 
d="M218 288q-37 0 -74 14q-38 14 -64 39q-29 28 -45 65q-17 40 -17 90t18 92q19 44 50 74q34 32 78 50q48 19 101 19q57 0 100 -17q42 -17 75 -50q32 -32 48 -75q17 -45 17 -96q0 -34 -6 -64q-7 -35 -16 -58q-9 -24 -26 -54q-12 -21 -33 -53l-166 -236q-8 -11 -25 -20
q-15 -8 -39 -8h-113l225 280q6 7 16 21l7.5 10t6.5 10q-26 -17 -55 -24q-30 -9 -63 -9zM386 505q0 32 -8 53t-26 39q-16 16 -39 25q-20 8 -50 8q-29 0 -51 -9q-23 -9 -38 -26t-24 -39q-8 -20 -8 -50q0 -61 31 -92q32 -32 89 -32q26 0 53 10q21 8 39 26q15 15 24 38
q8 20 8 49z" />
    <glyph glyph-name="colon" unicode=":" horiz-adv-x="199" 
d="M26 68q0 16 6 30t16 24t24 16t30 6t30 -6t24 -16t16 -24t6 -30t-6 -30q-6 -13 -16 -23t-24 -16t-30 -6t-30 6t-24 16t-16 23q-6 14 -6 30zM26 424q0 16 6 30t16 24t24 16t30 6t30 -6t24 -16t16 -24t6 -29q0 -17 -6 -30q-6 -14 -16 -24t-24 -16q-11 -5 -30 -5t-30 5
q-14 6 -24 16t-16 24q-6 13 -6 29z" />
    <glyph glyph-name="semicolon" unicode=";" horiz-adv-x="195" 
d="M26 76q0 16 5 26q7 14 15 22t22 14q11 5 30 5q20 0 33 -6t23 -19t14 -27q5 -17 5 -32q0 -26 -7 -51q-5 -18 -22 -52q-14 -27 -34 -52q-22 -26 -47 -46l-21 20q-10 8 -10 18q0 4 3 9q4 6 7 9q9 9 14 15q14 17 16 20q12 18 14 24q8 17 10 29q-17 0 -28 5q-15 7 -23 16
t-14 23q-5 11 -5 30zM22 424q0 16 6 30t16 24t24 16t30 6t30 -6t24 -16t16 -24t6 -30t-6 -29q-6 -14 -16 -24t-24 -16q-11 -5 -30 -5t-30 5q-14 6 -24 16t-16 24q-6 13 -6 29z" />
    <glyph glyph-name="less" unicode="&#x3c;" horiz-adv-x="440" 
d="M20 362l396 206v-87q0 -12 -4 -19t-17 -14l-181 -93l-25 -10q-15 -6 -27 -8q12 -2 27 -8l25 -10l181 -93q13 -6 17 -15q4 -8 4 -18v-88l-396 207v50z" />
    <glyph glyph-name="equal" unicode="=" horiz-adv-x="500" 
d="M29 294h443v-92h-443v92zM29 470h443v-92h-443v92z" />
    <glyph glyph-name="greater" unicode="&#x3e;" horiz-adv-x="441" 
d="M24 105v88q0 8 5 18q4 9 17 15l181 93q24 11 51 18q-12 2 -27 8q-16 6 -24 10l-181 93q-13 7 -17 14q-5 10 -5 18v88l396 -206v-50z" />
    <glyph glyph-name="question" unicode="?" horiz-adv-x="419" 
d="M16 658q16 14 37 28q23 15 44 24q17 7 51 15q27 6 60 6q43 0 79 -12t61 -34q27 -24 40 -54q14 -33 14 -71q0 -34 -12 -65q-10 -28 -27 -49q-13 -17 -37 -35q-13 -10 -37 -28q-16 -12 -30 -26q-12 -14 -15 -29l-12 -73h-84l-9 81v5v4q0 21 11 38q12 19 27 31q10 9 36 27
q8 6 35 30q20 20 28 35q11 20 11 48q0 14 -7 32q-5 13 -18 24q-11 9 -29 16q-16 6 -37 6q-25 0 -48 -7q-17 -5 -33 -14q-12 -7 -23 -14q-9 -6 -18 -6q-18 0 -26 15zM110 68q0 16 6 29q6 14 16 24q11 11 24 17q14 6 30 6t30 -6t24 -16t16 -24t6 -30t-6 -30t-16 -24
q-8 -8 -24 -15q-14 -6 -30 -6t-30 6q-16 7 -24 15q-10 10 -16 24t-6 30z" />
    <glyph glyph-name="at" unicode="@" horiz-adv-x="796" 
d="M568 92q-35 0 -61 16q-27 16 -37 52q-32 -38 -62 -52q-33 -15 -71 -15q-30 0 -55 11q-24 10 -39 30q-18 23 -24 45q-7 25 -7 58q0 29 7 57q8 32 22 57q15 27 36 51q19 22 51 41q28 17 66 28t81 11q39 0 66 -6q20 -4 53 -18l-48 -185q-8 -34 -8 -53q0 -12 4 -26
q4 -10 10 -16q4 -4 15 -8q6 -2 19 -2q23 0 40 13q21 16 33 37t22 58q9 33 9 72q0 64 -21 114q-22 52 -56 83q-37 34 -87 50q-53 17 -110 17q-63 0 -122 -25q-55 -23 -98 -68q-39 -41 -64 -101q-23 -56 -23 -126q0 -83 25 -145t70 -104t105 -63q57 -20 130 -20q43 0 72 4
q40 5 61 11q28 7 52 17q18 7 40 20q9 5 18 5q14 0 20 -16l17 -45q-52 -34 -121 -55t-159 -21q-92 0 -167 28q-78 29 -134 82q-57 54 -88 130q-32 78 -32 172q0 51 14 104q12 44 40 94q26 45 61 82q32 33 80 63q40 25 95 41q51 15 108 15q70 0 136 -24q65 -23 115 -68
q51 -45 81 -108t30 -143q0 -51 -16 -101q-15 -46 -44 -81t-67 -54q-40 -20 -83 -20zM361 172q14 0 26 4q16 5 26 14q9 8 22 28q10 15 16 42l37 141q-16 3 -33 3q-32 0 -58 -13t-47 -37q-18 -21 -31 -53q-12 -30 -12 -61t14 -50q13 -18 40 -18z" />
    <glyph glyph-name="A" unicode="A" horiz-adv-x="812" 
d="M774 77q19 -7 19 -26v-51h-35h-78h-17h-9h-105v51q0 17 20 26q1 0 3.5 1t7 3t9.5 4l-4 11l-36 98h-288l-37 -103l-3 -6q5 -2 9.5 -4t7 -3t3.5 -1q20 -9 20 -26v-51h-104h-10h-16h-79h-35v51q0 17 20 26q3 1 55 23l244 623h138l245 -623q52 -22 55 -23zM378 513l-82 -224
h219l-83 225q-2 6 -6.5 18t-6.5 19q-2 6 -4.5 14t-5 18t-4.5 16q-13 -44 -14 -48q-2 -8 -13 -38z" />
    <glyph glyph-name="B" unicode="B" horiz-adv-x="645" 
d="M483 374q149 -33 149 -161q0 -46 -18 -85q-18 -40 -51 -68q-31 -27 -82 -44q-48 -16 -112 -16h-273h-76v59q0 25 25 31h2q2 1 4 1q1 0 6 1.5t9 1.5q3 0 7.5 1t11.5 2t11 2v525q-4 1 -11 2t-11.5 2t-7.5 1q-4 1 -9 2t-6 1h-4l-2 1q-25 6 -25 31v59h76h249q72 0 121 -13
q52 -14 83 -39q32 -25 47 -61t15 -79q0 -27 -7 -49t-24 -44q-15 -18 -40 -36q-22 -15 -57 -28zM230 619v-209h108q69 0 104 25t35 80q0 56 -32 80q-31 24 -100 24h-115zM492 173q7 18 7 43q0 21 -8 42q-8 20 -23 32t-41 20q-24 7 -61 7h-136v-212h137q37 0 63 9q25 9 40 24
q16 16 22 35z" />
    <glyph glyph-name="C" unicode="C" horiz-adv-x="637" 
d="M554 495q-18 0 -23 18q-3 13 -9 80q-79 23 -138 23q-53 0 -94 -17q-43 -18 -73 -51q-31 -34 -48 -80q-18 -48 -18 -107q0 -60 18 -108q19 -50 46 -80q29 -32 70 -50q38 -17 86 -17q27 0 50 3t41 9q17 6 35 17q15 9 33 26q3 3 11 7q4 2 12 2q12 0 19 -8l53 -58
q-44 -55 -108 -83q-66 -29 -155 -29q-77 0 -144 28q-66 28 -110 76q-47 51 -70 117q-24 67 -24 148q0 83 27 150t76 116q51 51 117 77q68 27 151 27q92 0 227 -52v-184h-58z" />
    <glyph glyph-name="D" unicode="D" horiz-adv-x="742" 
d="M700 508q27 -66 27 -146t-27 -146q-28 -69 -74 -115t-116 -74q-68 -27 -149 -27h-265h-76v59q0 25 25 31h2q2 1 4 1q1 0 6 1.5t9 1.5q3 0 7.5 1t11.5 2t11 2v525q-4 1 -11 2t-11.5 2t-7.5 1q-4 1 -9 2t-6 1h-4l-2 1q-25 6 -25 31v59h76h265q81 0 149 -27q70 -28 116 -74
t74 -114zM573 255q16 47 16 107q0 59 -16 106q-18 50 -45 80q-29 31 -72 50q-42 18 -95 18h-130v-509h130q53 0 95 18q43 19 72 50q28 31 45 80z" />
    <glyph glyph-name="E" unicode="E" horiz-adv-x="574" 
d="M96 723h456v-70v-37v-83h-5h-12h-41q-18 0 -23 19q-5 39 -7 64h-233v-200h245v-104h-245v-204h233q2 25 7 64q5 19 23 19h41h12h5v-83v-38v-70h-456h-76v59q0 25 25 31h2q2 1 4 1q1 0 6 1.5t9 1.5q3 0 7.5 1t11.5 2t11 2v525q-4 1 -11 2t-11.5 2t-7.5 1q-4 1 -9 2t-6 1
h-4l-2 1q-25 6 -25 31v59h76z" />
    <glyph glyph-name="F" unicode="F" horiz-adv-x="593" 
d="M552 723h25v-70v-23v-97h-4h-12h-42q-18 0 -23 19q-5 39 -7 64h-258v-214h253v-107h-253v-196q4 -1 11 -2t11.5 -2t7.5 -1q4 0 8.5 -1.5t6.5 -1.5t4 -1h2q25 -6 25 -31v-59h-76h-135h-76v59q0 25 25 31h2q2 1 4 1q1 0 6 1.5t9 1.5q3 0 7.5 1t11.5 2t11 2v525q-4 1 -11 2
t-11.5 2t-7.5 1q-4 1 -9 2t-6 1q-3 1 -6 1q-25 6 -25 31v59h76h433h23z" />
    <glyph glyph-name="G" unicode="G" horiz-adv-x="673" 
d="M413 362h240v-292q-29 -21 -57 -35q-30 -15 -63 -24q-35 -10 -73 -14q-43 -5 -83 -5q-77 0 -145 28t-115 76q-50 51 -76 117q-27 67 -27 149q0 84 26 149q27 68 76 117q47 48 118 76q66 25 149 27h6h1q114 0 256 -52v-184h-4h-13h-41q-18 0 -23 18q-3 13 -9 78
q-74 25 -171 25q-52 0 -96 -18t-74 -51q-31 -34 -47 -80q-17 -48 -17 -105q0 -64 18 -112q18 -50 49 -82q32 -33 75 -51t95 -18q42 0 79 8q33 7 64 23v131h-90q-13 0 -21 8q-7 7 -7 17v76z" />
    <glyph glyph-name="H" unicode="H" horiz-adv-x="801" 
d="M756 633l-2 -1h-4t-7 -1t-8 -2q-4 -1 -14 -2.5t-15 -2.5v-525q5 -1 15 -2.5t14 -2.5q3 0 8 -1.5t7 -1.5t4 -1h2q25 -6 25 -31v-59h-75h-136h-75v59q0 25 25 31q3 0 6 1q4 1 15 3q4 1 14 2.5t15 2.5v217h-339v-217q4 -1 11 -2t11.5 -2t7.5 -1q4 0 8.5 -1.5t6.5 -1.5
q3 -1 6 -1q25 -6 25 -31v-59h-76h-135h-76v59q0 25 25 31h2q2 1 4 1q1 0 6 1.5t9 1.5q3 0 7.5 1t11.5 2t11 2v525q-4 1 -11 2t-11.5 2t-7.5 1q-4 1 -9 2t-6 1q-3 1 -6 1q-25 6 -25 31v59h76h135h76v-59q0 -25 -25 -31q-3 0 -6 -1q-2 0 -7 -1t-8 -2q-3 0 -7.5 -1t-11.5 -2
t-11 -2v-212h339v212q-5 1 -15 2.5t-14 2.5q-11 1 -15 3h-4l-2 1q-25 6 -25 31v59h75h136h75v-59q0 -25 -25 -31z" />
    <glyph glyph-name="I" unicode="I" horiz-adv-x="326" 
d="M281 633l-2 -1h-4q-1 0 -6 -1t-9 -2t-14 -2.5t-15 -2.5v-525q5 -1 15 -2.5t14 -2.5q4 0 9 -1.5t6 -1.5q2 0 4 -1h2q25 -6 25 -31v-59h-75h-135h-76v59q0 25 25 31h2q2 1 4 1l15 3q3 0 7.5 1t11.5 2t11 2v525q-4 1 -11 2t-11.5 2t-7.5 1q-4 1 -9 2t-6 1q-3 1 -6 1
q-25 6 -25 31v59h76h135h75v-59q0 -25 -25 -31z" />
    <glyph glyph-name="J" unicode="J" horiz-adv-x="452" 
d="M361 723h76v-59q0 -25 -25 -31l-2 -1h-4t-7 -1t-8 -2l-30 -5v-367q0 -61 -15 -110q-15 -50 -44 -83q-31 -35 -75 -53q-47 -19 -103 -19q-28 0 -53 3q-24 3 -55 11l7 80q1 9 9 17q9 7 21 7q8 0 22 -3q18 -4 35 -4q30 0 50 8q20 7 37 27q14 17 22 46q8 30 8 70v370
q-26 4 -32 5q-4 1 -10.5 2t-8.5 1h-6l-3 1q-25 6 -25 31v59h85h134z" />
    <glyph glyph-name="K" unicode="K" horiz-adv-x="736" 
d="M692 90q25 -6 25 -31v-59h-7h-68h-39h-12h-154v59q0 25 25 31q4 0 8 1t14 3l-153 200q-8 11 -23 18q-12 6 -35 6h-43v-219l30 -5q4 0 9 -1.5t6 -1.5q2 0 4 -1h2q25 -6 25 -31v-59h-76h-134h-76v59q0 25 25 31q3 0 6 1l15 3q3 0 7.5 1t11.5 2t11 2v525q-6 1 -16.5 3.5
t-13.5 2.5q-14 2 -15 2h-4l-2 1q-25 6 -25 32v58h76h134h76v-58q0 -26 -25 -32l-2 -1h-4q-1 0 -3.5 -0.5t-5.5 -1t-6 -0.5t-13.5 -2.5t-16.5 -3.5v-204h32q21 0 31 5q15 7 22 17l149 189q-1 0 -3 0.5t-4 0.5h-4l-2 1q-25 6 -25 31v59h165h25h76v-59q0 -25 -25 -31
q-1 0 -3.5 -0.5t-4.5 -0.5t-8 -1.5t-10 -1.5t-8.5 -1t-11 -2t-10.5 -2l-163 -202q-15 -17 -22 -23q-13 -11 -23 -16q15 -6 30 -17q13 -10 26 -28l178 -239q4 -1 14 -2.5t15 -2.5q4 0 10 -1.5t8 -1.5t4.5 -0.5t3.5 -0.5z" />
    <glyph glyph-name="L" unicode="L" horiz-adv-x="565" 
d="M490 173h54v-101v-19v-53h-24h-3h-421h-76v59q0 25 25 31q3 0 6 1l15 3q3 0 7.5 1t11.5 2t11 2v525q-4 1 -11 2t-11.5 2t-7.5 1q-4 1 -9 2t-6 1q-3 1 -6 1q-25 6 -25 31v59h76h134h76v-59q0 -25 -25 -31q-3 0 -6 -1q-5 -2 -15 -3q-3 0 -7.5 -1t-11.5 -2t-11 -2v-513h233
q3 40 4 43q5 19 23 19z" />
    <glyph glyph-name="M" unicode="M" horiz-adv-x="975" 
d="M930 633l-2 -1h-4t-7 -1t-8 -2q-4 -1 -14 -2.5t-15 -2.5v-525q5 -1 15 -2.5t14 -2.5q3 0 8 -1.5t7 -1.5t4 -1h2q25 -6 25 -31v-59h-75h-119h-90v59q0 25 25 31q4 0 65 9v368q0 4 0.5 13.5t0.5 14.5q0 10 2 32l-218 -410q-8 -15 -20 -22q-13 -8 -28 -8h-18q-15 0 -28 8
q-12 7 -20 22l-221 411q0 -5 0.5 -16t1.5 -16q1 -10 1 -29v-368q63 -9 65 -9q25 -6 25 -31v-59h-90h-118h-76v59q0 25 25 31q3 0 6 1l15 3q3 0 7.5 1t11.5 2t11 2v525q-4 1 -11 2t-11.5 2t-7.5 1q-4 1 -9 2t-6 1q-3 1 -6 1q-25 6 -25 31v59h76h101q3 0 8.5 -0.5t7.5 -0.5
q6 0 12 -2q3 -1 9 -7q4 -5 9 -12l216 -401l15 -33q5 -11 15 -35q3 6 7 17.5t7 17.5q8 20 16 34l214 400q6 10 8 12q6 6 10 7q8 2 12 2q2 0 7 0.5t8 0.5h102h75v-59q0 -25 -25 -31z" />
    <glyph glyph-name="N" unicode="N" horiz-adv-x="796" 
d="M706 723h75v-59q0 -25 -25 -31l-2 -1h-4t-7 -1t-8 -2q-4 -1 -14 -2.5t-15 -2.5v-624h-70q-14 0 -26 5q-10 5 -21 18l-378 481q2 -22 2 -31q0 -5 0.5 -15t0.5 -14v-345q63 -9 65 -9q25 -6 25 -31v-59h-90h-118h-76v59q0 25 25 31q3 0 6 1l15 3q3 0 7.5 1t11.5 2t11 2v525
q-4 1 -11 2t-11.5 2t-7.5 1q-4 1 -9 2t-6 1h-4l-2 1q-25 6 -25 31v59h76h70q3 0 8 -0.5t7 -0.5q7 0 11 -3q4 -1 9 -6q2 -2 10 -12l380 -483q-1 12 -3 34q-1 11 -1 32v340q-63 9 -65 9q-25 6 -25 31v59h90h119z" />
    <glyph glyph-name="O" unicode="O" 
d="M747 362q0 -80 -27 -148q-28 -69 -74 -117q-48 -50 -116 -77q-70 -28 -149 -28q-80 0 -150 28q-68 27 -116 77q-48 49 -75 117q-26 65 -26 148q0 82 26 147q27 67 75 117t116 77q70 28 150 28q83 0 149 -28q70 -30 116 -77q46 -48 74 -117q27 -67 27 -147zM609 362
q0 55 -16 106q-15 46 -45 80q-30 33 -72 51q-40 17 -95 17q-56 0 -96 -17q-42 -18 -72 -51t-46 -80t-16 -106q0 -60 16 -107t46 -80t72 -51q40 -17 96 -17q55 0 95 17q42 18 72 51q30 34 45 80q16 51 16 107z" />
    <glyph glyph-name="P" unicode="P" horiz-adv-x="615" 
d="M583 586q17 -43 17 -93q0 -53 -18 -97t-52 -75q-33 -30 -88 -49q-50 -17 -123 -17h-89v-156l30 -5q4 0 9 -1.5t6 -1.5q2 0 4 -1h2q25 -6 25 -31v-59h-76h-134h-76v59q0 25 25 31h2q2 1 4 1l15 3q3 0 7.5 1t11.5 2t11 2v525q-4 1 -11 2t-11.5 2t-7.5 1q-4 1 -9 2t-6 1
q-3 1 -6 1q-25 6 -25 31v59h76h223q72 0 126 -17q50 -16 87 -48q34 -30 51 -72zM456 437q9 24 9 56q0 28 -9 52q-9 23 -27 40q-17 16 -45 25q-27 9 -65 9h-89v-259h89q38 0 65 9q28 9 45 26q18 17 27 42z" />
    <glyph glyph-name="Q" unicode="Q" horiz-adv-x="796" 
d="M747 362q0 -50 -10 -93q-10 -41 -29 -83q-16 -34 -46 -71q-28 -34 -61 -57l183 -200h-110q-21 0 -44 7q-18 6 -35 24l-106 117q-23 -7 -52 -10q-36 -4 -56 -4q-80 0 -150 28q-68 27 -116 77q-48 49 -75 117q-26 65 -26 148q0 82 26 147q27 67 75 117t116 77q70 28 150 28
q83 0 149 -28q70 -30 116 -77q46 -48 74 -117q27 -67 27 -147zM609 362q0 55 -16 106q-15 46 -45 80q-30 33 -72 51q-40 17 -95 17t-95 -17q-44 -19 -73 -51q-30 -33 -46 -80t-16 -106q0 -60 16 -107t46 -80q29 -32 73 -51q40 -17 95 -17t95 17q42 18 72 51q30 34 45 80
q16 51 16 107z" />
    <glyph glyph-name="R" unicode="R" horiz-adv-x="685" 
d="M642 90q25 -6 25 -31v-59h-14h-62h-59q-19 0 -30 7t-20 20l-152 232q-8 12 -19 18t-30 6h-51v-184l30 -5q4 0 9 -1.5t6 -1.5q2 0 4 -1h2q25 -6 25 -31v-59h-76h-134h-76v59q0 25 25 31h2q2 1 4 1l15 3q3 0 7.5 1t11.5 2t11 2v525q-4 1 -11 2t-11.5 2t-7.5 1q-4 1 -9 2
t-6 1h-4l-2 1q-25 6 -25 31v59h76h213q75 0 127 -15q51 -15 86 -43q35 -29 50 -66q16 -38 16 -84q0 -34 -11 -69q-9 -29 -31 -59q-18 -25 -50 -46q-31 -20 -68 -32q26 -15 44 -42l114 -168q27 -5 31 -5t9.5 -1.5t7.5 -1.5t5 -1h3zM373 389q28 9 47 26q17 16 27 40q9 23 9 50
q0 55 -36 85q-35 29 -111 29h-79v-240h77q34 0 66 10z" />
    <glyph glyph-name="S" unicode="S" horiz-adv-x="505" 
d="M477 303q14 -29 14 -77q0 -46 -17 -91q-17 -44 -49 -75q-32 -32 -79 -50q-46 -18 -106 -18h-15q-95 0 -207 38v18v168h4h12h41q19 0 23 -18q3 -13 9 -83q42 -13 137 -13q57 0 89 27q31 27 31 78q0 28 -14 47q-13 18 -38 30q-26 13 -53 21q-4 1 -26.5 7.5t-34.5 10.5
q-30 10 -61 24q-28 13 -54 37q-24 22 -37 56q-15 37 -15 83q0 41 16 77q15 38 46 67q29 27 74 46q44 18 101 18q105 0 207 -41v-185h-4h-12h-41q-18 0 -23 19q-3 14 -9 81q-36 16 -117 16q-27 0 -48 -6q-23 -8 -35 -19q-15 -13 -22 -29q-7 -15 -7 -37q0 -24 15 -42t37 -29
q29 -15 54 -22q10 -3 61 -20q21 -7 61 -25q30 -14 54 -36q26 -24 38 -53z" />
    <glyph glyph-name="T" unicode="T" horiz-adv-x="633" 
d="M601 723h16v-171h-4h-12h-41q-19 0 -24 19q-3 17 -5 41h-147v-513q5 -1 15 -2.5t14 -2.5q3 0 8 -1.5t7 -1.5t4 -1h2q26 -6 26 -31v-59h-76h-135h-75v59q0 25 25 31h2q2 1 4 1q1 0 6 1.5t9 1.5q4 1 14 2.5t15 2.5v514h-147q-2 -26 -5 -42q-5 -19 -23 -19h-42h-12h-4v171
h15h1h569z" />
    <glyph glyph-name="U" unicode="U" horiz-adv-x="781" 
d="M690 723h76v-59q0 -25 -25 -31l-2 -1h-4q-1 0 -6.5 -1t-8.5 -2q-3 0 -7.5 -1t-11.5 -2t-11 -2v-334q0 -65 -21 -119q-22 -57 -59 -95q-40 -40 -95 -62q-54 -22 -125 -22t-125 22t-94 62q-39 40 -60 95q-20 51 -20 119v334q-4 1 -11 2t-11.5 2t-7.5 1q-3 1 -8 2t-7 1h-4
l-2 1q-25 6 -25 31v59h76h134h80v-59q0 -25 -25 -31l-2 -1h-5q-1 0 -7 -1t-10 -2t-31 -5v-333q0 -45 11 -75q10 -32 33 -58q19 -22 51 -36q29 -13 70 -13t70 13q34 15 52 36q19 22 32 57q12 38 12 75v334q-27 4 -31 5t-10 2t-7 1h-4l-3 1q-25 6 -25 31v59h80h134z" />
    <glyph glyph-name="V" unicode="V" horiz-adv-x="807" 
d="M756 723h34v-59q0 -25 -25 -31q-1 0 -2.5 -0.5t-3.5 -0.5q-1 0 -5.5 -1t-8.5 -2t-14 -2.5t-15 -2.5l-252 -624h-121l-253 624l-15 2.5t-13 2.5t-9 2t-6 1q-3 1 -6 1q-25 6 -25 31v59h35h41h67h127v-59q0 -25 -25 -31q-3 0 -5 -1q-3 -2 -10 -3q-2 0 -7.5 -1.5t-8.5 -2.5
l144 -374q7 -16 16 -47q8 -26 15 -54q12 55 29 101l143 374q-3 1 -8.5 2.5t-7.5 1.5q-8 2 -11 3q-2 1 -5 1q-25 6 -25 31v59h128h67h41z" />
    <glyph glyph-name="W" unicode="W" horiz-adv-x="1133" 
d="M1084 723h34v-59q0 -25 -25 -31l-1 -1q-2 0 -4.5 -0.5t-5.5 -0.5q-4 -1 -13 -2.5l-15 -2.5l-195 -626h-121l-158 494q-2 6 -6 20q0 1 -3 10t-4 14l-6 -24q-2 -8 -6 -20l-160 -494h-121l-194 626q-5 1 -15 2.5t-14 2.5q-3 0 -5.5 0.5t-3.5 0.5l-2 1q-25 6 -25 31v59h35h41
h71h123v-59q0 -25 -25 -31q-3 0 -5 -1q-3 -1 -11 -3q-12 -3 -17 -4l103 -365q3 -11 9 -35q1 -4 3.5 -18t3.5 -22q6 28 9 40q5 21 10 35l142 432q5 13 16 21q13 10 28 10h40q18 0 29 -8t16 -23l141 -432q13 -38 19 -71q4 23 7 37q3 17 8 34l103 364q-18 4 -41 9q-25 6 -25 31
v59h130h64h42z" />
    <glyph glyph-name="X" unicode="X" horiz-adv-x="779" 
d="M735 90q25 -6 25 -31v-59h-38h-33h-9h-92h-135v59q0 25 25 31l30 6l-123 204q-1 -6 -5 -11l-5 -10l-113 -180q25 -5 42 -9q25 -6 25 -31v-59h-148h-82h-6h-38h-37v59q0 25 26 31q8 2 75 9l177 273l-166 252q-70 8 -77 9q-25 6 -25 31v59h37h38h5h91h140v-59
q0 -25 -25 -31q-9 -2 -20 -4.5t-13 -2.5l114 -185q1 2 3 6.5t3 6.5q5 11 7 13l100 158q-3 1 -16 3.5t-22 4.5q-25 6 -25 31v59h142h83h11h35h34v-59q0 -25 -25 -31q-10 -2 -76 -9l-166 -246l176 -279q66 -7 76 -9z" />
    <glyph glyph-name="Y" unicode="Y" horiz-adv-x="726" 
d="M694 723h16v-59q0 -25 -25 -31q-1 0 -2.5 -0.5t-3.5 -0.5q-1 0 -6.5 -1t-8.5 -2q-4 -1 -14 -2.5t-15 -2.5l-204 -343v-182q5 -1 15 -2.5t14 -2.5q3 0 8.5 -1.5t6.5 -1.5q2 0 4 -1h2q25 -6 25 -31v-59h-75h-135h-76v59q0 25 25 31q4 0 7 1q4 1 15 3q4 1 14 2.5t15 2.5v182
l-204 343q-4 1 -11 2t-11.5 2t-7.5 1q-4 1 -9 2t-6 1q-3 1 -6 1q-25 6 -25 31v59h17h18h41h59h135v-59q0 -25 -25 -31l-1 -1h-3q-2 -1 -10 -3q-4 -1 -14 -3l96 -175q8 -14 20 -40q3 -7 8 -20.5t7 -17.5q5 17 15 38q12 26 20 40l95 175q-2 0 -5 1t-5.5 1.5t-4.5 0.5t-5 1.5
t-4 1.5q-2 1 -5 1q-25 6 -25 31v59h135h59h42h18z" />
    <glyph glyph-name="Z" unicode="Z" horiz-adv-x="593" 
d="M562 631l-371 -524h290q2 19 4.5 35.5t3.5 24.5t1 9q5 19 23 19h53v-88v-107h-549v53q0 10 3 19q4 12 9 18l372 526h-275q-2 -19 -4.5 -36.5t-3.5 -25.5t-1 -9q-5 -19 -23 -19h-53l-1 197h535v-50q0 -23 -13 -42z" />
    <glyph glyph-name="bracketleft" unicode="[" horiz-adv-x="248" 
d="M28 -154v928h204v-49q0 -13 -9 -22t-23 -9h-70v-768h70q14 0 23 -9t9 -23v-48h-204z" />
    <glyph glyph-name="backslash" unicode="\" horiz-adv-x="437" 
d="M15 743h53q23 0 38 -11q16 -12 25 -32l291 -748h-52q-20 0 -38 12t-27 34z" />
    <glyph glyph-name="bracketright" unicode="]" horiz-adv-x="247" 
d="M16 -154v48q0 14 9 23t23 9h70v768h-70q-14 0 -23 9t-9 22v49h204v-928h-204z" />
    <glyph glyph-name="asciicircum" unicode="^" horiz-adv-x="490" 
d="M472 388h-91q-11 0 -19 6t-12 15l-80 145q-2 4 -4.5 8.5t-5 9.5t-3.5 8q-7 14 -11 26q-8 -24 -9 -26q-1 -3 -3.5 -8t-5 -9.5t-4.5 -8.5l-78 -145q-4 -9 -12 -15t-20 -6h-96l187 335h80z" />
    <glyph glyph-name="underscore" unicode="_" horiz-adv-x="463" 
d="M428 -67v-80h-394v80h394z" />
    <glyph glyph-name="grave" unicode="`" horiz-adv-x="279" 
d="M138 731q20 0 30 -7q11 -7 18 -20l71 -121h-71q-10 0 -22 4q-12 6 -18 13l-124 131h116z" />
    <glyph glyph-name="a" unicode="a" horiz-adv-x="521" 
d="M478 91q25 -6 25 -31v-59h-63h-13h-42q-19 0 -28 5q-10 4 -15 22l-11 36q-20 -19 -38 -31q-14 -10 -39 -22q-18 -8 -42 -13q-25 -5 -50 -5q-33 0 -60 9q-29 10 -47 26q-21 19 -31 44q-11 27 -11 60q0 30 15 58t51 51q38 24 94 38q59 15 147 15v30q0 50 -22 77
q-21 25 -63 25q-32 0 -50 -7q-23 -9 -35 -16q-5 -3 -14 -7.5t-13 -7.5q-11 -7 -27 -7q-13 0 -22 6q-6 4 -14 16l-23 39q90 82 213 82q45 0 81 -15q35 -15 59 -41q27 -31 38 -63q12 -36 12 -80v-227q5 -1 14.5 -2.5t12.5 -2.5t7 -1zM320 133v86q-56 0 -90 -7q-37 -8 -59 -18
t-31 -24t-9 -31q0 -34 19 -47q20 -14 50 -14q18 0 35 3t31 11q18 10 27 17q13 11 27 24z" />
    <glyph glyph-name="b" unicode="b" horiz-adv-x="581" 
d="M552 372q14 -50 14 -111q0 -54 -16 -107q-14 -48 -44 -85q-29 -36 -70 -56q-39 -20 -91 -20q-112 0 -251 28v160v463q-27 4 -31 5t-10 2t-7 1h-4l-3 1q-25 6 -25 31v59h80h123v-293q29 32 69 52q38 19 90 19q44 0 77 -17q34 -16 60 -50q25 -32 39 -82zM430 183q8 29 8 78
q0 47 -7 76q-7 31 -21 51q-13 19 -33 28q-19 9 -43 9q-40 0 -66 -16q-28 -17 -51 -46v-267q49 -9 100 -9q29 0 50 10q23 11 38 32q17 23 25 54z" />
    <glyph glyph-name="c" unicode="c" horiz-adv-x="459" 
d="M412 122l35 -45q-24 -27 -44 -41q-20 -13 -50 -26q-22 -8 -53 -13q-24 -4 -55 -4q-49 0 -89 17q-42 18 -73 52q-33 36 -50 83q-18 49 -18 113q0 57 16 104q17 48 48 84q31 35 78 55q48 20 107 20q64 0 162 -37l-1 -158h-4h-12h-41q-18 0 -23 19q-4 32 -8 72
q-37 10 -66 10q-33 0 -57 -12q-25 -12 -40 -33q-18 -25 -25 -54q-8 -34 -8 -70q0 -42 9 -73q9 -33 25 -54q17 -21 40 -33q25 -11 53 -11q31 0 48 7q22 9 31 16q3 2 11 7.5t11 8.5q8 7 20 7q16 0 23 -11z" />
    <glyph glyph-name="d" unicode="d" horiz-adv-x="573" 
d="M557 61v-59h-70h-76q-11 0 -20 6q-8 5 -11 17l-10 47q-30 -34 -71 -57q-40 -22 -95 -22q-43 0 -76 17q-34 18 -60 51q-25 32 -39 82q-14 51 -14 112q0 57 15 106q14 46 45 85q27 34 69 56q40 21 91 21q43 0 74 -14q33 -15 54 -36v171q-7 1 -16.5 3t-12.5 2q-3 1 -8.5 2
t-6.5 1h-4l-2 1q-25 6 -25 31v59h75h124v-643q6 -1 15.5 -2.5t10.5 -1.5q3 -1 7.5 -2t5.5 -1t3 -0.5t3 -0.5q25 -6 25 -31zM364 152v230q-20 25 -46 36q-27 11 -54 11q-26 0 -50 -11q-22 -10 -39 -32q-15 -21 -24 -54q-8 -29 -8 -77t7 -77q7 -30 21 -50q14 -21 32 -29
q19 -9 44 -9q40 0 66 16q28 17 51 46z" />
    <glyph glyph-name="e" unicode="e" horiz-adv-x="499" 
d="M262 521q48 0 89 -15q38 -14 70 -46q29 -29 46 -73q17 -45 17 -98q0 -12 -2 -24q-2 -11 -4 -14q-2 -5 -9 -8q-4 -2 -14 -2h-317q6 -79 43 -116t98 -37q31 0 51 7q22 7 38 16q5 2 15 7t14 8q11 7 23 7q8 0 14 -3q5 -2 9 -8l36 -45q-23 -26 -46 -41q-27 -17 -53 -26
q-25 -8 -57 -13q-25 -4 -56 -4q-55 0 -99 17t-80 53q-34 34 -54 86q-19 50 -19 119q0 50 17 98q16 45 49 81q31 34 77 54t104 20zM264 433q-53 0 -84 -31q-30 -30 -39 -86h232q0 20 -7 45q-6 19 -20 37q-13 16 -34 25q-23 10 -48 10z" />
    <glyph glyph-name="f" unicode="f" horiz-adv-x="368" 
d="M220 590q-7 -23 -7 -47v-34h134v-88h-129v-322l30 -5q4 0 10 -1.5t8 -1.5t5 -1h3q25 -6 25 -31v-59h-81h-1h-123h-76v59q0 25 25 31q4 0 7 1q4 1 15 3q4 1 14 2.5t15 2.5v321l-44 7q-16 3 -24 10t-8 21v50h76v38q0 46 13 79q15 38 38 60q26 24 60 37q35 13 80 13
q36 0 66 -9l-2 -62q-1 -15 -14 -18q-16 -4 -29 -4q-24 0 -39 -4q-16 -5 -29 -17q-12 -12 -18 -31z" />
    <glyph glyph-name="g" unicode="g" horiz-adv-x="516" 
d="M239 522q29 0 62 -7q28 -6 53 -20h147v-46q0 -12 -6 -18t-20 -9l-46 -8q3 -10 7 -28q3 -15 3 -30q0 -39 -15 -69q-16 -32 -42 -52t-64 -33q-36 -12 -79 -12q-35 0 -57 5q-24 -15 -24 -32q0 -16 14 -23t38 -10q32 -4 53 -4l60 -3q31 -3 61 -9q26 -5 52 -20q24 -13 38 -36
q14 -22 14 -60q0 -34 -17 -66t-48 -57q-30 -25 -78 -40q-47 -15 -105 -15q-62 0 -102 11q-42 12 -71 30q-28 17 -42 43q-14 25 -14 51q0 38 22 61q21 23 61 38q-18 10 -30 28t-12 46q0 13 4 24q6 16 12 24q10 13 21 23q8 7 30 19q-39 21 -62 56q-22 34 -22 82q0 39 15 69
t43 52q27 21 64 33q38 12 82 12zM374 -23q0 15 -9 24t-24 15q-11 4 -37 8q-16 2 -44 4q-8 0 -24 1t-24 1q-32 2 -47 4q-23 -13 -34 -27q-13 -16 -13 -36q0 -11 7 -25q6 -12 21 -21q14 -8 39 -13q27 -5 57 -5q34 0 60 6q27 6 41 14q16 8 24 22q7 11 7 28zM239 269q23 0 40 6
t28 17q10 8 17 27q6 15 6 34q0 37 -23 60q-22 22 -68 22q-47 0 -69 -22t-22 -60q0 -21 5 -34q6 -15 17 -26q12 -13 29 -18q18 -6 40 -6z" />
    <glyph glyph-name="h" unicode="h" horiz-adv-x="635" 
d="M592 90q25 -6 25 -31v-59h-75h-124v326q0 48 -22 73q-21 26 -65 26q-31 0 -60 -15q-30 -16 -53 -39v-272q4 -1 11 -2t11.5 -2t7.5 -1q4 0 9 -1.5t6 -1.5q3 -1 6 -1q25 -6 25 -31v-59h-76h-123h-76v59q0 25 25 31h2q2 1 4 1t7 1.5t8 1.5t7.5 1t11.5 2t11 2v545q-4 1 -11 2
t-11.5 2t-7.5 1q-4 1 -8.5 2t-6.5 1h-4l-2 1q-25 6 -25 31v59h76h123v-286q29 27 66 46q36 18 85 18q40 0 74 -14q29 -12 54 -40q21 -25 33 -62q12 -41 12 -78v-228q5 -1 15 -2.5t14 -2.5q11 -2 15 -3q3 -1 6 -1z" />
    <glyph glyph-name="i" unicode="i" horiz-adv-x="310" 
d="M268 90q25 -6 25 -31v-59h-76h-123h-76v59q0 25 25 31h2q2 1 4 1l15 3l30 5v315q-4 1 -11 2t-11.5 2t-7.5 1q-4 1 -9 2t-6 1h-4l-2 1q-25 6 -25 31v59h76h123v-414q4 -1 11 -2t11.5 -2t7.5 -1q4 0 8.5 -1.5t6.5 -1.5t4 -1h2zM236 663q0 -14 -7 -30q-6 -14 -17 -25
q-12 -12 -25 -17q-15 -6 -31 -6t-31 6q-12 5 -24 17q-11 11 -17 25q-6 13 -6 30q0 16 6 31q5 13 17 25q11 11 24 16q17 7 31 7q13 0 31 -7q15 -6 25 -16q12 -12 17 -25q7 -18 7 -31z" />
    <glyph glyph-name="j" unicode="j" horiz-adv-x="270" 
d="M250 693q6 -15 6 -31t-6 -30q-5 -11 -18 -24q-12 -12 -25 -17q-15 -6 -31 -6t-30 6t-25 17t-17 24q-6 14 -6 30t6 31q5 13 17 25t25 17q14 6 30 6t31 -6q13 -5 25 -17q13 -13 18 -25zM114 513h123v-530q0 -36 -8 -63q-9 -30 -28 -52q-20 -23 -51 -35q-34 -13 -76 -13
q-12 0 -32 2q-6 1 -31 8l4 66q1 10 8 13q6 3 25 3q23 0 31 3q14 3 21 12q8 8 11 22t3 34v431q-5 1 -15 2.5t-14 2.5t-8.5 2t-6.5 1t-4 0.5t-3 0.5q-25 6 -25 31v59h76z" />
    <glyph glyph-name="k" unicode="k" horiz-adv-x="606" 
d="M563 90q25 -6 25 -31v-59h-20h-56h-55q-13 0 -25 5q-10 4 -18 17l-130 195q-8 12 -15 15t-23 3h-28v-136q4 -1 11 -2t11.5 -2t7.5 -1l15 -3q2 0 4 -1h2q25 -6 25 -31v-59h-76h-123h-76v59q0 25 25 31h2q2 1 4 1t7 1.5t8 1.5t7.5 1t11.5 2t11 2v545q-4 1 -11 2t-11.5 2
t-7.5 1q-4 1 -8.5 2t-6.5 1h-4l-2 1q-25 6 -25 31v59h76h123v-425h23q13 0 20 3q6 3 15 13l71 87q-2 0 -4 0.5t-3 0.5l-2 1q-25 6 -25 31v59h123v-1q4 1 10 1h110v-59q0 -25 -25 -31q-4 0 -8 -1q-6 -1 -20 -3q-4 0 -13 -1.5t-14 -2.5l-76 -92q-12 -14 -18 -20
q-10 -10 -19 -15q12 -9 18 -17q1 -1 7 -9t9 -13l103 -150q22 -4 32 -5q4 0 8.5 -0.5t7.5 -1t5 -0.5q8 -2 10 -2z" />
    <glyph glyph-name="l" unicode="l" horiz-adv-x="311" 
d="M269 90q25 -6 25 -31v-59h-76h-123h-76v59q0 25 25 31q3 0 6 1q4 1 15 3q3 0 7.5 1t11.5 2t11 2v545q-4 1 -11 2t-11.5 2t-7.5 1q-4 1 -8.5 2t-6.5 1h-4l-2 1q-25 6 -25 31v59h76h123v-644q4 -1 11 -2t11.5 -2t7.5 -1l15 -3q3 -1 6 -1z" />
    <glyph glyph-name="m" unicode="m" horiz-adv-x="910" 
d="M866 90q25 -6 25 -31v-59h-75h-124v326q0 50 -21 74q-21 25 -63 25q-17 0 -36 -7q-16 -6 -28 -18q-10 -10 -19 -31q-7 -17 -7 -43v-227q7 -1 16.5 -3t12.5 -2q11 -2 15 -3q3 -1 6 -1q25 -6 25 -31v-59h-75h-124v326q0 51 -21 75t-61 24q-27 0 -50 -13q-21 -12 -43 -37
v-276q5 -1 15 -2.5t14 -2.5l15 -3q3 -1 6 -1q25 -6 25 -31v-59h-75h-124h-75v59q0 25 25 31h2q2 1 4 1q1 0 6 1.5t9 1.5q4 1 14 2.5t15 2.5v315q-5 1 -15 2.5t-14 2.5t-9 2t-6 1h-4l-2 1q-26 6 -26 31v59h76h76q23 0 31 -23l8 -38q18 20 28 28q14 11 32 21q16 9 36 15
q16 5 42 5q50 0 80 -26q32 -28 47 -70q12 26 30 44q16 16 39 29q17 10 46 17q24 6 49 6q43 0 75 -13q35 -14 56 -38q22 -25 34 -61t12 -83v-227q5 -1 15 -2.5t14 -2.5q3 0 8 -1.5t7 -1.5t4 -1h2z" />
    <glyph glyph-name="n" unicode="n" horiz-adv-x="636" 
d="M593 90q25 -6 25 -31v-59h-76h-123v326q0 46 -22 73q-21 26 -65 26q-32 0 -60 -15q-30 -16 -53 -39v-272q5 -1 15 -2.5t14 -2.5l15 -3q3 -1 6 -1q25 -6 25 -31v-59h-75h-124h-75v59q0 25 25 31h2q2 1 4 1l15 3q4 1 14 2.5t15 2.5v315q-5 1 -15 2.5t-14 2.5t-9 2t-6 1
q-3 1 -6 1q-25 6 -25 31v59h75h76q23 0 31 -23l9 -40q14 16 32 29q14 11 37 22q26 12 41 15q25 5 48 5q44 0 75 -14q29 -12 54 -40q21 -25 33 -62q11 -33 11 -79v-227l30 -5q3 0 8.5 -1.5t6.5 -1.5q2 0 4 -1h2z" />
    <glyph glyph-name="o" unicode="o" horiz-adv-x="538" 
d="M270 521q55 0 104 -19q48 -19 80 -52t50 -83q18 -49 18 -109q0 -61 -18 -110q-19 -51 -50 -84q-33 -35 -80 -53q-46 -18 -104 -18t-105 18t-80 53q-35 36 -52 84q-18 49 -18 110q0 60 18 109q17 46 52 83q32 33 80 52q49 19 105 19zM270 88q64 0 94 43q31 45 31 126
t-31 126q-30 44 -94 44t-96 -44t-32 -127q0 -81 32 -125q31 -43 96 -43z" />
    <glyph glyph-name="p" unicode="p" horiz-adv-x="577" 
d="M547 372q14 -51 14 -111q0 -54 -16 -107q-14 -48 -44 -85q-27 -34 -69 -56q-39 -20 -92 -20q-44 0 -73 13q-33 15 -55 37v-111q7 -1 17 -3.5t13 -2.5t6 -0.5t5.5 -1t3.5 -0.5q3 -1 6 -1q25 -6 25 -32v-58h-76h-123h-76v58q0 26 25 32l2 1h4q1 0 15 2q3 0 13.5 2.5
t16.5 3.5v482q-4 1 -11 2t-11.5 2t-7.5 1q-4 1 -8.5 2t-6.5 1h-4l-2 1q-25 6 -25 31v59h76h75q12 0 21 -6q8 -5 11 -17l10 -47q30 34 71 57q40 22 94 22q44 0 77 -17q34 -18 60 -51q25 -32 39 -82zM425 183q8 29 8 77t-7 77q-7 30 -21 50t-33 29t-43 9q-40 0 -66 -16
q-28 -17 -51 -46v-230q20 -25 46 -36q23 -10 53 -10t51 10q20 9 38 32q17 23 25 54z" />
    <glyph glyph-name="q" unicode="q" horiz-adv-x="578" 
d="M542 -78q25 -6 25 -31v-59h-80h-123h-76v59q0 25 25 31q3 0 6 1l15 3q3 0 12.5 2t16.5 3v133q-28 -30 -69 -51q-40 -20 -90 -20q-42 0 -76 18q-36 19 -60 50q-26 33 -39 81q-14 50 -14 112q0 56 15 106q14 46 45 85q30 38 69 57q39 20 91 20q113 0 252 -28v-161v-402
q27 -5 31 -5q4 -1 9.5 -2t6.5 -1q2 0 5 -1h3zM313 106q27 17 50 45v267q-55 10 -99 10q-27 0 -51 -11q-23 -11 -38 -32q-14 -18 -24 -54q-9 -33 -9 -77q0 -42 8 -76t20 -51q14 -20 33 -29t44 -9q38 0 66 17z" />
    <glyph glyph-name="r" unicode="r" horiz-adv-x="436" 
d="M359 522q39 0 63 -17l-16 -93q-2 -9 -6 -12q-6 -4 -14 -4q-6 0 -20 3q-18 4 -35 4q-39 0 -66 -21q-25 -19 -46 -63v-220q45 -8 50 -9q25 -6 25 -31v-59h-75h-124h-75v59q0 25 25 31q5 1 50 9v315q-45 8 -50 9q-25 6 -25 31v59h75h73q19 0 26 -7t10 -24l8 -62q27 49 64 75
q38 27 83 27z" />
    <glyph glyph-name="s" unicode="s" horiz-adv-x="402" 
d="M378 216q11 -24 11 -53q0 -36 -14 -69q-13 -32 -39 -54q-27 -24 -64 -35q-36 -13 -88 -13q-89 0 -163 28v50v95h5h12h41q18 0 23 -19q2 -11 7 -59q27 -8 81 -8q21 0 38 5q17 6 26 14q12 10 15 19q4 11 4 24q0 18 -10 29q-9 10 -29 20q-19 9 -40 15q-15 5 -47 15
q-16 5 -46 19q-24 11 -41 27q-18 16 -28 40q-11 25 -11 58q0 32 12 60t37 50t61 34q39 13 83 13q62 0 150 -27h-1v-145h-4h-12h-41q-18 0 -23 19q-3 13 -7 56q-23 7 -60 7q-36 0 -57 -15t-21 -41q0 -15 11 -28q8 -9 28 -19q23 -11 40 -16q8 -2 46 -14q19 -6 47 -19
q24 -11 40 -26q18 -15 28 -37z" />
    <glyph glyph-name="t" unicode="t" horiz-adv-x="374" 
d="M228 -8q-67 0 -103 38t-36 104v286h-52q-8 0 -17 7q-8 6 -8 19v50l83 13l26 140q1 9 9 15t19 6h64v-162h135v-88h-135v-278q0 -24 12 -37t32 -13q14 0 19 2t13 6t11 6t8 2q8 0 10 -2q4 -4 7 -8l37 -60q-26 -21 -62 -34q-34 -12 -72 -12z" />
    <glyph glyph-name="u" unicode="u" horiz-adv-x="630" 
d="M586 90q25 -6 25 -31v-59h-75h-76q-23 0 -31 23l-9 41q-16 -16 -33 -30q-15 -12 -36 -22q-19 -9 -42 -15q-25 -5 -47 -5q-41 0 -75 14q-29 12 -54 41q-20 23 -33 61q-11 38 -11 79v227q-43 8 -51 9q-25 6 -25 31v59h76h123v-326q0 -46 22 -73q21 -25 65 -25q30 0 60 14
q27 13 53 39v272q-18 3 -29 5t-14.5 3t-6.5 1q-25 6 -25 31v59h75h124v-414q45 -8 50 -9z" />
    <glyph glyph-name="v" unicode="v" horiz-adv-x="614" 
d="M566 513h33v-59q0 -25 -25 -31q-3 0 -6 -1t-13 -3t-28 -5l-165 -414h-112l-165 414q-14 3 -24 5t-13 2.5t-5 1t-5 0.5q-25 6 -25 31v59h33h103h114v-59q0 -25 -25 -31q-18 -3 -28 -5l73 -202q5 -14 14 -47q7 -27 11 -46q7 34 10 46q6 24 15 47l74 201q-15 2 -24 4l-9 2
q-25 6 -25 31v59h119h98z" />
    <glyph glyph-name="w" unicode="w" horiz-adv-x="894" 
d="M838 513h41v-59q0 -25 -25 -31q-3 0 -5 -0.5t-5 -1t-13 -2.5t-24 -5l-131 -414h-100q-16 0 -23 22l-92 296l-9 30q-1 2 -6 29l-6 -30q-2 -10 -8 -30l-94 -295q-7 -22 -27 -22h-94l-132 414q-18 3 -28 5t-13 3t-6 1q-25 6 -25 31v59h41h98h111v-59q0 -25 -25 -31
q-1 0 -9.5 -2t-21.5 -4l54 -201q8 -30 10 -44q1 -7 3.5 -21.5t3.5 -21.5q2 7 6 21.5t6 21.5q10 35 13 44l85 275q3 10 12 16q10 7 21 7h55q12 0 22 -7q9 -6 12 -16l84 -280l12 -42q1 -7 5 -20.5t5 -20.5q2 17 8 43q4 19 11 45l55 200q-16 3 -24.5 5t-11.5 2q-25 6 -25 31v59
h115h1h93z" />
    <glyph glyph-name="x" unicode="x" horiz-adv-x="561" 
d="M517 90q25 -6 25 -31v-59h-4h-44h-28h-47h-100v59q0 25 24 31l-68 111q-4 -15 -13 -30l-52 -80q1 0 3 -0.5t3 -0.5q25 -6 25 -31v-59h-108h-39h-27h-45h-4v59q0 25 26 31q2 0 6 1t13 2.5t23 3.5l112 167l-103 152q-13 2 -22 3.5t-12.5 2.5t-6.5 1q-25 6 -25 31v59v0h119
h103v-59q0 -25 -25 -31l61 -98q1 3 3 8.5t3 8.5q1 4 10 17l39 62q-2 1 -4 1t-4 1q-25 6 -25 31v59h108h1h113h1v-59q0 -25 -25 -31q-2 0 -6 -1t-13.5 -2.5t-23.5 -3.5l-102 -146l113 -173q14 -2 23 -3.5t12.5 -2.5t6.5 -1z" />
    <glyph glyph-name="y" unicode="y" horiz-adv-x="611" 
d="M566 513h30v-59q0 -25 -25 -31q-3 0 -6 -1t-13 -3t-28 -5l-237 -555q-6 -14 -15 -20q-7 -6 -26 -6h-92l96 205l-165 376q-18 3 -28 5t-13 3t-6 1q-25 6 -25 31v59h29h108h113v-59q0 -25 -25 -31q-2 0 -8.5 -1t-15.5 -3l81 -195q2 -4 3.5 -8.5t3 -10t2.5 -8.5q2 -7 7 -28
q3 10 9 28t10 27l75 193q-13 3 -34 6q-25 6 -25 31v59h121h99z" />
    <glyph glyph-name="z" unicode="z" horiz-adv-x="449" 
d="M424 168h4v-168h-14h-2h-394v52q0 9 4 20q5 14 12 22l246 324h-161q-4 -40 -6 -50q-5 -19 -23 -19h-41h-12h-5v158v6h389v-51q0 -14 -4 -25q-3 -7 -12 -21l-243 -321h179q6 52 6 54q5 19 23 19h42h12z" />
    <glyph glyph-name="braceleft" unicode="{" horiz-adv-x="280" 
d="M76 205q0 31 -15 50t-45 19v72q30 0 45 19t15 50q0 14 -4 46q-4 29 -7 47q-6 34 -8 47q-3 24 -3 49q0 36 11 69q9 29 34 53q23 23 57 35q37 13 82 13h26v-56q0 -8 -2 -11q-3 -4 -7 -7q-6 -4 -9 -5t-8 -1h-5q-35 0 -53 -22q-19 -24 -19 -61q0 -27 3 -53q1 -9 3.5 -25.5
t3.5 -23.5q2 -16 6 -46q3 -22 3 -47q0 -22 -5 -36q-7 -20 -16 -31q-12 -16 -24 -24q-15 -11 -33 -15q19 -6 33 -16q12 -8 24 -24q9 -11 16 -31q5 -14 5 -36q0 -23 -3 -46q-2 -15 -6 -47q-1 -7 -3.5 -23.5t-3.5 -25.5q-2 -17 -2 -53q0 -38 18 -60t54 -22h4q2 0 8 -2t9 -4
t7 -8q2 -3 2 -12v-54h-26q-48 0 -82 12t-57 35q-25 25 -34 53q-11 33 -11 70q0 24 3 48q2 13 8 47q3 18 7 47q4 32 4 47z" />
    <glyph glyph-name="bar" unicode="|" horiz-adv-x="150" 
d="M28 774h96v-942h-96v942z" />
    <glyph glyph-name="braceright" unicode="}" horiz-adv-x="280" 
d="M205 205q0 -23 3 -47q4 -29 7 -47q6 -34 8 -47q3 -24 3 -49q0 -36 -11 -69q-9 -28 -34 -53q-23 -23 -57 -35q-35 -12 -82 -12h-26v54q0 9 2 12q4 6 7 8t9 4t8 2h4q36 0 54 22q19 24 19 60q0 28 -3 53q-1 9 -3.5 25.5t-3.5 23.5q-2 16 -6 46q-3 22 -3 47q0 21 5 35
q8 21 16 32q12 16 24 24q14 10 33 16q-18 4 -33 15q-12 8 -24 24q-9 11 -16 31q-5 14 -5 36q0 24 3 46q2 15 6 47q1 7 3.5 23.5t3.5 25.5q3 26 3 53q0 37 -19 61q-18 22 -53 22h-5q-5 0 -8 1t-9 5q-4 3 -7 7q-2 3 -2 11v56h26q45 0 82 -13q34 -12 57 -35q25 -24 34 -53
q11 -33 11 -69q0 -25 -3 -49q-2 -13 -8 -47q-3 -14 -7 -47q-3 -24 -3 -47q0 -31 14 -49q15 -19 46 -19v-72q-31 0 -46 -19q-14 -18 -14 -50z" />
    <glyph glyph-name="asciitilde" unicode="~" horiz-adv-x="532" 
d="M348 324q29 0 44 18q16 19 16 51h99q0 -40 -10 -70q-11 -31 -30 -54q-19 -22 -47 -34t-64 -12q-29 0 -51 7q-41 13 -46 15t-41 16q-18 7 -34 7q-29 0 -44 -18q-16 -19 -16 -51h-99q0 40 10 70t30 53q21 24 47 35q28 12 64 12q29 0 51 -7q10 -3 46 -16q8 -3 22.5 -8
t18.5 -7q18 -7 34 -7z" />
    <glyph glyph-name="uni00A0" unicode="&#xa0;" horiz-adv-x="75" 
 />
    <glyph glyph-name="exclamdown" unicode="&#xa1;" horiz-adv-x="191" 
d="M39 -168v267q0 41 5 89q4 44 12 93h83q7 -49 12 -93q5 -48 5 -89v-267h-117zM20 446q0 16 6 30t15 23q10 10 24 16q13 6 30 6t30 -6q16 -7 24 -15q10 -10 16 -24t6 -30t-6 -30q-6 -13 -16 -23t-24 -16t-29 -6q-16 0 -30 6t-24 16t-16 23q-6 14 -6 30z" />
    <glyph glyph-name="cent" unicode="&#xa2;" horiz-adv-x="466" 
d="M415 120l36 -44q-22 -25 -45 -41q-21 -15 -49 -26q-21 -8 -54 -13q-28 -4 -43 -4l-4 -58l-2 -14q-2 -12 -10 -22q-10 -10 -23 -10h-46l6 66l4 46q-18 6 -26 9q-42 18 -73 52t-49 83q-19 52 -19 113q0 55 17 104q17 50 47 84q31 35 78 55q32 14 69 18l5 47l2 32
q2 12 10 22q8 9 24 9h45l-6 -72v-1l-3 -37q38 -4 123 -35v-158h-4h-12h-42q-18 0 -23 19q0 1 -1.5 12.5t-3 26.5t-3.5 33q-27 8 -42 9l-1 -3l-29 -336h4q31 0 48 7q20 8 30 16q3 2 11 7.5t11 8.5q8 7 21 7q15 0 22 -12zM154 184q9 -33 25 -54q10 -12 16 -17l11 133l15 169
h-2l-1 -1q-25 -13 -41 -34q-17 -23 -24 -53q-8 -34 -8 -71q0 -40 9 -72z" />
    <glyph glyph-name="sterling" unicode="&#xa3;" horiz-adv-x="577" 
d="M18 340q0 16 11 29q10 12 31 12h54v118q0 45 14 89q14 43 42 74q29 32 72 50q46 19 100 19q42 0 72 -10q35 -12 57 -28q28 -21 43 -41t31 -52l-49 -31q-18 -8 -29 -8q-18 0 -33 17q-6 7 -19 20q-11 11 -20 16q-13 8 -23 10q-12 3 -30 3q-51 0 -77 -34q-25 -32 -25 -93
v-119h204v-49q0 -12 -9 -22t-26 -10h-169v-97q0 -33 -12 -59q-11 -23 -34 -48q38 9 73 9h293v-52q0 -10 -3 -19t-11 -17q-7 -7 -17 -12t-21 -5h-480v78q22 6 32 11q20 10 28 18q9 9 18 27q8 16 8 36v130h-96v40z" />
    <glyph glyph-name="currency" unicode="&#xa4;" horiz-adv-x="505" 
d="M68 336q0 23 7 51q5 21 19 45l-76 76l62 60l76 -74q17 11 46 20q22 7 51 7q22 0 50 -7q21 -5 45 -19l76 76l62 -61l-76 -76q11 -17 20 -46q8 -26 8 -52q0 -22 -7 -50q-5 -19 -19 -44l76 -76l-62 -62l-76 76q-17 -11 -46 -20q-26 -8 -51 -8q-22 0 -50 7q-21 5 -45 19
l-76 -76l-62 62l76 75q-11 17 -20 46q-8 26 -8 51zM160 336q0 -19 7 -36t20 -30t29 -20q18 -8 37 -8q18 0 37 8q17 7 30 20t20 30t7 36q0 21 -7 38t-20 30t-30 20q-19 8 -37 8q-19 0 -37 -8q-16 -8 -29 -20q-13 -13 -20 -30t-7 -38z" />
    <glyph glyph-name="yen" unicode="&#xa5;" horiz-adv-x="596" 
d="M76 316h138l-198 407h102q19 0 28 -8q13 -11 18 -22l109 -244q10 -21 16 -41q3 -9 10 -38q7 29 10 38q8 26 15 41l109 244q6 11 17 21q10 9 28 9h103l-199 -407h138v-68h-160v-48h160v-68h-160v-132h-124v132h-160v68h160v48h-160v68z" />
    <glyph glyph-name="brokenbar" unicode="&#xa6;" horiz-adv-x="149" 
d="M26 774h96v-405h-96v405zM26 236h96v-404h-96v404z" />
    <glyph glyph-name="section" unicode="&#xa7;" horiz-adv-x="452" 
d="M384 622q-5 -9 -10 -11q-6 -3 -14 -3q-11 0 -20 4q-3 1 -11 5.5t-13 6.5q-17 7 -31 11q-20 5 -41 5q-18 0 -36 -5q-17 -5 -27 -13q-12 -10 -17 -19q-6 -11 -6 -23q0 -16 12 -28t32 -23q17 -9 44 -21q9 -4 25 -11t25 -10q40 -19 51 -25q29 -16 45 -31q18 -17 31 -41
q11 -21 11 -53q0 -40 -18 -73q-18 -34 -60 -53q18 -15 36 -43q14 -22 14 -58q0 -38 -13 -68q-13 -32 -39 -54q-28 -25 -64 -36q-42 -13 -88 -13q-24 0 -52 5q-27 5 -49 13q-27 10 -43 20q-20 12 -34 25l28 47q6 9 13 13q8 5 19 5q10 0 22 -7q2 -1 10.5 -6t13.5 -8
q14 -8 34 -14t48 -6q41 0 64 17t23 47q0 19 -12 34q-10 12 -32 26q-19 12 -45 21q-34 12 -52 19q-8 3 -16.5 7t-18.5 9l-16 8q-25 12 -45 30q-20 19 -32 42q-12 24 -12 56q0 41 20 71q21 32 64 50q-24 21 -38 46t-14 65q0 32 12 60q12 29 36 50q25 22 61 34t83 12
q56 0 97 -17q46 -19 73 -46zM127 362q0 -21 15 -36q17 -17 37 -27q34 -17 53 -24q6 -3 18 -7.5t21.5 -8.5t17.5 -8q21 11 29 25q9 15 9 34q0 21 -14 37q-13 14 -37 27q-34 18 -50 24q-24 9 -56 24q-24 -13 -33 -26q-10 -14 -10 -34z" />
    <glyph glyph-name="dieresis" unicode="&#xa8;" horiz-adv-x="373" 
d="M162 646q0 -14 -6 -26q-7 -14 -15 -22q-6 -6 -22 -14q-10 -5 -27 -5q-16 0 -26 5q-16 8 -22 14t-14 22q-6 12 -6 26q0 15 6 27q9 18 14 23q6 6 22 14q12 6 26 6q15 0 27 -6q16 -8 22 -14q7 -7 15 -23q6 -12 6 -27zM349 646q0 -16 -5 -26q-6 -12 -16 -22q-6 -6 -22 -14
q-10 -5 -26 -5q-17 0 -27 5q-16 8 -22 14q-8 8 -15 22q-5 10 -5 26q0 17 5 27q8 16 15 23q6 6 22 14q12 6 27 6q14 0 26 -6q14 -6 22 -14q9 -9 16 -23q5 -10 5 -27z" />
    <glyph glyph-name="copyright" unicode="&#xa9;" horiz-adv-x="775" 
d="M500 256q7 0 10 -2q7 -5 8 -6l41 -44q-28 -36 -71 -54q-44 -19 -100 -19q-50 0 -90 18q-41 18 -69 49q-31 35 -45 73q-15 42 -15 92q0 54 17 94q19 44 49 73q35 33 73 48q41 16 90 16q57 0 96 -18q41 -19 67 -48l-33 -44q-1 -1 -2 -2.5t-3 -3t-3 -2.5q-4 -4 -13 -4
q-8 0 -16 5q-1 1 -7.5 5t-10.5 6q-12 7 -27 11q-18 5 -41 5q-26 0 -53 -10q-24 -10 -40 -28q-15 -17 -25 -44q-9 -26 -9 -59q0 -35 9 -60q9 -26 24 -44q14 -17 37 -27q21 -9 46 -9q28 0 41 4q20 5 26 9q14 8 20 12q7 4 19 8zM18 362q0 48 14 98q14 49 37 88q25 42 58 75
q31 31 75 57q41 24 88 38q45 13 98 13q52 0 98 -13q49 -14 88 -37q42 -25 75 -58q33 -35 57 -75q25 -43 38 -88q13 -46 13 -98t-13 -98q-13 -45 -38 -88q-26 -44 -57 -75t-75 -57q-43 -25 -88 -38q-46 -13 -98 -13q-53 0 -98 13q-47 14 -88 38q-44 26 -75 57q-33 33 -58 75
q-22 38 -37 88q-14 48 -14 98zM86 362q0 -67 23 -122q24 -56 64 -98q41 -42 96 -66t119 -24q63 0 118 24q57 25 97 66q42 44 65 98q23 55 23 122q0 41 -11 83q-10 41 -30 75q-19 33 -47 63q-22 23 -61 48q-31 20 -73 31q-45 12 -81 12q-37 0 -82 -12q-40 -11 -72 -31
q-39 -25 -61 -48q-28 -30 -47 -63q-20 -34 -30 -75q-10 -39 -10 -83z" />
    <glyph glyph-name="ordfeminine" unicode="&#xaa;" horiz-adv-x="316" 
d="M291 420h-41q-10 0 -20 4q-6 2 -10 14l-6 18l-8 -6t-9 -6t-7 -5q-14 -10 -22 -13q-9 -4 -25 -7q-14 -3 -29 -3q-21 0 -38 6q-20 7 -30 16q-13 11 -19 27q-7 17 -7 36q0 16 9 34t29 31q22 14 57 23q38 10 89 11v12q0 28 -11 39t-35 11q-14 0 -28 -4q-7 -2 -19 -8l-16 -8
q-7 -3 -18 -3q-9 0 -16 5q-6 5 -10 12l-16 28q27 24 62 37q33 12 72 12q29 0 51 -9q24 -10 38 -25q15 -17 24 -39t9 -48v-192zM142 477q16 0 33 7q13 5 29 21v41q-23 -1 -48 -5q-10 -2 -30 -9q-11 -6 -16 -12q-4 -5 -4 -14q0 -17 9 -23t27 -6z" />
    <glyph glyph-name="guillemotleft" unicode="&#xab;" horiz-adv-x="393" 
d="M20 261v16l128 198l40 -19q10 -4 15 -12t5 -15q0 -9 -7 -21l-69 -118q-8 -14 -16 -21q10 -10 16 -21l69 -118q7 -12 7 -22q0 -17 -19 -26l-41 -19zM184 261l1 16l128 198l40 -19q11 -5 15 -11q4 -7 4 -16q0 -11 -6 -21l-69 -118q-8 -14 -16 -21q10 -10 16 -21l69 -118
q6 -11 6 -22q0 -17 -19 -26l-41 -19z" />
    <glyph glyph-name="logicalnot" unicode="&#xac;" horiz-adv-x="498" 
d="M26 382h444v-234h-105v142h-339v92z" />
    <glyph glyph-name="uni00AD" unicode="&#xad;" horiz-adv-x="316" 
d="M28 354h260v-104h-260v104z" />
    <glyph glyph-name="registered" unicode="&#xae;" horiz-adv-x="775" 
d="M18 362q0 48 14 98q14 49 37 88q25 42 58 75q31 31 75 57q41 24 88 38q45 13 98 13q52 0 98 -13q45 -13 88 -38q44 -26 75 -57t57 -75q25 -43 38 -88q13 -46 13 -98t-13 -98q-13 -45 -38 -88q-26 -44 -57 -75t-75 -57q-43 -25 -88 -38q-46 -13 -98 -13q-53 0 -98 13
q-47 14 -88 38q-44 26 -75 57q-33 33 -58 75q-22 38 -37 88q-14 48 -14 98zM86 361q0 -66 23 -121q24 -56 64 -98q41 -42 96 -66t119 -24q63 0 118 24q57 25 97 66q42 44 65 98q23 55 23 122q0 41 -11 83q-10 41 -30 75q-19 33 -47 63q-22 23 -61 48q-31 20 -73 31
q-45 12 -81 12q-37 0 -82 -12q-36 -10 -72 -31q-39 -25 -61 -48q-28 -30 -47 -63q-20 -34 -30 -75q-10 -39 -10 -84zM332 301v-163h-108v449h161q93 0 137 -33t44 -96q0 -43 -24 -78q-23 -34 -71 -49q10 -5 19 -16q10 -14 15 -23l91 -154h-103q-23 0 -32 17l-72 131
q-5 8 -11 11q-8 4 -19 4h-27zM332 378h44q27 0 42 4q19 5 26 12q10 10 13 22t3 28q0 15 -3 27q-3 14 -11 20q-10 8 -23 11q-20 4 -38 4h-53v-128z" />
    <glyph glyph-name="macron" unicode="&#xaf;" horiz-adv-x="352" 
d="M26 686h300v-79h-300v79z" />
    <glyph glyph-name="degree" unicode="&#xb0;" horiz-adv-x="387" 
d="M20 562q0 36 13 66q14 32 37 54q26 25 55 37q30 13 68 13t68 -13q29 -12 55 -37q23 -22 37 -54q13 -30 13 -66t-13 -66t-37 -54q-23 -23 -55 -37q-30 -13 -69 -13q-38 0 -68 13t-54 37t-37 54t-13 66zM106 560q0 -18 6 -34q5 -14 19 -28q12 -12 27 -18q18 -7 35 -7
q15 0 34 7q18 8 28 18q12 12 18 28q7 19 7 34q0 17 -7 36q-6 16 -18 28q-11 12 -28 19q-15 7 -34 7q-21 0 -35 -7q-16 -8 -27 -19q-12 -12 -18 -28q-7 -19 -7 -36z" />
    <glyph glyph-name="plusminus" unicode="&#xb1;" horiz-adv-x="531" 
d="M316 620v-176h194v-92h-194v-171h-100v171h-194v92h194v176h100zM22 132h488v-92h-488v92z" />
    <glyph glyph-name="twosuperior" unicode="&#xb2;" horiz-adv-x="312" 
d="M288 555h3v-53v-46v-6h-271v28q0 6 4 18q4 10 11 18l104 103q7 7 21 23q5 6 17 25q7 12 12 24q4 11 4 24q0 16 -10 29q-8 11 -27 11q-17 0 -26 -8q-11 -10 -17 -24q-5 -8 -12 -13t-18 -5q-1 0 -2.5 0.5t-2.5 0.5h-6l-50 8q9 59 46 85q38 27 93 27q32 0 52 -8
q23 -9 38 -23q18 -18 24 -34q8 -21 8 -43t-6 -38t-17 -32q-14 -20 -23 -30t-29 -30l-64 -65q7 2 28 7q9 2 25 2h45q1 7 1 14q3 11 14 11h24h7z" />
    <glyph glyph-name="threesuperior" unicode="&#xb3;" horiz-adv-x="305" 
d="M160 824q31 0 51 -8q23 -9 37 -22q18 -17 24 -30q8 -19 8 -36q0 -33 -13 -53q-14 -22 -42 -34q32 -11 46 -28q15 -18 15 -48q0 -31 -12 -53t-30 -37q-17 -14 -42 -22q-22 -7 -47 -7q-31 0 -49 5q-24 7 -38 17q-18 13 -29 31q-15 24 -22 47l39 16q9 4 20 4q17 0 25 -14
q4 -8 7 -12q4 -6 10 -10q7 -5 14 -8q8 -3 18 -3q22 0 35 13q12 12 12 30q0 13 -3 22q-3 8 -12 14q-10 7 -23 8q-10 2 -35 2v58q17 0 35 4q13 3 21 9q9 7 11 14q3 9 3 19q0 18 -9 29t-29 11q-19 0 -28 -8q-10 -9 -16 -22q-4 -10 -10 -14q-7 -5 -16 -5t-14 1l-45 8q5 30 16 50
q13 23 29 35q21 16 40 21q22 6 48 6z" />
    <glyph glyph-name="acute" unicode="&#xb4;" horiz-adv-x="282" 
d="M260 731l-123 -131q-8 -10 -18 -13q-12 -4 -23 -4h-74l71 121q8 15 17 20q12 7 30 7h120z" />
    <glyph glyph-name="mu" unicode="&#xb5;" horiz-adv-x="503" 
d="M152 513v-326q0 -46 22 -73q21 -26 65 -26q31 0 60 15q30 16 53 39v371h123v-513h-75q-25 0 -32 22l-8 42q-14 -14 -31 -26q-20 -14 -30 -18q-19 -8 -32 -10q-17 -3 -36 -3q-30 0 -54 9q-23 9 -42 26q5 -20 7 -46q2 -32 2 -44v-120h-61q-24 0 -40 14q-15 14 -15 38v629
h124z" />
    <glyph glyph-name="paragraph" unicode="&#xb6;" horiz-adv-x="703" 
d="M686 723v-103h-108v-724h-108v724h-117v-724h-108v419q-53 0 -94 16t-72 44q-29 26 -46 65q-16 36 -16 78q0 48 16 84q16 37 46 64t72 42t94 15h441z" />
    <glyph glyph-name="periodcentered" unicode="&#xb7;" horiz-adv-x="240" 
d="M26 298q0 19 7 36t20 30q13 12 29 20q18 8 37 8q18 0 37 -8q17 -7 30 -20t20 -30q8 -19 8 -36q0 -19 -8 -37q-8 -16 -20 -29q-13 -13 -30 -20q-19 -8 -37 -8q-19 0 -37 8q-17 8 -29 20q-13 13 -20 29q-7 15 -7 37z" />
    <glyph glyph-name="cedilla" unicode="&#xb8;" horiz-adv-x="247" 
d="M51 -114h7l9 -3q6 -2 10 -3h14q16 0 25 6q8 5 8 15q0 15 -18 21q-20 7 -56 11l23 74h77l-10 -35q43 -10 62 -29q18 -18 18 -45q0 -18 -8 -30q-9 -13 -25 -22q-17 -9 -39 -15q-19 -5 -49 -5q-26 0 -38 2q-16 3 -35 9l11 38q3 11 14 11z" />
    <glyph glyph-name="onesuperior" unicode="&#xb9;" horiz-adv-x="284" 
d="M50 507h70v180l2 25l-38 -30q-7 -6 -18 -6q-7 0 -13 3q-7 3 -9 7l-27 38l117 96h74v-313h58v-57h-216v57z" />
    <glyph glyph-name="ordmasculine" unicode="&#xba;" horiz-adv-x="368" 
d="M185 732q35 0 66 -11t51 -31q23 -23 34 -50q12 -30 12 -66t-12 -66q-11 -28 -34 -51q-20 -20 -51 -31q-34 -12 -66 -12q-33 0 -67 12q-32 11 -52 31q-23 23 -34 51q-12 30 -12 66t12 66q11 27 34 50q20 20 52 31q31 11 67 11zM185 486q33 0 50 22q16 20 16 66
q0 45 -16 65q-17 21 -50 21q-35 0 -52 -21q-16 -20 -16 -65q0 -46 16 -66q17 -22 52 -22z" />
    <glyph glyph-name="guillemotright" unicode="&#xbb;" horiz-adv-x="394" 
d="M82 63l-40 19q-10 4 -15 12t-5 15q0 9 7 21l69 118q6 11 16 21q-8 7 -16 21l-69 118q-7 12 -7 21q0 18 20 27l40 19l128 -198v-16zM246 63l-40 19q-9 4 -14 12t-5 15q0 9 7 21l68 118q6 11 16 21q-8 7 -16 21l-68 118q-7 12 -7 21q0 18 19 27l40 19l128 -198v-16z" />
    <glyph glyph-name="onequarter" unicode="&#xbc;" horiz-adv-x="701" 
d="M205 36q-13 -21 -28 -28q-16 -8 -33 -8h-54l418 682q13 21 26 30q16 11 38 11h53zM638 141h46v-44q0 -7 -4 -11q-6 -6 -12 -6h-30v-80h-74v80h-145q-13 0 -19 6q-7 7 -8 13l-8 38l168 233h86v-229zM48 410h70v180l2 26l-38 -31q-7 -6 -17 -6q-7 0 -13 3t-9 7l-27 37
l116 98h74v-314h58v-57h-216v57zM564 225v26q0 5 1.5 16.5t1.5 12.5l-101 -139h98v84z" />
    <glyph glyph-name="onehalf" unicode="&#xbd;" horiz-adv-x="689" 
d="M669 105h2v-53v-46v-6h-270v29q0 8 3 17t12 18l104 103q7 7 21 23q5 6 17 25q5 8 11 24q4 11 4 24q0 17 -9 29q-8 11 -27 11q-16 0 -27 -8q-10 -7 -17 -24q-6 -9 -11 -13q-7 -5 -18 -5q-1 0 -2.5 0.5t-2.5 0.5h-7l-49 8q9 59 45 85q38 27 93 27q32 0 52 -8q27 -11 39 -23
q18 -18 24 -34q8 -21 8 -43q0 -19 -7 -38t-16 -32q-11 -15 -24 -30q-18 -20 -28 -30l-64 -65q9 3 27 7q9 2 25 2h45q0 3 0.5 6t1 5t0.5 3q3 11 14 11h24h7zM185 36q-13 -21 -28 -28q-16 -8 -34 -8h-53l417 682q12 20 27 30q16 11 38 11h53zM49 410h69v180l3 26l-39 -31
q-7 -6 -17 -6q-7 0 -13 3t-9 7l-27 37l116 98h75v-314h57v-57h-215v57z" />
    <glyph glyph-name="threequarters" unicode="&#xbe;" horiz-adv-x="711" 
d="M217 36q-13 -21 -28 -28q-16 -8 -33 -8h-54l418 682q13 21 26 30q16 11 38 11h53zM648 141h47v-44q0 -6 -5 -11q-6 -6 -12 -6h-30v-80h-74v80h-144q-13 0 -19 6q-8 8 -9 13l-7 38l167 233h86v-229zM158 728q28 0 51 -9q25 -10 37 -21q18 -16 24 -31q8 -19 8 -36
q0 -33 -13 -53q-15 -23 -41 -34q31 -11 45 -28q15 -18 15 -48q0 -32 -11 -53q-12 -22 -30 -37q-17 -14 -42 -22q-22 -7 -47 -7q-32 0 -49 5q-24 7 -38 17q-18 13 -29 31q-14 23 -22 48l38 15q9 4 20 4q18 0 26 -14q1 -1 2 -3.5t2 -4.5l2 -4q4 -6 10 -10q7 -5 14 -8
q8 -3 19 -3q23 0 35 12t12 30q0 11 -4 23q-3 9 -12 15q-6 4 -22 7q-15 3 -36 3v58q22 0 35 3q15 3 22 9q9 7 11 14q3 9 3 19q0 17 -10 29q-9 11 -29 11q-17 0 -28 -8q-10 -7 -16 -21q-5 -11 -10 -15q-7 -5 -16 -5q-3 0 -13 2l-45 7q5 33 15 50q13 23 29 35q21 16 40 21
q26 7 48 7zM574 225q0 4 0.5 12t0.5 13t1.5 16.5t1.5 12.5l-102 -138h98v84z" />
    <glyph glyph-name="questiondown" unicode="&#xbf;" horiz-adv-x="422" 
d="M404 -102q-22 -18 -37 -28q-18 -12 -44 -23q-22 -9 -51 -16q-27 -6 -60 -6q-43 0 -79 12q-35 12 -61 33q-26 22 -40 52q-14 31 -14 70q0 33 12 64q10 27 27 45q16 17 37 32q13 9 37 25q21 14 30 23q12 12 15 28l12 72h84l9 -81q0 -1 0.5 -2.5t0.5 -2.5v-5q0 -21 -12 -38
t-27 -28q-22 -16 -35 -23q-20 -11 -36 -24q-19 -16 -28 -31q-10 -17 -10 -44q0 -17 6 -32q5 -11 19 -24q11 -9 29 -16q16 -6 36 -6q25 0 48 7q17 5 33 14q12 7 23 14q10 7 18 7q18 0 26 -16zM156 446q0 16 6 30t16 24q9 9 25 16q13 6 30 6q15 0 29 -6t24 -16t16 -24t6 -30
t-6 -30q-6 -13 -16 -23t-24 -16q-13 -6 -30 -6q-16 0 -30 6t-24 16t-16 23q-6 14 -6 30z" />
    <glyph glyph-name="Agrave" unicode="&#xc0;" horiz-adv-x="811" 
d="M774 77q19 -7 19 -26v-51h-35h-78h-17h-9h-105v51q0 17 20 26q1 0 3.5 1t7 3t9.5 4l-4 11l-36 98h-288l-37 -103l-3 -6q5 -2 9.5 -4t7 -3t3.5 -1q20 -9 20 -26v-51h-104h-10h-16h-79h-35v51q0 17 20 26q3 1 55 23l244 623h138l245 -623q52 -22 55 -23zM378 513l-82 -224
h219l-83 225q-2 6 -6.5 18t-6.5 19q-2 6 -4.5 14t-5 18t-4.5 16q-13 -44 -14 -48q-2 -8 -13 -38zM333 896q4 0 9.5 -0.5t7.5 -0.5q7 0 13 -3q10 -5 11 -6t5 -4.5t6 -5.5l98 -102h-97q-3 0 -7 0.5t-5 0.5q-7 0 -10 1q-6 2 -9 4q-6 4 -10 7l-149 109h137z" />
    <glyph glyph-name="Aacute" unicode="&#xc1;" horiz-adv-x="811" 
d="M774 77q19 -7 19 -26v-51h-35h-78h-17h-9h-105v51q0 17 20 26q1 0 3.5 1t7 3t9.5 4l-4 11l-36 98h-288l-37 -103l-3 -6q5 -2 9.5 -4t7 -3t3.5 -1q20 -9 20 -26v-51h-104h-10h-16h-79h-35v51q0 17 20 26q3 1 55 23l244 623h138l245 -623q52 -22 55 -23zM378 513l-82 -224
h219l-83 225q-2 6 -6.5 18t-6.5 19q-2 6 -4.5 14t-5 18t-4.5 16q-13 -44 -14 -48q-2 -8 -13 -38zM597 896l-148 -108q-4 -3 -10 -7q-2 -1 -10 -4q-6 -2 -10 -2h-12h-97l98 101q7 7 11 10q7 5 11 6q6 3 12 3q2 0 7.5 0.5t9.5 0.5h138z" />
    <glyph glyph-name="Acircumflex" unicode="&#xc2;" horiz-adv-x="811" 
d="M774 77q19 -7 19 -26v-51h-35h-78h-17h-9h-105v51q0 17 20 26q1 0 3.5 1t7 3t9.5 4l-4 11l-36 98h-288l-37 -103l-3 -6q5 -2 9.5 -4t7 -3t3.5 -1q20 -9 20 -26v-51h-104h-10h-16h-79h-35v51q0 17 20 26q3 1 55 23l244 623h138l245 -623q52 -22 55 -23zM378 513l-82 -224
h219l-83 225q-2 6 -6.5 18t-6.5 19q-2 6 -4.5 14t-5 18t-4.5 16q-13 -44 -14 -48q-2 -8 -13 -38zM587 775h-93q-5 0 -17 2q-8 1 -14 6l-51 33l-3 3l-2 2t-2 1l-3 -3q-1 -1 -5 -3l-50 -33q-6 -5 -15 -6q-12 -2 -16 -2h-94l121 109h123z" />
    <glyph glyph-name="Atilde" unicode="&#xc3;" horiz-adv-x="811" 
d="M774 77q19 -7 19 -26v-51h-35h-78h-17h-9h-105v51q0 17 20 26q1 0 3.5 1t7 3t9.5 4l-4 11l-36 98h-288l-37 -103l-3 -6q5 -2 9.5 -4t7 -3t3.5 -1q20 -9 20 -26v-51h-104h-10h-16h-79h-35v51q0 17 20 26q3 1 55 23l244 623h138l245 -623q52 -22 55 -23zM378 513l-82 -224
h219l-83 225q-2 6 -6.5 18t-6.5 19q-2 6 -4.5 14t-5 18t-4.5 16q-13 -44 -14 -48q-2 -8 -13 -38zM466 850q14 0 22 7q9 7 9 24h67q0 -21 -7 -45q-6 -19 -18 -35q-11 -13 -30 -23q-16 -8 -40 -8q-20 0 -34 5q-22 8 -32 12q-20 8 -29 12q-14 6 -24 6q-14 0 -21 -9
q-9 -11 -9 -24h-68q0 20 7 45q5 19 19 36q11 13 30 23q18 9 39 9q19 0 35 -6q4 -1 11 -3.5t12.5 -4.5t9.5 -4q10 -4 28 -12q11 -5 23 -5z" />
    <glyph glyph-name="Adieresis" unicode="&#xc4;" horiz-adv-x="811" 
d="M774 77q19 -7 19 -26v-51h-35h-78h-17h-9h-105v51q0 17 20 26q1 0 3.5 1t7 3t9.5 4l-4 11l-36 98h-288l-37 -103l-3 -6q5 -2 9.5 -4t7 -3t3.5 -1q20 -9 20 -26v-51h-104h-10h-16h-79h-35v51q0 17 20 26q3 1 55 23l244 623h138l245 -623q52 -22 55 -23zM378 513l-82 -224
h219l-83 225q-2 6 -6.5 18t-6.5 19q-2 6 -4.5 14t-5 18t-4.5 16q-13 -44 -14 -48q-2 -8 -13 -38zM364 834q0 -14 -6 -26t-15 -21t-22 -14t-26 -5q-12 0 -25 5q-11 4 -21 14q-7 7 -14 21q-5 10 -5 26q0 15 5 25q8 16 14 22q9 9 21 15q10 5 25 5q16 0 26 -5q14 -7 22 -15
t15 -22q6 -12 6 -25zM580 834q0 -16 -5 -26q-6 -12 -15 -21q-10 -10 -21 -14q-13 -5 -26 -5t-26 5q-11 4 -21 14q-11 11 -15 21q-5 10 -5 26q0 15 5 25q7 14 15 22q7 7 21 14q12 6 26 6t26 -6q14 -7 21 -14q8 -8 15 -22q5 -10 5 -25z" />
    <glyph glyph-name="Aring" unicode="&#xc5;" horiz-adv-x="811" 
d="M774 77q19 -7 19 -26v-51h-35h-78h-17h-9h-105v51q0 17 20 26q1 0 3.5 1t7 3t9.5 4l-4 11l-36 98h-288l-37 -103l-3 -6q5 -2 9.5 -4t7 -3t3.5 -1q20 -9 20 -26v-51h-104h-10h-16h-79h-35v51q0 17 20 26q3 1 55 23l244 623h138l245 -623q52 -22 55 -23zM378 513l-82 -224
h219l-83 225q-2 6 -6.5 18t-6.5 19q-2 6 -4.5 14t-5 18t-4.5 16q-13 -44 -14 -48q-2 -8 -13 -38zM302 842q0 23 8 39q9 17 23 30q12 11 32 19q17 7 39 7q23 0 41 -7t33 -19q13 -11 23 -30q9 -18 9 -39t-9 -39t-23 -29q-20 -16 -33 -20q-20 -6 -41 -6t-39 6q-15 5 -32 20
q-15 14 -23 29q-8 16 -8 39zM361 842q0 -20 12 -32q13 -13 33 -13q19 0 32 13q12 12 12 32q0 21 -12 33t-32 12q-21 0 -33 -12t-12 -33z" />
    <glyph glyph-name="AE" unicode="&#xc6;" horiz-adv-x="964" 
d="M861 552q-5 39 -7 64h-260l25 -200h247v-104h-234l25 -204h197q2 25 7 64q5 19 23 19h42h12h4v-121h-1v-70h-396h-2h-74v59q0 25 25 31h2q1 1 3 1.5t5 0.5q3 1 12.5 2.5t14.5 2.5l-10 81h-260l-44 -91q18 -7 25 -10q20 -9 20 -26v-51h-114h-9h-8h-94h-19v51q0 17 19 26
q35 14 49 20l272 534l-2 1h-4h-4l-2 1q-25 6 -25 31v59h84h2h534v-70h1v-120h-4h-12h-42q-18 0 -23 19zM307 273h202l-43 350q-6 -21 -17 -48q-12 -31 -17 -41z" />
    <glyph glyph-name="Ccedilla" unicode="&#xc7;" horiz-adv-x="637" 
d="M572 162l53 -58q-44 -55 -108 -83q-51 -23 -124 -28l-5 -21q46 -11 63 -29q18 -19 18 -45q0 -16 -9 -29q-10 -15 -25 -23q-21 -12 -38 -15q-25 -5 -50 -5q-20 0 -38 3q-22 4 -35 8l11 38q3 11 14 11h7q1 0 2.5 -0.5t3.5 -1.5t3 -1q2 -1 5 -1.5t5 -0.5q4 -1 14 -1
q16 0 25 6q8 6 8 15q0 15 -18 21q-21 7 -55 11l18 61q-52 6 -99 26q-66 28 -110 76q-47 51 -70 117q-24 67 -24 149t27 149t76 116q51 51 117 77q69 27 151 27q92 0 227 -52v-64v-8v-112h-5h-12h-41q-18 0 -23 18q-3 13 -9 80q-82 24 -138 24v-1q-54 0 -94 -17
q-43 -18 -73 -51q-32 -35 -48 -80q-17 -44 -17 -107q0 -59 17 -108q18 -48 47 -80t69 -50q38 -17 86 -17q27 0 50 3q18 2 41 10q21 7 35 16q15 9 33 26q3 3 11 7q6 3 12 3q11 0 19 -9z" />
    <glyph glyph-name="Egrave" unicode="&#xc8;" horiz-adv-x="574" 
d="M96 723h456v-70v-37v-83h-5h-12h-41q-18 0 -23 19q-5 39 -7 64h-233v-200h245v-104h-245v-204h233q2 25 7 64q5 19 23 19h41h12h5v-83v-38v-70h-456h-76v59q0 25 25 31h2q2 1 4 1q1 0 6 1.5t9 1.5q3 0 7.5 1t11.5 2t11 2v525q-4 1 -11 2t-11.5 2t-7.5 1q-4 1 -9 2t-6 1
h-4l-2 1q-25 6 -25 31v59h76zM260 896q4 0 9.5 -0.5t7.5 -0.5q6 0 12 -3q10 -5 11 -6t5 -4.5t6 -5.5l99 -101h-98h-12q-7 0 -10 1q-6 2 -9 4q-6 4 -10 7l-148 109h137z" />
    <glyph glyph-name="Eacute" unicode="&#xc9;" horiz-adv-x="574" 
d="M96 723h456v-70v-37v-83h-5h-12h-41q-18 0 -23 19q-5 39 -7 64h-233v-200h245v-104h-245v-204h233q2 25 7 64q5 19 23 19h41h12h5v-83v-38v-70h-456h-76v59q0 25 25 31h2q2 1 4 1q1 0 6 1.5t9 1.5q3 0 7.5 1t11.5 2t11 2v525q-4 1 -11 2t-11.5 2t-7.5 1q-4 1 -9 2t-6 1
h-4l-2 1q-25 6 -25 31v59h76zM523 896l-148 -108q-4 -3 -10 -7q-2 -1 -10 -4q-6 -2 -10 -2h-12h-97l98 101q7 7 11 10q7 5 11 6q6 3 13 3q2 0 7.5 0.5t9.5 0.5h137z" />
    <glyph glyph-name="Ecircumflex" unicode="&#xca;" horiz-adv-x="574" 
d="M96 723h456v-70v-37v-83h-5h-12h-41q-18 0 -23 19q-5 39 -7 64h-233v-200h245v-104h-245v-204h233q2 25 7 64q5 19 23 19h41h12h5v-83v-38v-70h-456h-76v59q0 25 25 31h2q2 1 4 1q1 0 6 1.5t9 1.5q3 0 7.5 1t11.5 2t11 2v525q-4 1 -11 2t-11.5 2t-7.5 1q-4 1 -9 2t-6 1
h-4l-2 1q-25 6 -25 31v59h76zM514 775h-94q-4 0 -16 2q-9 1 -15 6l-50 33q-1 0 -2 1l-2 2t-4 3l-3 -3q-2 -2 -4 -3l-51 -33q-6 -5 -14 -6q-12 -2 -17 -2h-93l121 109h123z" />
    <glyph glyph-name="Edieresis" unicode="&#xcb;" horiz-adv-x="574" 
d="M96 723h456v-70v-37v-83h-5h-12h-41q-18 0 -23 19q-5 39 -7 64h-233v-200h245v-104h-245v-204h233q2 25 7 64q5 19 23 19h41h12h5v-83v-38v-70h-456h-76v59q0 25 25 31h2q2 1 4 1q1 0 6 1.5t9 1.5q3 0 7.5 1t11.5 2t11 2v525q-4 1 -11 2t-11.5 2t-7.5 1q-4 1 -9 2t-6 1
h-4l-2 1q-25 6 -25 31v59h76zM290 834q0 -16 -5 -26q-6 -12 -15 -21t-22 -14t-27 -5q-12 0 -25 5q-10 4 -20 14q-9 9 -15 21q-5 10 -5 26q0 15 5 25q7 14 15 22q10 10 20 15t25 5q17 0 27 -5q14 -7 22 -15t15 -22q5 -10 5 -25zM506 834q0 -16 -5 -26q-4 -11 -14 -21
q-9 -9 -22 -14t-26 -5t-26 5q-11 4 -21 14q-11 11 -15 21q-5 10 -5 26q0 15 5 25q7 14 15 22q7 7 21 14q12 6 26 6t26 -6q16 -8 22 -14t14 -22q5 -10 5 -25z" />
    <glyph glyph-name="Igrave" unicode="&#xcc;" horiz-adv-x="380" 
d="M335 633l-2 -1h-4q-1 0 -6.5 -1t-8.5 -2q-3 0 -7.5 -1t-11.5 -2t-11 -2v-525l30 -5q3 0 8.5 -1.5t6.5 -1.5q2 0 4 -1h2q25 -6 25 -31v-59h-76h-134h-76v59q0 25 25 31h2q2 1 4 1l15 3l30 5v525l-30 5q-3 1 -8.5 2t-6.5 1q-3 1 -6 1q-25 6 -25 31v59h76h134h76v-59
q0 -25 -25 -31zM148 896q4 0 9.5 -0.5t7.5 -0.5q7 0 13 -3q8 -4 10 -6q1 -1 5 -4.5t6 -5.5l99 -102h-98q-3 0 -6.5 0.5t-5.5 0.5q-7 0 -10 1q-6 2 -9 4q-1 1 -4.5 2.5t-5.5 3.5l-148 110h137z" />
    <glyph glyph-name="Iacute" unicode="&#xcd;" horiz-adv-x="369" 
d="M281 633l-2 -1h-4q-1 0 -6 -1t-9 -2t-14 -2.5t-15 -2.5v-525q5 -1 15 -2.5t14 -2.5q4 0 9 -1.5t6 -1.5q2 0 4 -1h2q25 -6 25 -31v-59h-75h-135h-76v59q0 25 25 31h2q2 1 4 1l15 3q3 0 7.5 1t11.5 2t11 2v525q-4 1 -11 2t-11.5 2t-7.5 1q-4 1 -9 2t-6 1q-3 1 -6 1
q-25 6 -25 31v59h76h135h75v-59q0 -25 -25 -31zM358 896l-148 -108q-2 -2 -6 -4.5t-5 -2.5q-3 -2 -9 -4t-10 -2q-2 0 -5.5 -0.5t-6.5 -0.5h-97l98 102q7 7 11 10q6 5 11 6q6 3 12 3q2 0 7.5 0.5t9.5 0.5h138z" />
    <glyph glyph-name="Icircumflex" unicode="&#xce;" horiz-adv-x="387" 
d="M310 633l-2 -1h-5q-1 0 -5.5 -1t-8.5 -2l-30 -5v-525q4 -1 11 -2t11.5 -2t7.5 -1q4 -1 8.5 -2t5.5 -1q2 0 5 -1h2q25 -6 25 -31v-59h-76h-135h-76v59q0 25 25 31h3q2 1 4 1q5 2 14 3q3 0 7.5 1t11.5 2t11 2v525q-4 1 -11 2t-11.5 2t-7.5 1q-4 1 -8.5 2t-5.5 1q-3 1 -7 1
q-25 6 -25 31v59h76h135h76v-59q0 -25 -25 -31zM376 774h-94q-4 0 -16 2q-8 1 -14 6l-51 34q-1 0 -2 1t-2 1t-2 2l-1 2q-1 -1 -4 -3q-2 -2 -4 -3l-50 -34q-6 -4 -15 -6q-12 -2 -17 -2h-93l121 110h123z" />
    <glyph glyph-name="Idieresis" unicode="&#xcf;" horiz-adv-x="372" 
d="M302 633l-2 -1h-4t-6.5 -1t-8.5 -2t-14 -2.5t-15 -2.5v-525q5 -1 15 -2.5t14 -2.5q3 0 8 -1.5t7 -1.5t4 -1h2q25 -6 25 -31v-59h-75h-135h-76v59q0 25 25 31h2q2 1 4 1q4 1 15 3q3 0 7.5 1t11.5 2t11 2v525q-4 1 -11 2t-11.5 2t-7.5 1q-4 1 -8.5 2t-6.5 1q-3 1 -6 1
q-25 6 -25 31v59h76h135h75v-59q0 -25 -25 -31zM145 834q0 -16 -5 -26t-16 -21q-9 -9 -22 -14t-26 -5q-12 0 -25 5q-11 4 -21 14q-7 7 -14 21q-5 10 -5 26q0 15 5 25q8 16 14 22q9 9 21 15q10 5 25 5q16 0 26 -5q14 -7 22 -15q10 -10 16 -22q5 -10 5 -25zM361 834
q0 -16 -5 -26q-6 -12 -15 -21q-10 -10 -21 -14q-13 -5 -26 -5t-26 5q-11 4 -21 14q-9 9 -15 21q-5 10 -5 26q0 15 5 25q7 14 15 22q9 9 21 15q10 5 26 5t26 -5q14 -7 22 -15q6 -6 14 -22q5 -10 5 -25z" />
    <glyph glyph-name="Eth" unicode="&#xd0;" horiz-adv-x="756" 
d="M715 507q26 -64 26 -146t-26 -146q-27 -66 -75 -114t-115 -75q-65 -26 -150 -26h-265h-76v59q0 25 25 31q8 1 51 9v226h-90v77h90v222q-43 8 -51 9q-25 6 -25 31v59h76h265q83 0 150 -27q68 -27 115 -74t75 -115zM588 255q16 45 16 106q0 62 -16 107q-17 48 -46 80
q-29 31 -72 50q-42 18 -95 18h-130v-214h181v-77h-181v-218h130q55 0 95 17q42 18 72 51q29 32 46 80z" />
    <glyph glyph-name="Ntilde" unicode="&#xd1;" horiz-adv-x="796" 
d="M706 723h75v-59q0 -25 -25 -31l-2 -1h-4t-7 -1t-8 -2q-4 -1 -14 -2.5t-15 -2.5v-624h-70q-14 0 -26 5q-10 5 -21 18l-378 481q2 -22 2 -31q0 -5 0.5 -15t0.5 -14v-345q63 -9 65 -9q25 -6 25 -31v-59h-90h-118h-76v59q0 25 25 31q3 0 6 1l15 3q3 0 7.5 1t11.5 2t11 2v525
q-4 1 -11 2t-11.5 2t-7.5 1q-4 1 -9 2t-6 1h-4l-2 1q-25 6 -25 31v59h76h70q3 0 8 -0.5t7 -0.5q7 0 11 -3q4 -1 9 -6q2 -2 10 -12l380 -483q-1 12 -3 34q-1 11 -1 32v340q-63 9 -65 9q-25 6 -25 31v59h90h119zM470 850q14 0 22 7q9 7 9 24h67q0 -21 -7 -45q-6 -21 -18 -36
q-9 -12 -30 -22q-16 -8 -40 -8q-21 0 -35 5q-22 8 -32 12t-28 12q-11 5 -24 5q-14 0 -21 -8q-9 -11 -9 -24h-68q0 20 7 45q5 19 19 36q11 13 30 23q16 8 39 8q21 0 35 -5q22 -8 32 -12q20 -8 29 -12q11 -5 23 -5z" />
    <glyph glyph-name="Ograve" unicode="&#xd2;" 
d="M747 362q0 -80 -27 -148q-28 -69 -74 -117q-48 -50 -116 -77q-70 -28 -149 -28q-80 0 -150 28q-68 27 -116 77q-48 49 -75 117q-26 65 -26 148q0 82 26 147q27 67 75 117t116 77q70 28 150 28q83 0 149 -28q70 -30 116 -77q46 -48 74 -117q27 -67 27 -147zM609 362
q0 55 -16 106q-15 46 -45 80q-30 33 -72 51q-40 17 -95 17q-56 0 -96 -17q-42 -18 -72 -51t-46 -80t-16 -106q0 -60 16 -107t46 -80t72 -51q40 -17 96 -17q55 0 95 17q42 18 72 51q30 34 45 80q16 51 16 107zM310 896q4 0 10 -0.5t8 -0.5q6 0 12 -3q10 -5 11 -6t5 -4.5
t6 -5.5l98 -102h-97q-3 0 -7 0.5t-5 0.5q-7 0 -10 1q-6 2 -9 4q-1 1 -4.5 2.5t-5.5 3.5l-149 110h137z" />
    <glyph glyph-name="Oacute" unicode="&#xd3;" 
d="M747 362q0 -80 -27 -148q-28 -69 -74 -117q-48 -50 -116 -77q-70 -28 -149 -28q-80 0 -150 28q-68 27 -116 77q-48 49 -75 117q-26 65 -26 148q0 82 26 147q27 67 75 117t116 77q70 28 150 28q83 0 149 -28q70 -30 116 -77q46 -48 74 -117q27 -67 27 -147zM609 362
q0 55 -16 106q-15 46 -45 80q-30 33 -72 51q-40 17 -95 17q-56 0 -96 -17q-42 -18 -72 -51t-46 -80t-16 -106q0 -60 16 -107t46 -80t72 -51q40 -17 96 -17q55 0 95 17q42 18 72 51q30 34 45 80q16 51 16 107zM574 896l-148 -108q-4 -3 -10 -7q-2 -1 -10 -4q-6 -2 -10 -2
q-2 0 -5.5 -0.5t-6.5 -0.5h-97l98 102q7 7 11 10q6 5 11 6q6 3 13 3q2 0 7 0.5t9 0.5h138z" />
    <glyph glyph-name="Ocircumflex" unicode="&#xd4;" 
d="M747 362q0 -80 -27 -148q-28 -69 -74 -117q-48 -50 -116 -77q-70 -28 -149 -28q-80 0 -150 28q-68 27 -116 77q-48 49 -75 117q-26 65 -26 148q0 82 26 147q27 67 75 117t116 77q70 28 150 28q83 0 149 -28q70 -30 116 -77q46 -48 74 -117q27 -67 27 -147zM609 362
q0 55 -16 106q-15 46 -45 80q-30 33 -72 51q-40 17 -95 17q-56 0 -96 -17q-42 -18 -72 -51t-46 -80t-16 -106q0 -60 16 -107t46 -80t72 -51q40 -17 96 -17q55 0 95 17q42 18 72 51q30 34 45 80q16 51 16 107zM564 774h-93q-5 0 -17 2q-8 1 -14 6l-51 34q-1 0 -1 1l-2 1l-4 4
l-3 -3q-1 -1 -5 -3l-50 -34q-6 -4 -15 -6q-12 -2 -16 -2h-94l121 110h123z" />
    <glyph glyph-name="Otilde" unicode="&#xd5;" 
d="M747 362q0 -80 -27 -148q-28 -69 -74 -117q-48 -50 -116 -77q-70 -28 -149 -28q-80 0 -150 28q-68 27 -116 77q-48 49 -75 117q-26 65 -26 148q0 82 26 147q27 67 75 117t116 77q70 28 150 28q83 0 149 -28q70 -30 116 -77q46 -48 74 -117q27 -67 27 -147zM609 362
q0 55 -16 106q-15 46 -45 80q-30 33 -72 51q-40 17 -95 17q-56 0 -96 -17q-42 -18 -72 -51t-46 -80t-16 -106q0 -60 16 -107t46 -80t72 -51q40 -17 96 -17q55 0 95 17q42 18 72 51q30 34 45 80q16 51 16 107zM443 850q14 0 22 7q9 7 9 24h67q0 -21 -7 -45q-6 -21 -18 -36
q-9 -12 -30 -22q-16 -8 -40 -8q-20 0 -34 5q-22 8 -32 12q-20 8 -29 12q-11 5 -23 5q-15 0 -22 -8q-8 -10 -8 -24h-68q0 24 6 45q5 19 19 36q11 13 30 23q16 8 39 8q22 0 36 -5q22 -8 32 -12t28 -12q11 -5 23 -5z" />
    <glyph glyph-name="Odieresis" unicode="&#xd6;" 
d="M747 362q0 -80 -27 -148q-28 -69 -74 -117q-48 -50 -116 -77q-70 -28 -149 -28q-80 0 -150 28q-68 27 -116 77q-48 49 -75 117q-26 65 -26 148q0 82 26 147q27 67 75 117t116 77q70 28 150 28q83 0 149 -28q70 -30 116 -77q46 -48 74 -117q27 -67 27 -147zM609 362
q0 55 -16 106q-15 46 -45 80q-30 33 -72 51q-40 17 -95 17q-56 0 -96 -17q-42 -18 -72 -51t-46 -80t-16 -106q0 -60 16 -107t46 -80t72 -51q40 -17 96 -17q55 0 95 17q42 18 72 51q30 34 45 80q16 51 16 107zM341 834q0 -16 -5 -26t-16 -21q-9 -9 -22 -14t-26 -5
q-12 0 -25 5q-11 4 -21 14q-7 7 -14 21q-5 10 -5 26q0 15 5 25q8 16 14 22q9 9 21 15q10 5 25 5q16 0 26 -5q14 -7 22 -15t15 -22q6 -12 6 -25zM557 834q0 -16 -5 -26q-7 -14 -14 -21q-9 -9 -22 -14t-26 -5t-26 5q-11 4 -21 14q-11 11 -15 21q-5 10 -5 26q0 15 5 25
q7 14 15 22q9 9 21 15q10 5 26 5t26 -5q14 -7 22 -15q6 -6 14 -22q5 -10 5 -25z" />
    <glyph glyph-name="multiply" unicode="&#xd7;" horiz-adv-x="494" 
d="M475 498l-163 -162l171 -170l-65 -65l-170 169l-171 -170l-65 64l170 172l-163 163l65 65l164 -164l162 163z" />
    <glyph glyph-name="Oslash" unicode="&#xd8;" 
d="M747 362q0 -80 -27 -148q-28 -69 -74 -117q-48 -50 -116 -77q-70 -28 -149 -28q-52 0 -95 10q-41 10 -84 31l-38 -53q-17 -22 -34 -28q-22 -8 -40 -8h-52l97 134q-57 49 -89 123q-32 73 -32 160q0 83 26 148q27 67 75 117t116 77q70 28 150 28q51 0 103 -13
q51 -13 90 -36l29 41q6 9 12 15q10 10 12 11q4 3 13 5q10 2 19 2h69l-90 -123q52 -49 81 -119q28 -68 28 -152zM152 361q0 -61 14 -103q15 -46 43 -78l294 405q-52 31 -122 31q-55 0 -95 -17q-44 -19 -73 -51q-28 -31 -45 -80q-16 -47 -16 -107zM609 362q0 51 -12 93
q-13 44 -34 74l-290 -399q49 -23 108 -23q55 0 95 17q42 18 72 51q30 34 45 80q16 51 16 107z" />
    <glyph glyph-name="Ugrave" unicode="&#xd9;" horiz-adv-x="781" 
d="M690 723h76v-59q0 -25 -25 -31l-2 -1h-4q-1 0 -6.5 -1t-8.5 -2q-3 0 -7.5 -1t-11.5 -2t-11 -2v-334q0 -65 -21 -119q-22 -57 -59 -95q-40 -40 -95 -62q-54 -22 -125 -22t-125 22t-94 62q-39 40 -60 95q-20 51 -20 119v334q-4 1 -11 2t-11.5 2t-7.5 1q-3 1 -8 2t-7 1h-4
l-2 1q-25 6 -25 31v59h76h134h80v-59q0 -25 -25 -31l-2 -1h-5q-1 0 -7 -1t-10 -2t-31 -5v-333q0 -45 11 -75q10 -32 33 -58q19 -22 51 -36q29 -13 70 -13t70 13q34 15 52 36q19 22 32 57q12 38 12 75v334q-27 4 -31 5t-10 2t-7 1h-4l-3 1q-25 6 -25 31v59h80h134zM319 896
q4 0 9.5 -0.5t7.5 -0.5q7 0 13 -3q10 -5 11 -6t5 -4.5t6 -5.5l98 -102h-97q-3 0 -7.5 0.5t-5.5 0.5q-6 0 -9 1q-6 2 -9 4q-1 1 -4.5 2.5t-5.5 3.5l-149 110h137z" />
    <glyph glyph-name="Uacute" unicode="&#xda;" horiz-adv-x="781" 
d="M690 723h76v-59q0 -25 -25 -31l-2 -1h-4q-1 0 -6.5 -1t-8.5 -2q-3 0 -7.5 -1t-11.5 -2t-11 -2v-334q0 -65 -21 -119q-22 -57 -59 -95q-40 -40 -95 -62q-54 -22 -125 -22t-125 22t-94 62q-39 40 -60 95q-20 51 -20 119v334q-4 1 -11 2t-11.5 2t-7.5 1q-3 1 -8 2t-7 1h-4
l-2 1q-25 6 -25 31v59h76h134h80v-59q0 -25 -25 -31l-2 -1h-5q-1 0 -7 -1t-10 -2t-31 -5v-333q0 -45 11 -75q10 -32 33 -58q19 -22 51 -36q29 -13 70 -13t70 13q34 15 52 36q19 22 32 57q12 38 12 75v334q-27 4 -31 5t-10 2t-7 1h-4l-3 1q-25 6 -25 31v59h80h134zM583 896
l-148 -108q-2 -2 -6 -4.5t-5 -2.5q-3 -2 -9 -4t-10 -2q-2 0 -5.5 -0.5t-6.5 -0.5h-97l98 102q7 7 11 10q7 5 11 6q6 3 12 3q2 0 7.5 0.5t9.5 0.5h138z" />
    <glyph glyph-name="Ucircumflex" unicode="&#xdb;" horiz-adv-x="781" 
d="M690 723h76v-59q0 -25 -25 -31l-2 -1h-4q-1 0 -6.5 -1t-8.5 -2q-3 0 -7.5 -1t-11.5 -2t-11 -2v-334q0 -65 -21 -119q-22 -57 -59 -95q-40 -40 -95 -62q-54 -22 -125 -22t-125 22t-94 62q-39 40 -60 95q-20 51 -20 119v334q-4 1 -11 2t-11.5 2t-7.5 1q-3 1 -8 2t-7 1h-4
l-2 1q-25 6 -25 31v59h76h134h80v-59q0 -25 -25 -31l-2 -1h-5q-1 0 -7 -1t-10 -2t-31 -5v-333q0 -45 11 -75q10 -32 33 -58q19 -22 51 -36q29 -13 70 -13t70 13q34 15 52 36q19 22 32 57q12 38 12 75v334q-27 4 -31 5t-10 2t-7 1h-4l-3 1q-25 6 -25 31v59h80h134zM573 774
h-94q-4 0 -16 2q-9 2 -15 6l-50 34q-1 0 -2 1l-2 1l-4 4l-3 -3q-2 -2 -4 -3l-51 -34q-6 -5 -14 -6q-12 -2 -17 -2h-93l121 110h123z" />
    <glyph glyph-name="Udieresis" unicode="&#xdc;" horiz-adv-x="781" 
d="M690 723h76v-59q0 -25 -25 -31l-2 -1h-4q-1 0 -6.5 -1t-8.5 -2q-3 0 -7.5 -1t-11.5 -2t-11 -2v-334q0 -65 -21 -119q-22 -57 -59 -95q-40 -40 -95 -62q-54 -22 -125 -22t-125 22t-94 62q-39 40 -60 95q-20 51 -20 119v334q-4 1 -11 2t-11.5 2t-7.5 1q-3 1 -8 2t-7 1h-4
l-2 1q-25 6 -25 31v59h76h134h80v-59q0 -25 -25 -31l-2 -1h-5q-1 0 -7 -1t-10 -2t-31 -5v-333q0 -45 11 -75q10 -32 33 -58q19 -22 51 -36q29 -13 70 -13t70 13q34 15 52 36q19 22 32 57q12 38 12 75v334q-27 4 -31 5t-10 2t-7 1h-4l-3 1q-25 6 -25 31v59h80h134zM349 834
q0 -16 -5 -26q-6 -12 -15 -21t-22 -14t-27 -5q-12 0 -25 5q-10 4 -20 14q-9 9 -15 21q-5 10 -5 26q0 15 5 25q7 14 15 22t20 14t25 6q17 0 27 -5q14 -7 22 -15t15 -22q5 -10 5 -25zM565 833q0 -15 -5 -25q-7 -14 -14 -21q-9 -9 -22 -14t-26 -5t-26 5q-11 4 -21 14
q-11 11 -15 21q-5 10 -5 25q0 16 5 26q7 14 15 22q7 7 21 14q12 6 26 6t26 -6q16 -8 22 -14t14 -22q5 -10 5 -26z" />
    <glyph glyph-name="Yacute" unicode="&#xdd;" horiz-adv-x="726" 
d="M693 723h17v-59q0 -25 -25 -31q-1 0 -3 -0.5t-4 -0.5t-6.5 -1t-8.5 -2t-14 -2.5t-15 -2.5l-204 -343v-182l30 -5q4 -1 8.5 -2t5.5 -1q2 0 4 -1h3q25 -6 25 -31v-59h-76h-134h-76v59q0 25 25 31q3 0 6 1l15 3q3 0 7.5 1t11.5 2t11 2v182l-205 343q-5 1 -15 2.5t-14 2.5
t-9 2t-6 1q-3 1 -6 1q-25 6 -25 31v59h16h18h41h60h135v-59q0 -25 -25 -31l-2 -1h-3q-3 -2 -9 -3q-2 0 -4.5 -0.5t-5.5 -1.5t-5 -1l96 -175q8 -14 20 -40q2 -4 16 -38q7 23 14 38q12 26 20 40l95 175q-10 2 -14 3q-2 0 -5.5 1.5t-4.5 1.5q-2 1 -4 1q-25 6 -25 31v59h134h60
h41h18zM556 896l-148 -108q-4 -3 -10 -7q-2 -1 -10 -4q-6 -2 -10 -2q-2 0 -5.5 -0.5t-6.5 -0.5h-97l98 102q7 7 11 10q6 5 11 6q6 3 13 3q2 0 7.5 0.5t9.5 0.5h137z" />
    <glyph glyph-name="Thorn" unicode="&#xde;" horiz-adv-x="558" 
d="M162 130v-130h-135v723h135v-124h100q72 0 126 -17q51 -16 88 -48q33 -29 50 -72t17 -94q0 -55 -17 -96q-18 -43 -53 -75q-34 -31 -87 -49q-52 -18 -124 -18h-100zM162 236h100q38 0 65 9q28 9 45 26q20 20 28 42q8 21 8 55q0 32 -8 53q-8 22 -28 40q-17 16 -45 25
q-27 9 -65 9h-100v-259z" />
    <glyph glyph-name="germandbls" unicode="&#xdf;" horiz-adv-x="553" 
d="M286 736q54 0 100 -18q43 -17 68 -42q27 -27 38 -55q12 -30 12 -55q0 -27 -10 -50q-10 -20 -25 -35q-16 -16 -31 -27q-6 -5 -17.5 -12.5t-14.5 -9.5q-18 -13 -25 -22q-9 -12 -9 -26q0 -16 12 -28q10 -10 31 -24q7 -5 21.5 -13t19.5 -11q20 -12 40 -32t31 -45
q13 -29 13 -65q0 -40 -16 -75q-13 -29 -43 -54q-26 -22 -63 -34q-33 -11 -75 -11q-21 0 -46 5q-24 5 -43 13q-25 11 -39 20q-24 16 -34 25l29 47q4 7 13 13q8 5 19 5q10 0 22 -7q7 -4 23 -14q15 -9 28 -14q19 -7 39 -7q30 0 51 19q19 18 19 49q0 25 -13 39q-16 18 -34 28
q-28 16 -44 24q-25 13 -44 27q-18 13 -33 38q-14 23 -14 58q0 26 11 48q9 19 26 37q15 16 34 29q20 13 34 26q18 16 27 29q10 14 10 37q0 16 -6 31q-6 14 -18 25q-14 13 -32 18q-20 6 -48 6q-66 0 -99 -40t-33 -118v-488h-124v492q0 53 18 98q16 40 52 76q32 32 82 51
q51 19 110 19z" />
    <glyph glyph-name="agrave" unicode="&#xe0;" horiz-adv-x="520" 
d="M478 91q25 -6 25 -31v-59h-63h-13h-42q-19 0 -28 5q-10 4 -15 22l-11 36q-20 -19 -38 -31q-14 -10 -39 -22q-18 -8 -42 -13q-25 -5 -50 -5q-33 0 -60 9q-29 10 -47 26q-21 19 -31 44q-11 27 -11 60q0 30 15 58t51 51q38 24 94 38q59 15 147 15v30q0 50 -22 77
q-21 25 -63 25q-32 0 -50 -7q-23 -9 -35 -16q-5 -3 -14 -7.5t-13 -7.5q-11 -7 -27 -7q-13 0 -22 6q-6 4 -14 16l-23 39q90 82 213 82q45 0 81 -15q35 -15 59 -41q27 -31 38 -63q12 -36 12 -80v-227q5 -1 14.5 -2.5t12.5 -2.5t7 -1zM320 133v86q-56 0 -90 -7q-37 -8 -59 -18
t-31 -24t-9 -31q0 -34 19 -47q20 -14 50 -14q18 0 35 3t31 11q18 10 27 17q13 11 27 24zM201 731q19 0 30 -7q10 -7 17 -19l72 -122h-71q-10 0 -22 4q-11 5 -18 14l-124 130h116z" />
    <glyph glyph-name="aacute" unicode="&#xe1;" horiz-adv-x="520" 
d="M478 91q25 -6 25 -31v-59h-63h-13h-42q-19 0 -28 5q-10 4 -15 22l-11 36q-20 -19 -38 -31q-14 -10 -39 -22q-18 -8 -42 -13q-25 -5 -50 -5q-33 0 -60 9q-29 10 -47 26q-21 19 -31 44q-11 27 -11 60q0 30 15 58t51 51q38 24 94 38q59 15 147 15v30q0 50 -22 77
q-21 25 -63 25q-32 0 -50 -7q-23 -9 -35 -16q-5 -3 -14 -7.5t-13 -7.5q-11 -7 -27 -7q-13 0 -22 6q-6 4 -14 16l-23 39q90 82 213 82q45 0 81 -15q35 -15 59 -41q27 -31 38 -63q12 -36 12 -80v-227q5 -1 14.5 -2.5t12.5 -2.5t7 -1zM320 133v86q-56 0 -90 -7q-37 -8 -59 -18
t-31 -24t-9 -31q0 -34 19 -47q20 -14 50 -14q18 0 35 3t31 11q18 10 27 17q13 11 27 24zM418 731l-123 -130q-10 -11 -18 -14q-12 -4 -23 -4h-74l71 122q8 14 17 19q12 7 30 7h120z" />
    <glyph glyph-name="acircumflex" unicode="&#xe2;" horiz-adv-x="520" 
d="M478 91q25 -6 25 -31v-59h-63h-13h-42q-19 0 -28 5q-10 4 -15 22l-11 36q-20 -19 -38 -31q-14 -10 -39 -22q-18 -8 -42 -13q-25 -5 -50 -5q-33 0 -60 9q-29 10 -47 26q-21 19 -31 44q-11 27 -11 60q0 30 15 58t51 51q38 24 94 38q59 15 147 15v30q0 50 -22 77
q-21 25 -63 25q-32 0 -50 -7q-23 -9 -35 -16q-5 -3 -14 -7.5t-13 -7.5q-11 -7 -27 -7q-13 0 -22 6q-6 4 -14 16l-23 39q90 82 213 82q45 0 81 -15q35 -15 59 -41q27 -31 38 -63q12 -36 12 -80v-227q5 -1 14.5 -2.5t12.5 -2.5t7 -1zM320 133v86q-56 0 -90 -7q-37 -8 -59 -18
t-31 -24t-9 -31q0 -34 19 -47q20 -14 50 -14q18 0 35 3t31 11q18 10 27 17q13 11 27 24zM418 584h-83q-16 0 -25 9l-52 47q-1 1 -2.5 3t-2.5 3l-6 6q-1 -1 -2.5 -3t-2.5 -3l-5 -5l-54 -48q-6 -4 -10 -6q-6 -3 -15 -3h-85l114 139h116z" />
    <glyph glyph-name="atilde" unicode="&#xe3;" horiz-adv-x="520" 
d="M478 91q25 -6 25 -31v-59h-63h-13h-42q-19 0 -28 5q-10 4 -15 22l-11 36q-20 -19 -38 -31q-14 -10 -39 -22q-18 -8 -42 -13q-25 -5 -50 -5q-33 0 -60 9q-29 10 -47 26q-21 19 -31 44q-11 27 -11 60q0 30 15 58t51 51q38 24 94 38q59 15 147 15v30q0 50 -22 77
q-21 25 -63 25q-32 0 -50 -7q-23 -9 -35 -16q-5 -3 -14 -7.5t-13 -7.5q-11 -7 -27 -7q-13 0 -22 6q-6 4 -14 16l-23 39q90 82 213 82q45 0 81 -15q35 -15 59 -41q27 -31 38 -63q12 -36 12 -80v-227q5 -1 14.5 -2.5t12.5 -2.5t7 -1zM320 133v86q-56 0 -90 -7q-37 -8 -59 -18
t-31 -24t-9 -31q0 -34 19 -47q20 -14 50 -14q18 0 35 3t31 11q18 10 27 17q13 11 27 24zM299 680q15 0 23 8q9 9 9 30h75q0 -27 -8 -51q-8 -23 -21 -39q-12 -15 -32 -25q-18 -9 -42 -9q-15 0 -33 7q-14 5 -29 14q-2 1 -11 6.5t-14 7.5q-12 6 -22 6q-14 0 -23 -9
q-8 -8 -8 -29h-77q0 26 8 50q7 20 22 39q13 16 33 26q18 9 40 9q17 0 34 -7q14 -5 29 -14q2 -1 11 -6.5t14 -7.5q12 -6 22 -6z" />
    <glyph glyph-name="adieresis" unicode="&#xe4;" horiz-adv-x="520" 
d="M478 91q25 -6 25 -31v-59h-63h-13h-42q-19 0 -28 5q-10 4 -15 22l-11 36q-20 -19 -38 -31q-14 -10 -39 -22q-18 -8 -42 -13q-25 -5 -50 -5q-33 0 -60 9q-29 10 -47 26q-21 19 -31 44q-11 27 -11 60q0 30 15 58t51 51q38 24 94 38q59 15 147 15v30q0 50 -22 77
q-21 25 -63 25q-32 0 -50 -7q-23 -9 -35 -16q-5 -3 -14 -7.5t-13 -7.5q-11 -7 -27 -7q-13 0 -22 6q-6 4 -14 16l-23 39q90 82 213 82q45 0 81 -15q35 -15 59 -41q27 -31 38 -63q12 -36 12 -80v-227q5 -1 14.5 -2.5t12.5 -2.5t7 -1zM320 133v86q-56 0 -90 -7q-37 -8 -59 -18
t-31 -24t-9 -31q0 -34 19 -47q20 -14 50 -14q18 0 35 3t31 11q18 10 27 17q13 11 27 24zM221 646q0 -14 -6 -26t-15 -21q-8 -8 -22 -15q-11 -5 -27 -5t-26 5q-14 7 -22 15q-9 9 -15 21q-5 10 -5 26q0 17 5 27q8 16 15 23q8 8 22 15q10 5 26 5q17 0 27 -5q14 -7 22 -15
q7 -7 15 -23q6 -12 6 -27zM408 646q0 -14 -6 -26t-15 -21q-8 -8 -22 -15q-10 -5 -27 -5q-16 0 -26 5q-14 7 -22 15q-9 9 -15 21q-5 10 -5 26q0 17 5 27q8 16 15 23q8 8 22 15q10 5 26 5q17 0 27 -5q14 -7 22 -15q7 -7 15 -23q6 -12 6 -27z" />
    <glyph glyph-name="aring" unicode="&#xe5;" horiz-adv-x="520" 
d="M478 91q25 -6 25 -31v-59h-63h-13h-42q-19 0 -28 5q-10 4 -15 22l-11 36q-20 -19 -38 -31q-14 -10 -39 -22q-18 -8 -42 -13q-25 -5 -50 -5q-33 0 -60 9q-29 10 -47 26q-21 19 -31 44q-11 27 -11 60q0 30 15 58t51 51q38 24 94 38q59 15 147 15v30q0 50 -22 77
q-21 25 -63 25q-32 0 -50 -7q-23 -9 -35 -16q-5 -3 -14 -7.5t-13 -7.5q-11 -7 -27 -7q-13 0 -22 6q-6 4 -14 16l-23 39q90 82 213 82q45 0 81 -15q35 -15 59 -41q27 -31 38 -63q12 -36 12 -80v-227q5 -1 14.5 -2.5t12.5 -2.5t7 -1zM320 133v86q-56 0 -90 -7q-37 -8 -59 -18
t-31 -24t-9 -31q0 -34 19 -47q20 -14 50 -14q18 0 35 3t31 11q18 10 27 17q13 11 27 24zM134 663q0 23 9 42q7 16 25 32q15 13 35 21q21 8 42 8t43 -8q21 -8 36 -21q18 -16 25 -32q9 -19 9 -42t-9 -41q-9 -17 -25 -32q-15 -14 -36 -21q-20 -7 -43 -7q-24 0 -42 7
q-20 8 -35 21q-16 15 -25 32q-9 18 -9 41zM201 663q0 -20 12 -32q13 -13 34 -13q19 0 32 13q12 12 12 32q0 21 -12 33t-32 12q-22 0 -34 -12t-12 -33z" />
    <glyph glyph-name="ae" unicode="&#xe6;" horiz-adv-x="779" 
d="M560 521q41 0 80 -17q38 -17 65 -48q29 -34 43 -76q16 -48 16 -101q0 -12 -2 -24q-2 -9 -4 -14q-3 -5 -8 -8q-4 -2 -14 -2h-299q7 -73 42 -108t89 -35q32 0 56 7q20 6 35 14q3 2 23 15q9 6 20 6q10 0 16 -3t10 -8l32 -42q-24 -27 -44 -41q-24 -17 -52 -26q-24 -8 -54 -13
q-24 -4 -54 -4q-53 0 -101 24t-78 77q-15 -27 -37 -46q-25 -22 -48 -32q-27 -12 -57 -18t-61 -6q-34 0 -67 10q-30 9 -51 27q-19 16 -32 46q-11 25 -11 63q0 28 15 58q14 28 51 53q38 25 95 40q55 15 146 17v18q0 50 -22 78q-20 26 -63 26q-32 0 -50 -7q-19 -7 -35 -17
q-6 -4 -16 -10t-11 -7q-11 -7 -27 -7q-13 0 -22 6q-6 4 -14 16l-23 40q42 38 93 60q46 20 107 20q58 0 95 -22t56 -60q29 38 71 59q44 22 101 22zM320 231q-57 -3 -90 -10q-38 -8 -59 -19q-22 -12 -31 -27t-9 -31q0 -35 19 -51t54 -16q24 0 46 8q20 7 36 23t25 41q9 26 9 59
v23zM554 433q-52 0 -81 -34q-30 -35 -36 -93h217q0 24 -6 47t-18 41q-11 17 -32 28q-20 11 -44 11z" />
    <glyph glyph-name="ccedilla" unicode="&#xe7;" horiz-adv-x="459" 
d="M412 122l35 -45q-24 -27 -44 -41q-20 -13 -50 -26q-22 -8 -53 -13q-12 -2 -19 -3l-6 -21q45 -11 63 -30q18 -20 18 -44q0 -17 -9 -30q-10 -15 -25 -23q-21 -12 -38 -15q-25 -5 -50 -5q-20 0 -38 3q-22 4 -35 8l11 38q3 12 14 12q5 0 7 -1l9 -3q2 -1 5 -1.5t5 -0.5
q4 -1 14 -1q16 0 25 6q8 5 8 15q0 15 -18 21q-21 7 -55 11l3 13l3 9l13 41q-31 5 -49 14q-42 18 -73 52q-33 36 -50 83q-18 49 -18 113q0 57 16 104q17 48 48 84q33 36 78 55q48 20 107 20q64 0 162 -37l-1 -158h-4h-12h-41q-18 0 -23 19q-4 32 -8 72q-37 10 -66 10
q-33 0 -57 -12t-40 -34q-18 -25 -25 -53q-8 -34 -8 -70q0 -42 9 -73q9 -30 26 -54q17 -22 39 -33q25 -11 53 -11q31 0 48 7q22 9 31 16q3 2 11 7.5t11 8.5q8 7 20 7q16 0 23 -11z" />
    <glyph glyph-name="egrave" unicode="&#xe8;" horiz-adv-x="499" 
d="M262 521q48 0 89 -15q38 -14 70 -46q29 -29 46 -73q17 -45 17 -98q0 -12 -2 -24q-2 -11 -4 -14q-2 -5 -9 -8q-4 -2 -14 -2h-317q6 -79 43 -116t98 -37q31 0 51 7q22 7 38 16q5 2 15 7t14 8q11 7 23 7q8 0 14 -3q5 -2 9 -8l36 -45q-23 -26 -46 -41q-27 -17 -53 -26
q-25 -8 -57 -13q-25 -4 -56 -4q-55 0 -99 17t-80 53q-34 34 -54 86q-19 50 -19 119q0 50 17 98q16 45 49 81q31 34 77 54t104 20zM264 433q-53 0 -84 -31q-30 -30 -39 -86h232q0 20 -7 45q-6 19 -20 37q-13 16 -34 25q-23 10 -48 10zM220 731q20 0 30 -7q12 -8 18 -19
l71 -122h-70q-11 0 -23 4q-11 5 -18 14l-123 130h115z" />
    <glyph glyph-name="eacute" unicode="&#xe9;" horiz-adv-x="499" 
d="M262 521q48 0 89 -15q38 -14 70 -46q29 -29 46 -73q17 -45 17 -98q0 -12 -2 -24q-2 -11 -4 -14q-2 -5 -9 -8q-4 -2 -14 -2h-317q6 -79 43 -116t98 -37q31 0 51 7q22 7 38 16q5 2 15 7t14 8q11 7 23 7q8 0 14 -3q5 -2 9 -8l36 -45q-23 -26 -46 -41q-27 -17 -53 -26
q-25 -8 -57 -13q-25 -4 -56 -4q-55 0 -99 17t-80 53q-34 34 -54 86q-19 50 -19 119q0 50 17 98q16 45 49 81q31 34 77 54t104 20zM264 433q-53 0 -84 -31q-30 -30 -39 -86h232q0 20 -7 45q-6 19 -20 37q-13 16 -34 25q-23 10 -48 10zM438 731l-124 -130q-10 -11 -18 -14
q-12 -4 -23 -4h-74l71 122q7 13 18 19q12 7 30 7h120z" />
    <glyph glyph-name="ecircumflex" unicode="&#xea;" horiz-adv-x="499" 
d="M262 521q48 0 89 -15q38 -14 70 -46q29 -29 46 -73q17 -45 17 -98q0 -12 -2 -24q-2 -11 -4 -14q-2 -5 -9 -8q-4 -2 -14 -2h-317q6 -79 43 -116t98 -37q31 0 51 7q22 7 38 16q5 2 15 7t14 8q11 7 23 7q8 0 14 -3q5 -2 9 -8l36 -45q-23 -26 -46 -41q-27 -17 -53 -26
q-25 -8 -57 -13q-25 -4 -56 -4q-55 0 -99 17t-80 53q-34 34 -54 86q-19 50 -19 119q0 50 17 98q16 45 49 81q31 34 77 54t104 20zM264 433q-53 0 -84 -31q-30 -30 -39 -86h232q0 20 -7 45q-6 19 -20 37q-13 16 -34 25q-23 10 -48 10zM437 584h-82q-16 0 -25 9l-53 48l-5 5
q-1 1 -2.5 3t-2.5 3l-6 -6l-5 -5l-53 -48q-3 -2 -11 -6q-6 -3 -14 -3h-86l115 139h116z" />
    <glyph glyph-name="edieresis" unicode="&#xeb;" horiz-adv-x="499" 
d="M262 521q48 0 89 -15q38 -14 70 -46q29 -29 46 -73q17 -45 17 -98q0 -12 -2 -24q-2 -11 -4 -14q-2 -5 -9 -8q-4 -2 -14 -2h-317q6 -79 43 -116t98 -37q31 0 51 7q22 7 38 16q5 2 15 7t14 8q11 7 23 7q8 0 14 -3q5 -2 9 -8l36 -45q-23 -26 -46 -41q-27 -17 -53 -26
q-25 -8 -57 -13q-25 -4 -56 -4q-55 0 -99 17t-80 53q-34 34 -54 86q-19 50 -19 119q0 50 17 98q16 45 49 81q31 34 77 54t104 20zM264 433q-53 0 -84 -31q-30 -30 -39 -86h232q0 20 -7 45q-6 19 -20 37q-13 16 -34 25q-23 10 -48 10zM240 646q0 -16 -5 -26t-16 -21
q-8 -8 -22 -15q-10 -5 -27 -5q-16 0 -26 5q-12 6 -21 15t-15 21t-6 26q0 15 6 27q8 16 15 23q9 9 21 15q10 5 26 5q17 0 27 -5q14 -7 22 -15q8 -7 16 -23q5 -10 5 -27zM427 646q0 -16 -5 -26q-7 -14 -15 -22q-5 -5 -23 -14q-10 -5 -26 -5q-17 0 -27 5q-16 8 -22 14t-14 22
q-6 12 -6 26q0 15 6 27q9 18 14 23q8 8 22 15q10 5 27 5q16 0 26 -5q14 -6 23 -15q7 -7 15 -23q5 -10 5 -27z" />
    <glyph glyph-name="igrave" unicode="&#xec;" horiz-adv-x="322" 
d="M280 90q25 -6 25 -31v-59h-76h-123h-76v59q0 25 25 31h2q2 1 4 1l15 3q3 0 7.5 1t11.5 2t11 2v315l-30 5q-3 1 -8.5 2t-6.5 1h-4l-2 1q-25 6 -25 31v59h76h123v-414l30 -5q4 -1 8.5 -2t5.5 -1q2 0 5 -1h2zM127 731q19 0 30 -7q10 -7 17 -19l72 -122h-71q-11 0 -23 4
q-9 4 -17 14l-124 130h116z" />
    <glyph glyph-name="iacute" unicode="&#xed;" horiz-adv-x="344" 
d="M268 90q25 -6 25 -31v-59h-75h-124h-75v59q0 25 25 31h2q2 1 4 1q4 1 15 3q4 1 14 2.5t15 2.5v315q-5 1 -15 2.5t-14 2.5q-3 1 -8 2t-7 1h-4l-2 1q-25 6 -25 31v59h75h124v-414q5 -1 15 -2.5t14 -2.5q4 0 8.5 -1.5t6.5 -1.5t4 -1h2zM333 731l-124 -130q-10 -11 -18 -14
q-12 -4 -23 -4h-74l71 122q7 13 18 19q12 7 30 7h120z" />
    <glyph glyph-name="icircumflex" unicode="&#xee;" horiz-adv-x="367" 
d="M292 90q25 -6 25 -31v-59h-75h-124h-76v59q0 25 25 31h3q2 1 4 1q5 2 14 3q3 0 7.5 1t11.5 2t11 2v315l-30 5q-4 1 -8.5 2t-5.5 1h-4l-3 1q-25 6 -25 31v59h76h124v-414q5 -1 15 -2.5t14 -2.5q3 0 8 -1.5t7 -1.5t4 -1h2zM356 584h-82q-16 0 -25 9l-53 48l-5 5
q-1 1 -2.5 3t-2.5 3l-6 -6l-5 -5l-53 -48q-3 -2 -11 -6q-6 -3 -14 -3h-86l115 139h116z" />
    <glyph glyph-name="idieresis" unicode="&#xef;" horiz-adv-x="351" 
d="M284 90q25 -6 25 -31v-59h-75h-124h-76v59q0 25 25 31h3q2 1 4 1q5 2 14 3q3 0 7.5 1t11.5 2t11 2v315q-4 1 -11 2t-11.5 2t-7.5 1q-4 1 -8.5 2t-5.5 1h-4l-3 1q-25 6 -25 31v59h76h124v-414q5 -1 15 -2.5t14 -2.5q4 0 8.5 -1.5t6.5 -1.5t4 -1h2zM151 646q0 -16 -5 -26
t-16 -21q-8 -8 -22 -15q-10 -5 -27 -5q-16 0 -26 5q-12 6 -21 15t-15 21t-6 26q0 15 6 27q8 16 15 23q9 9 21 15q10 5 26 5q17 0 27 -5q14 -7 22 -15q9 -9 16 -23q5 -10 5 -27zM338 646q0 -16 -5 -26q-6 -12 -15 -21q-7 -7 -23 -15q-11 -5 -26 -5q-17 0 -27 5q-14 7 -22 15
q-7 7 -14 21q-6 12 -6 26q0 15 6 27q9 18 14 23q8 8 22 15q10 5 27 5q16 0 26 -5q14 -6 23 -15q7 -7 15 -23q5 -10 5 -27z" />
    <glyph glyph-name="eth" unicode="&#xf0;" horiz-adv-x="530" 
d="M174 531q-5 8 -5 17q0 15 16 24l37 21l-33 12q-7 2 -19.5 5.5t-17.5 5.5q-12 3 -21 12t-9 24q0 10 4 22l15 42q50 -9 97 -24q41 -13 88 -40l88 57l25 -40q5 -10 5 -15q0 -6 -4 -14q-5 -6 -11 -10l-40 -22q29 -26 51 -57q25 -35 40 -69q16 -36 25 -82q9 -45 9 -96
q0 -72 -17 -131t-49 -98q-32 -40 -81 -61q-48 -21 -110 -21q-52 0 -96 16q-42 15 -77 49q-33 32 -51 76q-19 47 -19 103q0 47 16 88q16 40 46 72q31 32 72 50q44 19 94 19q48 0 87 -18q42 -20 70 -50q-11 54 -35 91q-25 37 -68 67l-99 -64zM260 86q29 0 54 11t42 34
q19 26 29 60q12 41 13 90q-7 18 -20 35q-13 18 -28 29q-17 12 -36 19q-22 8 -47 8q-31 0 -56 -11q-24 -11 -41 -29q-15 -16 -25 -43q-9 -24 -9 -53q0 -34 10 -64q11 -28 27 -47q17 -20 39 -29q25 -10 48 -10z" />
    <glyph glyph-name="ntilde" unicode="&#xf1;" horiz-adv-x="635" 
d="M592 90q25 -6 25 -31v-59h-76h-123v326q0 46 -22 73q-21 26 -65 26q-31 0 -60 -15q-30 -16 -53 -39v-272q5 -1 15 -2.5t14 -2.5q11 -2 15 -3q3 -1 6 -1q25 -6 25 -31v-59h-75h-124h-75v59q0 25 25 31h2q2 1 4 1q4 1 15 3q4 1 14 2.5t15 2.5v315q-5 1 -15 2.5t-14 2.5
q-3 1 -8 2t-7 1q-3 1 -6 1q-25 6 -25 31v59h75h76q23 0 31 -23l9 -40q14 16 32 29q14 11 37 22q26 12 41 15q25 5 48 5q44 0 75 -14q29 -12 54 -40q21 -25 33 -62q11 -33 11 -79v-227q4 -1 11 -2t11.5 -2t7.5 -1q4 0 8.5 -1.5t6.5 -1.5t4 -1h2zM371 680q15 0 23 8q9 9 9 30
h75q0 -27 -8 -51q-8 -23 -21 -39q-12 -15 -32 -25q-18 -9 -42 -9q-18 0 -33 6q-14 5 -29 14q-2 1 -11 6.5t-14 7.5q-14 7 -22 7q-14 0 -23 -9q-8 -8 -8 -30h-77q0 27 8 51q7 20 22 39q13 16 33 26q16 8 40 8q19 0 34 -6q14 -5 29 -14q2 -1 11 -6.5t14 -7.5q12 -6 22 -6z" />
    <glyph glyph-name="ograve" unicode="&#xf2;" horiz-adv-x="538" 
d="M270 521q55 0 104 -19q48 -19 80 -52t50 -83q18 -49 18 -109q0 -61 -18 -110q-19 -51 -50 -84q-33 -35 -80 -53q-46 -18 -104 -18t-105 18t-80 53q-35 36 -52 84q-18 49 -18 110q0 60 18 109q17 46 52 83q32 33 80 52q49 19 105 19zM270 88q64 0 94 43q31 45 31 126
t-31 126q-30 44 -94 44t-96 -44t-32 -127q0 -81 32 -125q31 -43 96 -43zM226 731q20 0 30 -7q9 -6 17 -20l71 -121h-70q-11 0 -23 4q-10 5 -17 13l-124 131h116z" />
    <glyph glyph-name="oacute" unicode="&#xf3;" horiz-adv-x="538" 
d="M270 521q55 0 104 -19q48 -19 80 -52t50 -83q18 -49 18 -109q0 -61 -18 -110q-19 -51 -50 -84q-33 -35 -80 -53q-46 -18 -104 -18t-105 18t-80 53q-35 36 -52 84q-18 49 -18 110q0 60 18 109q17 46 52 83q32 33 80 52q49 19 105 19zM270 88q64 0 94 43q31 45 31 126
t-31 126q-30 44 -94 44t-96 -44t-32 -127q0 -81 32 -125q31 -43 96 -43zM443 731l-123 -131q-8 -9 -19 -13q-12 -4 -23 -4h-74l72 121q8 15 17 20q12 7 30 7h120z" />
    <glyph glyph-name="ocircumflex" unicode="&#xf4;" horiz-adv-x="538" 
d="M270 521q55 0 104 -19q48 -19 80 -52t50 -83q18 -49 18 -109q0 -61 -18 -110q-19 -51 -50 -84q-33 -35 -80 -53q-46 -18 -104 -18t-105 18t-80 53q-35 36 -52 84q-18 49 -18 110q0 60 18 109q17 46 52 83q32 33 80 52q49 19 105 19zM270 88q64 0 94 43q31 45 31 126
t-31 126q-30 44 -94 44t-96 -44t-32 -127q0 -81 32 -125q31 -43 96 -43zM442 584h-82q-16 0 -25 9l-53 47q-1 1 -2.5 3t-2.5 3t-2.5 3t-2.5 3q-1 -1 -2.5 -3t-2.5 -3t-2.5 -3t-2.5 -3l-54 -47q-3 -2 -11 -6q-6 -3 -14 -3h-85l114 139h116z" />
    <glyph glyph-name="otilde" unicode="&#xf5;" horiz-adv-x="538" 
d="M270 521q55 0 104 -19q48 -19 80 -52t50 -83q18 -49 18 -109q0 -61 -18 -110q-19 -51 -50 -84q-33 -35 -80 -53q-46 -18 -104 -18t-105 18t-80 53q-35 36 -52 84q-18 49 -18 110q0 60 18 109q17 46 52 83q32 33 80 52q49 19 105 19zM270 88q64 0 94 43q31 45 31 126
t-31 126q-30 44 -94 44t-96 -44t-32 -127q0 -81 32 -125q31 -43 96 -43zM324 680q15 0 23 8q9 9 9 30h74q0 -30 -7 -51q-7 -23 -21 -39q-12 -14 -33 -25q-18 -9 -41 -9q-19 0 -34 6q-10 4 -28 14t-26 14q-14 7 -22 7q-13 0 -22 -9q-8 -8 -8 -30h-77q0 27 8 51q7 23 21 39
q13 16 33 26q16 8 41 8q19 0 34 -6q14 -5 29 -14q2 -1 11 -6.5t14 -7.5q12 -6 22 -6z" />
    <glyph glyph-name="odieresis" unicode="&#xf6;" horiz-adv-x="537" 
d="M269 521q55 0 104 -19q48 -19 80 -52q34 -35 51 -83q18 -49 18 -109q0 -61 -18 -110q-18 -50 -51 -84q-33 -35 -80 -53t-104 -18q-59 0 -105 18q-47 18 -80 53q-33 34 -51 84q-19 52 -19 110q0 57 19 109q17 48 51 83q32 33 80 52q49 19 105 19zM269 88q65 0 95 43
t30 126t-30 126q-30 44 -95 44q-64 0 -96 -44q-31 -43 -31 -127q0 -82 31 -125t96 -43zM245 646q0 -16 -5 -26q-6 -12 -16 -22q-6 -6 -22 -14q-10 -5 -27 -5q-16 0 -26 5q-14 7 -21 14q-10 10 -16 22q-5 10 -5 26q0 17 5 27q7 14 16 23q7 7 21 14q12 6 26 6q15 0 27 -6
q16 -8 22 -14q9 -9 16 -23q5 -10 5 -27zM432 646q0 -16 -5 -26q-7 -14 -15 -22q-5 -5 -23 -14q-10 -5 -26 -5q-17 0 -27 5q-16 8 -22 14t-14 22q-6 12 -6 26q0 15 6 27q9 18 14 23q6 6 22 14q12 6 27 6q14 0 26 -6q16 -7 23 -14q5 -5 14 -23q6 -12 6 -27z" />
    <glyph glyph-name="divide" unicode="&#xf7;" horiz-adv-x="521" 
d="M16 382h488v-92h-488v92zM184 514q0 16 6 29q6 14 16 24t24 16t30 6t29 -6q14 -6 24 -16q11 -11 17 -24q6 -14 6 -29q0 -16 -6 -30q-6 -13 -17 -24q-10 -10 -24 -16q-11 -5 -29 -5q-19 0 -30 5q-14 6 -24 16t-16 24t-6 30zM184 158q0 15 6 29t16 24t24 16t30 6t29 -6
q14 -6 24 -16q11 -11 17 -24q6 -14 6 -29q0 -16 -6 -30q-6 -13 -17 -24q-10 -10 -24 -16q-11 -5 -29 -5q-19 0 -30 5q-14 6 -24 16t-16 24t-6 30z" />
    <glyph glyph-name="oslash" unicode="&#xf8;" horiz-adv-x="559" 
d="M462 446q31 -34 49 -82q17 -45 17 -106t-18 -110q-19 -51 -50 -84q-33 -35 -80 -53q-49 -19 -104 -19q-34 0 -68 8t-60 21l-16 -23q-15 -19 -35 -28q-19 -8 -39 -8h-46l77 104q-33 34 -51 83q-17 45 -17 109q0 60 18 109q17 46 52 83q32 33 80 52q49 19 105 19
q39 0 68 -7q27 -6 58 -22l28 38q6 9 12 15q4 4 12 10q6 4 14 6q5 1 18 1h62zM140 256q0 -60 16 -98l188 255q-29 17 -68 17q-67 0 -101 -45q-35 -46 -35 -129zM276 84q64 0 98 44q35 46 35 128q0 33 -4 54q-5 28 -11 43l-188 -253q26 -16 70 -16z" />
    <glyph glyph-name="ugrave" unicode="&#xf9;" horiz-adv-x="629" 
d="M586 90q25 -6 25 -31v-59h-75h-76q-23 0 -31 23l-9 41q-16 -16 -33 -30q-15 -12 -36 -22q-19 -9 -42 -15q-25 -5 -47 -5q-41 0 -75 14q-29 12 -54 41q-20 23 -33 61q-11 38 -11 79v227q-43 8 -51 9q-25 6 -25 31v59h76h123v-326q0 -46 22 -73q21 -25 65 -25q30 0 60 14
q27 13 53 39v272q-18 3 -29 5t-14.5 3t-6.5 1q-25 6 -25 31v59h75h124v-414q45 -8 50 -9zM272 731q20 0 30 -7t17 -19l72 -122h-71q-11 0 -23 4q-9 4 -17 14l-124 130h116z" />
    <glyph glyph-name="uacute" unicode="&#xfa;" horiz-adv-x="629" 
d="M586 90q25 -6 25 -31v-59h-75h-76q-23 0 -31 23l-9 41q-16 -16 -33 -30q-15 -12 -36 -22q-19 -9 -42 -15q-25 -5 -47 -5q-41 0 -75 14q-29 12 -54 41q-20 23 -33 61q-11 38 -11 79v227q-43 8 -51 9q-25 6 -25 31v59h76h123v-326q0 -46 22 -73q21 -25 65 -25q30 0 60 14
q27 13 53 39v272q-18 3 -29 5t-14.5 3t-6.5 1q-25 6 -25 31v59h75h124v-414q45 -8 50 -9zM489 731l-123 -130q-9 -11 -19 -14q-12 -4 -22 -4h-74l71 122q8 14 17 19q12 7 30 7h120z" />
    <glyph glyph-name="ucircumflex" unicode="&#xfb;" horiz-adv-x="629" 
d="M586 90q25 -6 25 -31v-59h-75h-76q-23 0 -31 23l-9 41q-16 -16 -33 -30q-15 -12 -36 -22q-19 -9 -42 -15q-25 -5 -47 -5q-41 0 -75 14q-29 12 -54 41q-20 23 -33 61q-11 38 -11 79v227q-43 8 -51 9q-25 6 -25 31v59h76h123v-326q0 -46 22 -73q21 -25 65 -25q30 0 60 14
q27 13 53 39v272q-18 3 -29 5t-14.5 3t-6.5 1q-25 6 -25 31v59h75h124v-414q45 -8 50 -9zM489 584h-83q-16 0 -25 9l-52 48q-1 1 -3 2.5t-3 2.5t-2.5 3t-2.5 3q-1 -1 -2.5 -3t-2.5 -3l-5 -5l-54 -48q-3 -2 -11 -6q-6 -3 -14 -3h-85l114 139h116z" />
    <glyph glyph-name="udieresis" unicode="&#xfc;" horiz-adv-x="629" 
d="M586 90q25 -6 25 -31v-59h-75h-76q-23 0 -31 23l-9 41q-16 -16 -33 -30q-15 -12 -36 -22q-19 -9 -42 -15q-25 -5 -47 -5q-41 0 -75 14q-29 12 -54 41q-20 23 -33 61q-11 38 -11 79v227q-43 8 -51 9q-25 6 -25 31v59h76h123v-326q0 -46 22 -73q21 -25 65 -25q30 0 60 14
q27 13 53 39v272q-18 3 -29 5t-14.5 3t-6.5 1q-25 6 -25 31v59h75h124v-414q45 -8 50 -9zM292 646q0 -14 -6 -26t-15 -21q-7 -7 -23 -15q-10 -5 -26 -5t-26 5q-14 7 -22 15q-9 9 -15 21q-5 10 -5 26q0 17 5 27q8 16 15 23q8 8 22 15q10 5 26 5t26 -5q16 -8 23 -15
q6 -5 15 -23q6 -12 6 -27zM479 646q0 -14 -6 -26t-15 -21q-8 -8 -22 -15q-10 -5 -27 -5q-16 0 -26 5q-14 7 -22 15q-9 9 -15 21q-5 10 -5 26q0 17 5 27q8 16 15 23q8 8 22 15q10 5 26 5q17 0 27 -5q14 -7 22 -15q7 -7 15 -23q6 -12 6 -27z" />
    <glyph glyph-name="yacute" unicode="&#xfd;" horiz-adv-x="611" 
d="M566 513h30v-59q0 -25 -25 -31q-3 0 -6 -1t-13 -3t-28 -5l-237 -555q-6 -14 -15 -20q-7 -6 -26 -6h-92l96 205l-165 376q-18 3 -28 5t-13 3t-6 1q-25 6 -25 31v59h29h108h113v-59q0 -25 -25 -31q-2 0 -8.5 -1t-15.5 -3l81 -195q2 -4 3.5 -8.5t3 -10t2.5 -8.5q2 -7 7 -28
q3 10 9 28t10 27l75 193q-13 3 -34 6q-25 6 -25 31v59h121h99zM488 731l-123 -131q-8 -9 -19 -13q-12 -4 -22 -4h-74l71 121q8 15 17 20q12 7 30 7h120z" />
    <glyph glyph-name="thorn" unicode="&#xfe;" horiz-adv-x="515" 
d="M27 -168v911h123v-293q28 31 70 52q38 19 90 19q43 0 76 -17q34 -16 60 -50q25 -32 39 -82t14 -111q0 -57 -15 -107q-14 -46 -45 -85q-27 -34 -69 -56q-39 -20 -92 -20q-24 0 -40 4q-24 6 -34 11t-28 19q-15 12 -26 24v-219h-123zM267 425q-40 0 -66 -16t-50 -46v-230
q21 -25 45 -36q23 -10 54 -10q29 0 50 10q24 11 39 32t24 54t9 78q0 42 -8 76t-20 51q-13 19 -33 28q-19 9 -44 9z" />
    <glyph glyph-name="ydieresis" unicode="&#xff;" horiz-adv-x="611" 
d="M566 513h30v-59q0 -25 -25 -31q-3 0 -6 -1t-13 -3t-28 -5l-237 -555q-6 -14 -15 -20q-7 -6 -26 -6h-92l96 205l-165 376q-18 3 -28 5t-13 3t-6 1q-25 6 -25 31v59h29h108h113v-59q0 -25 -25 -31q-2 0 -8.5 -1t-15.5 -3l81 -195q2 -4 3.5 -8.5t3 -10t2.5 -8.5q2 -7 7 -28
q3 10 9 28t10 27l75 193q-13 3 -34 6q-25 6 -25 31v59h121h99zM291 646q0 -14 -6 -26q-7 -14 -15 -22q-5 -5 -23 -14q-10 -5 -26 -5t-26 5q-16 8 -22 14q-8 8 -15 22q-5 10 -5 26q0 17 5 27q8 16 15 23q6 6 22 14q12 6 26 6t26 -6q18 -9 23 -14q7 -7 15 -23q6 -12 6 -27z
M478 646q0 -14 -6 -26q-7 -14 -15 -22q-6 -6 -22 -14q-10 -5 -27 -5q-16 0 -26 5q-16 8 -22 14q-8 8 -15 22q-5 10 -5 26q0 17 5 27q8 16 15 23q6 6 22 14q12 6 26 6q15 0 27 -6q14 -6 22 -14q7 -7 15 -23q6 -12 6 -27z" />
    <glyph glyph-name="Aogonek" unicode="&#x104;" horiz-adv-x="811" 
d="M695 -28q-8 -10 -12 -19q-5 -12 -5 -21q0 -14 10 -24q8 -8 26 -8q12 0 16 1q2 0 5.5 0.5t4.5 1.5l6 3q2 1 5 1q9 0 12 -8l19 -46q-16 -10 -41 -18q-22 -7 -53 -7q-49 0 -75 20q-27 21 -27 53q0 26 19 53q18 25 52 46h-3h-105v51q0 18 20 26l20 8l-4 11l-36 98h-288
l-37 -103l-3 -6q4 -1 8.5 -3t7.5 -3.5t4 -1.5q20 -8 20 -26v-51h-104h-10h-16h-79h-35v51q0 18 20 26q1 1 55 23l244 623h138l245 -623q54 -22 55 -23q19 -8 19 -26v-51h-35h-27q-15 -8 -19 -12q-12 -10 -17 -16zM378 513l-82 -224h219l-83 224q-2 5 -6 18t-7 20
q-1 3 -14 47q-12 -42 -14 -47q-2 -8 -13 -38z" />
    <glyph glyph-name="aogonek" unicode="&#x105;" horiz-adv-x="520" 
d="M404 -27q-8 -10 -12 -19q-5 -12 -5 -21q0 -14 10 -24q8 -8 26 -8q12 0 16 1q2 0 5.5 0.5t4.5 1.5l6 3q2 1 5 1q9 0 12 -8l19 -46q-17 -11 -41 -18q-22 -7 -53 -7q-49 0 -75 20q-27 21 -27 53q0 29 19 54q20 26 54 47h1l-12 3q-10 4 -15 22l-11 36q-20 -19 -38 -31
q-14 -10 -39 -22q-18 -8 -42 -13q-25 -5 -50 -5q-33 0 -60 9q-29 10 -47 26q-21 19 -31 44q-11 27 -11 60q0 30 15 58t51 51q38 24 94 38q59 15 147 15v30q0 50 -22 77q-21 25 -63 25q-32 0 -50 -7q-23 -9 -35 -16q-4 -2 -13 -7.5t-14 -8.5q-11 -7 -27 -7q-12 0 -22 7
q-8 5 -15 16l-22 39q89 81 213 81q47 0 81 -14q37 -16 59 -41q27 -31 38 -63q12 -36 12 -80v-227q12 -2 20.5 -3.5t11.5 -2.5t6 -1q25 -6 25 -31v-59h-63q-15 -8 -19 -12q-12 -10 -17 -16zM320 133v86q-56 0 -90 -7q-35 -7 -58 -18t-32 -24q-9 -14 -9 -31q0 -34 19 -47
q20 -14 50 -14q18 0 35 3t31 11q18 10 27 17q13 11 27 24z" />
    <glyph glyph-name="Cacute" unicode="&#x106;" horiz-adv-x="637" 
d="M554 495q-18 0 -23 18q-3 13 -9 80q-79 23 -138 23q-53 0 -94 -17q-43 -18 -73 -51q-31 -34 -48 -80q-18 -48 -18 -107q0 -60 18 -108q19 -50 46 -80q29 -32 70 -50q38 -17 86 -17q27 0 50 3t41 9q17 6 35 17q15 9 33 26q3 3 11 7q4 2 12 2q12 0 19 -8l53 -58
q-44 -55 -108 -83q-66 -29 -155 -29q-77 0 -144 28q-66 28 -110 76q-47 51 -70 117q-24 67 -24 148q0 83 27 150t76 116q51 51 117 77q68 27 151 27q92 0 227 -52v-184h-58zM573 896l-148 -108q-4 -3 -10 -7q-3 -2 -9 -4t-10 -2q-2 0 -6 -0.5t-7 -0.5h-97l98 102q4 4 12 10
q7 5 10 6q6 3 13 3q2 0 7.5 0.5t9.5 0.5h137z" />
    <glyph glyph-name="cacute" unicode="&#x107;" horiz-adv-x="459" 
d="M412 122l35 -45q-24 -27 -44 -41q-20 -13 -50 -26q-22 -8 -53 -13q-24 -4 -55 -4q-49 0 -89 17q-42 18 -73 52q-33 36 -50 83q-18 49 -18 113q0 57 16 104q17 48 48 84q31 35 78 55q48 20 107 20q64 0 162 -37l-1 -158h-4h-12h-41q-18 0 -23 19q-4 32 -8 72
q-37 10 -66 10q-33 0 -57 -12q-25 -12 -40 -33q-18 -25 -25 -54q-8 -34 -8 -70q0 -42 9 -73q9 -33 25 -54q17 -21 40 -33q25 -11 53 -11q31 0 48 7q22 9 31 16q3 2 11 7.5t11 8.5q8 7 20 7q16 0 23 -11zM436 731l-124 -131q-8 -10 -18 -13q-12 -4 -23 -4h-74l71 121
q8 14 18 20q12 7 30 7h120z" />
    <glyph glyph-name="Eogonek" unicode="&#x118;" horiz-adv-x="574" 
d="M538 -101l19 -46q-15 -10 -42 -18q-22 -7 -52 -7q-49 0 -75 20q-27 21 -27 53q0 27 18 53q17 24 53 46h-336h-76v59q0 25 25 31q8 1 51 9v525q-43 8 -51 9q-25 6 -25 31v59h76h456v-70v-37v-83h-5h-12h-41q-18 0 -23 19q-2 12 -7 64h-233v-201h245v-103h-245v-204h233
q5 52 7 64q5 19 23 19h41h12h5v-83v-38v-70h-46q-15 -8 -19 -12q-12 -10 -17 -16q-8 -10 -12 -19q-5 -12 -5 -21q0 -14 10 -24q8 -8 26 -8q12 0 16 1q2 0 5 0.5t4 1.5q3 1 7 3q2 1 5 1q9 0 12 -8z" />
    <glyph glyph-name="eogonek" unicode="&#x119;" horiz-adv-x="499" 
d="M356 -94q8 0 11 -7l19 -46q-16 -10 -41 -18q-22 -7 -52 -7q-49 0 -75 20q-27 21 -27 53q0 25 15 49q14 23 44 43q-51 3 -93 22q-45 20 -75 53t-49 85q-18 49 -18 115q0 50 17 98q16 45 49 81q31 34 77 54t104 20q48 0 89 -15q38 -14 70 -46q29 -29 46 -73q17 -45 17 -99
q0 -11 -2 -23q-2 -11 -4 -14q-2 -5 -9 -8q-4 -2 -14 -2h-317q6 -80 42 -116q37 -37 98 -37q32 0 52 7q27 9 38 15q27 15 29 16q11 7 23 7q16 0 23 -12l36 -45q-30 -34 -68 -52q-41 -19 -79 -26l-18 -12q-12 -10 -16 -16q-8 -12 -11 -18q-4 -8 -4 -20q0 -15 9 -24q8 -8 27 -8
h15q8 2 10 3q3 1 7 3h5zM264 433q-53 0 -84 -31t-40 -86h232q0 24 -6 45q-6 19 -20 37q-13 16 -34 25q-23 10 -48 10z" />
    <glyph glyph-name="dotlessi" unicode="&#x131;" horiz-adv-x="310" 
d="M268 90q25 -6 25 -31v-59h-76h-123h-76v59q0 25 25 31h2q2 1 4 1q1 0 6.5 1.5t8.5 1.5l30 5v315q-4 1 -11 2t-11.5 2t-7.5 1q-4 1 -9 2t-6 1h-4l-2 1q-25 6 -25 31v59h76h123v-414q4 -1 11 -2t11.5 -2t7.5 -1q4 0 8.5 -1.5t6.5 -1.5t4 -1h2z" />
    <glyph glyph-name="Lslash" unicode="&#x141;" horiz-adv-x="572" 
d="M499 173h53v-101v-19v-53h-24h-3h-421h-76v59q0 25 25 31q4 0 7 1q4 1 15 3q4 1 14 2.5t15 2.5v165l-90 -45v92q0 17 15 24l75 39v250q-5 1 -15 2.5t-14 2.5q-3 1 -8 2t-7 1q-3 1 -7 1q-25 6 -25 31v59h76h134h76v-59q0 -25 -25 -31q-3 0 -6 -1q-5 -2 -15 -3l-30 -5v-189
l179 89v-90q0 -18 -16 -27l-163 -84v-212h233q3 40 4 43q5 19 24 19z" />
    <glyph glyph-name="lslash" unicode="&#x142;" horiz-adv-x="319" 
d="M286 400l-64 -28v-273q5 -1 15 -2.5t14 -2.5q11 -2 15 -3q3 -1 6 -1q25 -6 25 -31v-59h-75h-124h-76v59q0 25 25 31q4 0 7 1q4 1 15 3q4 1 14 2.5t15 2.5v230l-82 -33v73q0 18 15 24l67 28v223q-5 1 -15 2.5t-14 2.5t-8.5 2t-6.5 1t-4 0.5t-3 0.5q-25 6 -25 31v59h76h123
v-278l82 33v-71q0 -21 -17 -27z" />
    <glyph glyph-name="Nacute" unicode="&#x143;" horiz-adv-x="796" 
d="M706 723h75v-59q0 -25 -25 -31l-2 -1h-4t-7 -1t-8 -2q-4 -1 -14 -2.5t-15 -2.5v-624h-70q-14 0 -26 5q-10 5 -21 18l-378 481q2 -22 2 -31q0 -5 0.5 -15t0.5 -14v-345q63 -9 65 -9q25 -6 25 -31v-59h-90h-118h-76v59q0 25 25 31q3 0 6 1l15 3q3 0 7.5 1t11.5 2t11 2v525
q-4 1 -11 2t-11.5 2t-7.5 1q-4 1 -9 2t-6 1h-4l-2 1q-25 6 -25 31v59h76h70q3 0 8 -0.5t7 -0.5q7 0 11 -3q4 -1 9 -6q2 -2 10 -12l380 -483q-1 12 -3 34q-1 11 -1 32v340q-63 9 -65 9q-25 6 -25 31v59h90h119zM601 896l-148 -108q-4 -3 -10 -7q-2 -1 -10 -4q-6 -2 -10 -2
q-2 0 -5.5 -0.5t-6.5 -0.5h-97l98 102q7 7 11 10q7 5 11 6q6 3 13 3q2 0 7.5 0.5t9.5 0.5h137z" />
    <glyph glyph-name="nacute" unicode="&#x144;" horiz-adv-x="635" 
d="M592 90q25 -6 25 -31v-59h-76h-123v326q0 46 -22 73q-21 26 -65 26q-31 0 -60 -15q-30 -16 -53 -39v-272q5 -1 15 -2.5t14 -2.5q11 -2 15 -3q3 -1 6 -1q25 -6 25 -31v-59h-75h-124h-75v59q0 25 25 31h2q2 1 4 1q4 1 15 3q4 1 14 2.5t15 2.5v315q-5 1 -15 2.5t-14 2.5
q-3 1 -8 2t-7 1q-3 1 -6 1q-25 6 -25 31v59h75h76q23 0 31 -23l9 -40q14 16 32 29q14 11 37 22q26 12 41 15q25 5 48 5q44 0 75 -14q29 -12 54 -40q21 -25 33 -62q11 -33 11 -79v-227q4 -1 11 -2t11.5 -2t7.5 -1q4 0 8.5 -1.5t6.5 -1.5t4 -1h2zM493 731l-123 -131
q-8 -10 -18 -13q-12 -4 -23 -4h-74l71 121q8 15 17 20q12 7 30 7h120z" />
    <glyph glyph-name="OE" unicode="&#x152;" horiz-adv-x="1041" 
d="M578 723h440v-69v-38v-83h-4h-12h-42q-18 0 -23 19q-2 11 -7 64h-233v-200h245v-104h-245v-204h233q5 52 7 64q5 19 23 19h42h12h4v-83v-38v-70h-440v93q-44 -47 -102 -74q-56 -26 -132 -26q-78 0 -135 27q-60 27 -104 77q-43 49 -67 117t-24 148t24 147q24 68 67 117
q44 50 104 77q62 28 135 28q75 0 131 -26q62 -29 103 -74v92zM548 254q14 50 14 108q0 57 -14 107q-14 49 -40 81q-26 33 -65 52q-37 18 -85 18t-87 -18q-38 -18 -65 -52q-24 -29 -40 -81q-15 -53 -15 -107q0 -55 15 -108q16 -52 40 -81q28 -34 65 -51q39 -18 87 -18t85 18
q38 18 65 51q26 32 40 81z" />
    <glyph glyph-name="oe" unicode="&#x153;" horiz-adv-x="840" 
d="M620 521q43 0 82 -17q37 -16 64 -48q29 -34 43 -76q15 -45 15 -101q0 -18 -1 -24q-1 -9 -4 -14t-8 -8q-4 -2 -14 -2h-299q8 -73 42 -108q35 -35 90 -35q30 0 48 7q23 9 35 16q5 3 14 7.5t13 7.5q11 7 24 7q14 0 22 -11l36 -45q-21 -24 -46 -41t-51 -26q-24 -8 -54 -13
q-24 -4 -53 -4q-54 0 -102 24t-78 76q-30 -49 -78 -74q-49 -26 -112 -26q-52 0 -94 18t-74 53q-29 32 -48 84q-17 47 -17 110q0 62 17 109q18 49 49 83t75 52q46 19 96 19q62 0 109 -26q48 -26 77 -73q27 45 73 72q47 27 109 27zM260 88q59 0 87 43t28 126t-28 126
q-29 44 -88 44t-88 -44t-29 -126t29 -126q28 -43 89 -43zM615 433q-52 0 -81 -34q-30 -35 -36 -93h217q0 24 -6 47t-18 41t-31 28q-20 11 -45 11z" />
    <glyph glyph-name="Sacute" unicode="&#x15a;" horiz-adv-x="505" 
d="M477 303q14 -29 14 -77q0 -46 -17 -91q-17 -44 -49 -75q-32 -32 -79 -50q-46 -18 -106 -18h-15q-95 0 -207 38v18v168h4h12h41q19 0 23 -18q3 -13 9 -83q42 -13 137 -13q57 0 89 27q31 27 31 78q0 28 -14 47q-13 18 -38 30q-26 13 -53 21q-4 1 -26.5 7.5t-34.5 10.5
q-30 10 -61 24q-28 13 -54 37q-24 22 -37 56q-15 37 -15 83q0 41 16 77q15 38 46 67q29 27 74 46q44 18 101 18q105 0 207 -41v-185h-4h-12h-41q-18 0 -23 19q-3 14 -9 81q-36 16 -117 16q-27 0 -48 -6q-23 -8 -35 -19q-15 -13 -22 -29q-7 -15 -7 -37q0 -24 15 -42t37 -29
q29 -15 54 -22q10 -3 61 -20q21 -7 61 -25q30 -14 54 -36q26 -24 38 -53zM473 896l-148 -108q-4 -3 -10 -7q-2 -1 -10 -4q-6 -2 -10 -2q-2 0 -5.5 -0.5t-6.5 -0.5h-97l98 102q7 7 11 10q7 5 11 6q6 3 12 3q2 0 7.5 0.5t9.5 0.5h138z" />
    <glyph glyph-name="sacute" unicode="&#x15b;" horiz-adv-x="410" 
d="M360 413q-5 -9 -10 -11q-6 -3 -14 -3q-7 0 -19 5q-4 2 -12 5.5t-12 5.5q-17 7 -31 11q-20 5 -40 5q-37 0 -58 -15t-21 -41q0 -15 11 -28q8 -9 28 -19q23 -11 40 -16q8 -2 46 -14q16 -5 46 -19q22 -10 41 -26q18 -15 28 -37q11 -24 11 -53q0 -36 -14 -69q-14 -32 -39 -54
q-27 -24 -64 -35q-42 -13 -88 -13q-24 0 -52 5q-25 4 -48 13q-27 10 -43 20q-23 14 -35 25l29 47q6 10 12 13q8 5 20 5q9 0 21 -7q2 -1 10.5 -6t13.5 -8q15 -8 32 -14q21 -7 46 -7q23 0 38 6q18 7 26 14q12 10 15 19q4 11 4 23q0 19 -10 30q-9 10 -29 20q-19 9 -40 15
q-9 2 -26 8t-21 7q-16 5 -46 19q-24 11 -41 27q-18 16 -28 40q-11 25 -11 58q0 32 12 60t37 50t61 34q39 13 83 13q56 0 97 -17q44 -18 72 -46zM398 731l-124 -131q-8 -10 -18 -13q-12 -4 -23 -4h-74l71 121q8 14 18 20q12 7 30 7h120z" />
    <glyph glyph-name="Scaron" unicode="&#x160;" horiz-adv-x="505" 
d="M477 303q14 -29 14 -77q0 -46 -17 -91q-17 -44 -49 -75q-32 -32 -79 -50q-46 -18 -106 -18h-15q-95 0 -207 38v18v168h4h12h41q19 0 23 -18q3 -13 9 -83q42 -13 137 -13q57 0 89 27q31 27 31 78q0 28 -14 47q-13 18 -38 30q-26 13 -53 21q-4 1 -26.5 7.5t-34.5 10.5
q-30 10 -61 24q-28 13 -54 37q-24 22 -37 56q-15 37 -15 83q0 41 16 77q15 38 46 67q29 27 74 46q44 18 101 18q105 0 207 -41v-185h-4h-12h-41q-18 0 -23 19q-3 14 -9 81q-36 16 -117 16q-27 0 -48 -6q-23 -8 -35 -19q-15 -13 -22 -29q-7 -15 -7 -37q0 -24 15 -42t37 -29
q29 -15 54 -22q10 -3 61 -20q21 -7 61 -25q30 -14 54 -36q26 -24 38 -53zM93 884h93q5 0 17 -2q8 -1 14 -6l51 -34l2 -1q1 -1 2 -1l1 -1q1 -1 2 -1t2 1t2 1t2 1t2 1l50 34q6 4 15 6q12 2 16 2h94l-121 -110h-123z" />
    <glyph glyph-name="scaron" unicode="&#x161;" horiz-adv-x="407" 
d="M360 413q-5 -9 -10 -11q-6 -3 -14 -3q-7 0 -19 5q-4 2 -12 5.5t-12 5.5q-17 7 -31 11q-20 5 -40 5q-37 0 -58 -15t-21 -41q0 -15 11 -28q8 -9 28 -19q23 -11 40 -16q8 -2 46 -14q16 -5 46 -19q22 -10 41 -26q18 -15 28 -37q11 -24 11 -53q0 -36 -14 -69q-14 -32 -39 -54
q-27 -24 -64 -35q-42 -13 -88 -13q-24 0 -52 5q-25 4 -48 13q-27 10 -43 20q-23 14 -35 25l29 47q6 10 12 13q8 5 20 5q9 0 21 -7q2 -1 10.5 -6t13.5 -8q15 -8 32 -14q21 -7 46 -7q23 0 38 6q18 7 26 14q12 10 15 19q4 11 4 23q0 19 -10 30q-9 10 -29 20q-19 9 -40 15
q-9 2 -26 8t-21 7q-16 5 -46 19q-24 11 -41 27q-18 16 -28 40q-11 25 -11 58q0 32 12 60t37 50t61 34q39 13 83 13q56 0 97 -17q44 -18 72 -46zM278 584h-116l-114 139h85q8 0 14 -3q8 -4 11 -6l53 -48l11 -11q1 1 2.5 3t2.5 3l5 5l53 48q6 4 11 6q7 3 14 3h82z" />
    <glyph glyph-name="Ydieresis" unicode="&#x178;" horiz-adv-x="726" 
d="M693 723h17v-59q0 -25 -25 -31q-1 0 -3 -0.5t-4 -0.5t-6.5 -1t-8.5 -2t-14 -2.5t-15 -2.5l-204 -343v-182l30 -5q4 -1 8.5 -2t5.5 -1q2 0 4 -1h3q25 -6 25 -31v-59h-76h-134h-76v59q0 25 25 31q3 0 6 1l15 3q3 0 7.5 1t11.5 2t11 2v182l-205 343q-5 1 -15 2.5t-14 2.5
t-9 2t-6 1q-3 1 -6 1q-25 6 -25 31v59h16h18h41h60h135v-59q0 -25 -25 -31l-2 -1h-3q-3 -2 -9 -3q-2 0 -4.5 -0.5t-5.5 -1.5t-5 -1l96 -175q8 -14 20 -40q2 -4 16 -38q7 23 14 38q12 26 20 40l95 175q-10 2 -14 3q-2 0 -5.5 1.5t-4.5 1.5q-2 1 -4 1q-25 6 -25 31v59h134h60
h41h18zM323 834q0 -16 -5 -26q-6 -12 -15 -21t-22 -14t-27 -5q-12 0 -25 5q-10 4 -20 14q-9 9 -15 21q-5 10 -5 26q0 15 5 25q7 14 15 22q10 10 20 15t25 5q17 0 27 -5q14 -7 22 -15t15 -22q5 -10 5 -25zM539 834q0 -16 -5 -26q-7 -14 -14 -21q-9 -9 -22 -14t-26 -5t-26 5
q-11 4 -21 14q-11 11 -15 21q-5 10 -5 26q0 15 5 25q7 14 15 22q7 7 21 14q12 6 26 6t26 -6q16 -8 22 -14t14 -22q5 -10 5 -25z" />
    <glyph glyph-name="Zacute" unicode="&#x179;" horiz-adv-x="592" 
d="M562 631l-371 -524h290q2 19 4.5 35.5t3.5 24.5t1 9q5 19 23 19h53v-88v-107h-549v53q0 10 3 19q4 12 9 18l372 526h-275q-2 -19 -4.5 -36.5t-3.5 -25.5t-1 -9q-5 -19 -23 -19h-53l-1 197h535v-50q0 -23 -13 -42zM502 896l-148 -108q-4 -3 -10 -7q-2 -1 -10 -4
q-6 -2 -10 -2q-2 0 -5.5 -0.5t-6.5 -0.5h-97l98 102q7 7 11 10q6 5 11 6q6 3 13 3q2 0 7 0.5t9 0.5h138z" />
    <glyph glyph-name="zacute" unicode="&#x17a;" horiz-adv-x="438" 
d="M424 168h4v-168h-14h-2h-394v52q0 9 4 20q5 14 12 22l246 324h-161q-4 -40 -6 -50q-5 -19 -23 -19h-41h-12h-5v158v6h389v-51q0 -14 -4 -25q-3 -7 -12 -21l-243 -321h179q6 52 6 54q5 19 23 19h42h12zM406 731l-123 -131q-8 -9 -19 -13q-12 -4 -22 -4h-74l71 121
q8 15 17 20q12 7 30 7h120z" />
    <glyph glyph-name="Zdotaccent" unicode="&#x17b;" horiz-adv-x="592" 
d="M562 631l-371 -524h290q2 19 4.5 35.5t3.5 24.5t1 9q5 19 23 19h53v-88v-107h-549v53q0 10 3 19q4 12 9 18l372 526h-275q-2 -19 -4.5 -36.5t-3.5 -25.5t-1 -9q-5 -19 -23 -19h-53l-1 197h535v-50q0 -23 -13 -42zM386 848q0 -13 -7 -29q-6 -13 -16 -23q-9 -9 -25 -16
q-14 -6 -30 -6q-14 0 -28 6q-13 6 -23 16q-12 12 -17 23q-6 13 -6 29t6 29t17 24q10 10 23 16q14 6 28 6q16 0 30 -6t24 -16q11 -11 17 -24q7 -16 7 -29z" />
    <glyph glyph-name="zdotaccent" unicode="&#x17c;" horiz-adv-x="438" 
d="M424 168h4v-168h-14h-2h-394v52q0 9 4 20q5 14 12 22l246 324h-161q-4 -40 -6 -50q-5 -19 -23 -19h-41h-12h-5v158v6h389v-51q0 -14 -4 -25q-3 -7 -12 -21l-243 -321h179q6 52 6 54q5 19 23 19h42h12zM313 664q0 -12 -7 -30q-5 -12 -17 -24t-25 -17q-17 -7 -32 -7
q-14 0 -30 7q-13 6 -24 17q-12 12 -17 24q-6 15 -6 30q0 16 6 31q5 13 17 25q11 11 25 17q16 7 30 7q13 0 31 -7q13 -5 25 -17q13 -13 18 -25q6 -15 6 -31z" />
    <glyph glyph-name="Zcaron" unicode="&#x17d;" horiz-adv-x="592" 
d="M562 631l-371 -524h290q2 19 4.5 35.5t3.5 24.5t1 9q5 19 23 19h53v-88v-107h-549v53q0 10 3 19q4 12 9 18l372 526h-275q-2 -19 -4.5 -36.5t-3.5 -25.5t-1 -9q-5 -19 -23 -19h-53l-1 197h535v-50q0 -23 -13 -42zM128 884h93q5 0 17 -2q8 -1 14 -6l50 -34l2 -1l2 -1l2 -1
q2 -1 2 -2q1 1 4 3l2 1l2 1l50 34q6 5 14 6q12 2 17 2h93l-120 -110h-124z" />
    <glyph glyph-name="zcaron" unicode="&#x17e;" horiz-adv-x="437" 
d="M424 168h4v-168h-14h-2h-394v52q0 9 4 20q5 14 12 22l246 324h-161q-4 -40 -6 -50q-5 -19 -23 -19h-41h-12h-5v158v6h389v-51q0 -14 -4 -25q-3 -7 -12 -21l-243 -321h179q6 52 6 54q5 19 23 19h42h12zM291 584h-116l-115 139h86q8 0 14 -3q8 -4 11 -6l53 -48q6 -6 10 -11
l6 6l5 5l53 48q6 4 11 6q8 3 14 3h82z" />
    <glyph glyph-name="florin" unicode="&#x192;" horiz-adv-x="492" 
d="M315 372l-41 -343q-6 -48 -26 -91q-19 -40 -51 -63q-34 -25 -78 -36q-43 -11 -108 -11v64q0 38 39 38q22 0 38 6q18 7 30 17q11 10 21 31q9 20 12 48l41 338l-61 9q-28 6 -28 31v50h101l8 74q12 99 76 151q63 51 187 51v-68q0 -20 -9 -27q-10 -8 -30 -8q-24 0 -38 -5
q-16 -5 -30 -18q-14 -12 -23 -32t-12 -47l-10 -71h147v-88h-155z" />
    <glyph glyph-name="circumflex" unicode="&#x2c6;" horiz-adv-x="389" 
d="M367 584h-83q-15 0 -24 9l-53 47q-1 1 -2.5 3t-2.5 3l-6 6q-1 -1 -2.5 -3t-2.5 -3t-2.5 -3t-2.5 -3l-54 -47q-6 -4 -10 -6q-6 -3 -14 -3h-86l114 139h116z" />
    <glyph glyph-name="caron" unicode="&#x2c7;" horiz-adv-x="390" 
d="M253 584h-116l-115 139h86q8 0 14 -3q8 -4 11 -6l53 -48q6 -6 10 -11l6 6q1 1 3 2.5t3 2.5l52 48q6 4 11 6q7 3 14 3h82z" />
    <glyph glyph-name="uni02C9" unicode="&#x2c9;" horiz-adv-x="352" 
d="M26 686h300v-79h-300v79z" />
    <glyph glyph-name="breve" unicode="&#x2d8;" horiz-adv-x="351" 
d="M176 580q-44 0 -72 12q-30 13 -46 30q-18 20 -26 46q-7 24 -7 55h87q0 -19 2 -27q3 -11 10 -20q7 -8 20 -13t32 -5t32 5t20 13q7 9 10 20q3 12 3 27h86q0 -31 -7 -55q-8 -26 -26 -46q-16 -17 -46 -30q-28 -12 -72 -12z" />
    <glyph glyph-name="dotaccent" unicode="&#x2d9;" horiz-adv-x="205" 
d="M182 664q0 -15 -6 -30q-4 -10 -18 -24q-12 -12 -25 -17q-17 -7 -31 -7t-30 7q-14 6 -25 17q-12 12 -17 24q-6 15 -6 30q0 16 6 31q5 13 17 25q11 11 25 17q16 7 30 7t31 -7q13 -5 25 -17q13 -13 18 -25q6 -15 6 -31z" />
    <glyph glyph-name="ring" unicode="&#x2da;" horiz-adv-x="269" 
d="M24 662q0 25 8 42q8 18 25 33q15 13 35 21q21 8 42 8t43 -8q21 -8 36 -21q17 -15 25 -33q9 -20 9 -42t-9 -40q-9 -17 -25 -32q-15 -14 -36 -21q-20 -7 -43 -7q-24 0 -42 7q-20 8 -35 21q-16 15 -25 32q-8 16 -8 40zM90 662q0 -19 12 -31q13 -13 34 -13q19 0 32 13
q12 12 12 31q0 22 -12 34t-32 12q-22 0 -34 -12t-12 -34z" />
    <glyph glyph-name="ogonek" unicode="&#x2db;" horiz-adv-x="247" 
d="M192 -94q8 0 11 -8l19 -45q-16 -10 -41 -18q-22 -7 -53 -7q-49 0 -75 20q-27 21 -27 53q0 29 22 57q21 27 60 48l64 -6q-18 -10 -20 -12q-12 -10 -17 -16q-8 -10 -12 -19q-5 -12 -5 -21q0 -14 10 -24q8 -8 26 -8h16q8 2 10 3l6 3h6z" />
    <glyph glyph-name="tilde" unicode="&#x2dc;" horiz-adv-x="368" 
d="M237 680q15 0 23 8q9 9 9 30h75q0 -27 -8 -51q-8 -23 -21 -39q-12 -15 -32 -25q-18 -9 -42 -9q-18 0 -33 6q-14 5 -29 14q-2 1 -11 6.5t-14 7.5q-14 7 -22 7q-14 0 -23 -9q-8 -8 -8 -30h-77q0 27 8 51q7 20 22 39q13 16 33 26q16 8 41 8q18 0 33 -6q14 -5 29 -14
q18 -10 26 -14q12 -6 21 -6z" />
    <glyph glyph-name="hungarumlaut" unicode="&#x2dd;" horiz-adv-x="409" 
d="M213 731l-99 -131q-7 -9 -18 -13q-12 -4 -24 -4h-50l63 121q8 15 17 20q12 7 30 7h81zM388 731l-126 -131q-8 -8 -18 -13q-8 -4 -23 -4h-58l88 121l9 12q7 7 9 8q8 4 13 5q10 2 17 2h89z" />
    <glyph glyph-name="pi" unicode="&#x3c0;" horiz-adv-x="637" 
d="M620 513v-49q0 -15 -10 -28q-8 -11 -28 -11h-54v-425h-124v425h-169v-292q0 -30 -8 -57q-8 -26 -24 -44q-17 -19 -43 -29t-64 -10q-18 0 -38 3q-14 2 -38 14l4 52q1 9 8 14q8 6 26 6q30 0 42 12t12 40v291h-90v44q0 7 3 15t9 14q8 8 14 11q8 4 20 4h552z" />
    <glyph glyph-name="endash" unicode="&#x2013;" horiz-adv-x="462" 
d="M28 344h406v-88h-406v88z" />
    <glyph glyph-name="emdash" unicode="&#x2014;" horiz-adv-x="735" 
d="M28 344h679v-88h-679v88z" />
    <glyph glyph-name="quoteleft" unicode="&#x2018;" horiz-adv-x="185" 
d="M55 488q-34 55 -34 112q0 52 25 96q27 47 74 84l38 -24q6 -4 7 -7q2 -6 2 -8q0 -3 -2 -9q-1 -2 -5 -6q-1 -2 -13 -18q-7 -9 -13 -22q-4 -8 -10 -26q-4 -12 -4 -30q0 -20 5 -36q6 -20 19 -40q4 -7 4 -14q0 -16 -18 -22z" />
    <glyph glyph-name="quoteright" unicode="&#x2019;" horiz-adv-x="184" 
d="M130 766q17 -26 26 -56q8 -25 8 -56q0 -52 -25 -96q-26 -46 -73 -84l-38 24q-7 5 -8 7q-2 6 -2 9q0 9 7 16q4 5 14 17q6 7 13 21q8 15 10 26q4 18 4 30q0 16 -6 36q-8 25 -18 41q-5 7 -5 13q0 17 19 23z" />
    <glyph glyph-name="quotesinglbase" unicode="&#x201a;" horiz-adv-x="193" 
d="M134 146q16 -25 26 -57q8 -25 8 -55q0 -52 -25 -96q-26 -46 -73 -84l-38 23q-6 4 -7 8q-2 6 -2 8q0 9 7 16q2 2 6 8t7 9q5 6 13 22t10 25q4 18 4 30q0 17 -6 37q-7 23 -18 40q-4 5 -4 14q0 16 18 22z" />
    <glyph glyph-name="quotedblleft" unicode="&#x201c;" horiz-adv-x="351" 
d="M55 488q-34 55 -34 112q0 52 25 96q27 47 74 84l38 -24q6 -4 7 -7q2 -6 2 -8q0 -3 -2 -9q-1 -2 -5 -6q-1 -2 -13 -18q-7 -9 -13 -22q-4 -8 -10 -26q-4 -12 -4 -30q0 -20 5 -36q6 -20 19 -40q4 -7 4 -14q0 -16 -18 -22zM221 488q-34 55 -34 112q0 52 25 96q27 47 74 84
l38 -24q6 -4 7 -7q2 -6 2 -8q0 -3 -2 -9q-1 -3 -4 -6q-11 -13 -14 -18q-7 -9 -13 -22q-4 -8 -10 -26q-4 -12 -4 -30q0 -20 5 -36q6 -20 19 -40q4 -7 4 -14q0 -16 -18 -22z" />
    <glyph glyph-name="quotedblright" unicode="&#x201d;" horiz-adv-x="350" 
d="M130 766q17 -26 26 -56q8 -25 8 -56q0 -52 -25 -96q-26 -46 -73 -84l-38 24q-7 5 -8 7q-2 6 -2 9q0 9 7 16q2 3 7 8t7 8q5 6 13 22q8 15 10 26q4 18 4 30q0 16 -6 36q-8 25 -18 41q-5 7 -5 13q0 17 19 23zM296 766q17 -26 26 -56q8 -25 8 -56q0 -52 -25 -96
q-26 -46 -73 -84l-39 24q-6 4 -7 7q-2 6 -2 8q0 9 7 16q4 5 14 17q5 6 13 22q8 15 10 26q3 14 3 30q0 20 -5 36q-8 25 -18 41q-5 7 -5 13q0 17 19 23z" />
    <glyph glyph-name="quotedblbase" unicode="&#x201e;" horiz-adv-x="359" 
d="M134 146q17 -26 26 -56q8 -25 8 -56q0 -52 -25 -96q-26 -46 -73 -84l-38 24q-6 4 -7 7q-2 6 -2 8q0 9 7 16q2 2 6 8t7 9q6 8 13 21q8 15 10 26q4 18 4 30q0 17 -6 37q-7 23 -18 40q-4 5 -4 14q0 16 18 22zM300 145q17 -26 26 -56q8 -25 8 -56q0 -51 -25 -95
q-26 -46 -73 -84l-38 23q-6 4 -7 8q-2 6 -2 8q0 10 6 16q4 5 14 17q6 7 13 21q8 15 10 26q4 18 4 30q0 17 -6 37q-7 23 -18 40q-4 5 -4 14q0 16 18 22z" />
    <glyph glyph-name="dagger" unicode="&#x2020;" horiz-adv-x="532" 
d="M17 456q0 11 3 20q4 10 11 18t18 12q9 4 26 4q28 0 68 -8q50 -10 75 -14l-16 244q26 16 64 16q20 0 35 -4t29 -12l-16 -244q25 4 75 14q40 8 69 8q17 0 26 -4q10 -4 18 -12q6 -6 10 -18t4 -20v-40h-202v-178l16 -400q-14 -8 -30 -12q-15 -4 -34 -4q-38 0 -64 16l16 400
v178h-201v40z" />
    <glyph glyph-name="daggerdbl" unicode="&#x2021;" horiz-adv-x="535" 
d="M18 456q0 8 4 20t10 18q8 8 18 12q9 4 26 4q29 0 69 -8q54 -11 74 -14l-15 244q26 16 64 16q19 0 34 -4q16 -4 30 -12l-16 -244q20 3 74 14q40 8 69 8q17 0 26 -4q11 -4 18 -12t11 -18q3 -9 3 -20v-40h-201v-260h201v-42q0 -11 -3 -20q-2 -7 -11 -16q-7 -8 -18 -12
q-12 -5 -26 -5q-29 0 -69 8q-29 6 -74 13l16 -244q-14 -8 -30 -12q-15 -4 -34 -4q-38 0 -64 16l15 244q-50 -8 -75 -13q-40 -8 -68 -8q-14 0 -26 5q-10 4 -18 12q-7 7 -10 16q-4 12 -4 20v42h202v260h-202v40z" />
    <glyph glyph-name="bullet" unicode="&#x2022;" horiz-adv-x="480" 
d="M22 296q0 48 17 85q19 41 47 69q31 31 69 47q40 17 85 17q43 0 85 -17q37 -15 69 -47q28 -28 47 -69q17 -37 17 -85q0 -46 -17 -83q-19 -41 -47 -69q-30 -29 -70 -46q-42 -17 -84 -17q-45 0 -85 17t-69 46q-28 28 -47 69q-17 37 -17 83z" />
    <glyph glyph-name="ellipsis" unicode="&#x2026;" horiz-adv-x="737" 
d="M26 68q0 16 6 30t16 24t24 16t30 6t30 -6t24 -16t16 -24t6 -30t-6 -30q-6 -13 -16 -23t-24 -16t-29 -6q-17 0 -30 6q-16 7 -25 16q-10 10 -16 23q-6 14 -6 30zM560 68q0 16 6 30t16 24t24 16t30 6t30 -6t24 -16t16 -24t6 -30t-6 -30t-16 -24q-8 -8 -24 -15q-14 -6 -30 -6
t-30 6q-16 7 -24 15q-10 10 -16 24t-6 30zM293 68q0 16 6 29q6 14 16 24q11 11 25 17t30 6t29 -6q14 -6 24 -16t16 -24t6 -30t-6 -30t-16 -24q-8 -8 -24 -15q-13 -6 -29 -6t-30 6q-18 8 -25 15q-10 10 -16 24t-6 30z" />
    <glyph glyph-name="perthousand" unicode="&#x2030;" horiz-adv-x="1147" 
d="M352 548q0 -40 -14 -74q-12 -29 -37 -56q-22 -24 -53 -36q-30 -12 -64 -12q-36 0 -66 12q-31 12 -53 36q-24 26 -35 56q-12 33 -12 74q0 42 12 76q11 33 35 58q22 24 53 36q30 12 66 12q37 0 67 -12q31 -12 53 -36q24 -25 35 -58q13 -37 13 -76zM256 548q0 28 -6 48
t-15 32q-8 10 -23 17q-11 5 -28 5t-28 -5q-14 -6 -22 -17q-11 -15 -15 -32q-5 -16 -5 -48t5 -47q6 -18 15 -30q10 -13 22 -17t28 -4t28 4q14 5 23 17q11 14 16 30q5 15 5 47zM592 704q5 6 15 13q9 6 25 6h90l-538 -705q-5 -6 -15 -13q-7 -5 -22 -5h-92zM760 170
q0 -40 -14 -74q-12 -29 -37 -56q-22 -24 -53 -36q-32 -13 -64 -13q-34 0 -66 13q-31 12 -53 36q-24 26 -35 56q-13 36 -13 74q0 39 13 76q11 33 35 58q22 24 53 36q30 12 66 12q37 0 67 -12q31 -12 53 -36q24 -25 35 -58q13 -37 13 -76zM664 170q0 33 -5 49t-16 31
q-8 10 -23 17q-14 6 -28 6t-28 -6t-22 -17q-9 -12 -15 -31q-5 -16 -5 -49q0 -31 5 -47q5 -17 15 -30t22 -17q15 -5 28 -5t28 5q14 5 23 17q11 15 16 30q5 16 5 47zM1130 170q0 -40 -14 -74q-12 -29 -37 -56q-22 -24 -53 -36q-32 -13 -64 -13q-34 0 -66 13q-31 12 -53 36
q-24 26 -35 56q-12 33 -12 74q0 42 12 76q11 33 35 58q22 24 53 36q32 13 66 13t67 -13q33 -15 53 -36q24 -25 35 -58q13 -37 13 -76zM1035 170q0 30 -6 49t-15 31q-10 11 -23 17q-14 6 -29 6q-14 0 -28 -6t-22 -17q-9 -12 -15 -31q-5 -16 -5 -49q0 -31 5 -47q5 -17 15 -30
t22 -17q15 -5 28 -5q14 0 29 5q14 5 23 17q9 10 15 30q6 19 6 47z" />
    <glyph glyph-name="guilsinglleft" unicode="&#x2039;" horiz-adv-x="228" 
d="M20 261v16l128 198l40 -19q10 -4 15 -12t5 -15q0 -9 -7 -21l-69 -118q-8 -14 -16 -21q10 -10 16 -21l69 -118q7 -12 7 -22q0 -17 -19 -26l-41 -19z" />
    <glyph glyph-name="guilsinglright" unicode="&#x203a;" horiz-adv-x="230" 
d="M82 63l-40 19q-10 4 -15 12t-5 15q0 9 7 21l69 118q6 11 16 21q-8 7 -16 21l-69 118q-7 12 -7 21q0 18 20 27l40 19l128 -198v-16z" />
    <glyph glyph-name="fraction" unicode="&#x2044;" horiz-adv-x="565" 
d="M130 36q-13 -21 -28 -28q-16 -8 -34 -8h-53l417 682q12 20 27 30q16 11 38 11h53z" />
    <glyph glyph-name="Euro" unicode="&#x20ac;" horiz-adv-x="587" 
d="M20 464h67q13 65 36 110q26 50 61 84q36 35 82 53q47 19 99 19q70 0 119 -27t82 -72l-43 -47q-3 -4 -11 -10q-5 -4 -15 -4q-8 0 -13 4q-2 2 -6 5t-6 5q-10 8 -16 13q-9 7 -20 13q-10 5 -28 10q-15 4 -38 4q-59 0 -99 -40q-41 -40 -57 -120h251v-38q0 -12 -9 -21
q-10 -10 -25 -10h-225q0 -3 -0.5 -9t-0.5 -8v-16v-12q0 -2 0.5 -6t0.5 -6h212v-38q0 -11 -10 -21q-9 -9 -24 -9h-172q14 -87 53 -129t99 -42q35 0 58 10q22 9 35 21q9 8 23 22q10 10 20 10q4 0 10 -2q3 -1 8 -6l54 -50q-34 -53 -89 -82t-125 -29q-58 0 -106 20
q-47 20 -81 55t-57 88q-20 46 -30 114h-64v68h58v12v12v16v17h-58v69z" />
    <glyph glyph-name="trademark" unicode="&#x2122;" horiz-adv-x="695" 
d="M473 582q4 -8 7 -17l6 -18l6 18q1 3 8 17l67 128q5 9 11 11q8 2 16 2h74v-301h-75v150l5 50l-76 -151q-10 -19 -29 -19h-12q-21 0 -30 19l-75 149l5 -48v-150h-75v301h74q13 0 17 -1q5 -1 10 -12zM270 723v-70h-82v-231h-85v231h-81v70h248z" />
    <glyph glyph-name="Omega" unicode="&#x2126;" horiz-adv-x="709" 
d="M391 0l-1 248q35 6 64 19q32 14 52 36q22 24 34 55q12 32 12 75q0 45 -14 82q-14 36 -39 60q-26 25 -63 37q-36 12 -81 12t-81 -12q-35 -12 -62 -37t-40 -60q-14 -37 -14 -82q0 -41 13 -75q13 -33 33 -55t52 -36q29 -13 64 -19v-248h-254q-21 0 -33 12t-12 30v68h195v70
q-49 13 -84 36q-37 25 -61 59q-23 34 -37 76q-14 44 -14 89q0 59 25 114q24 53 68 92q44 40 105 62q63 23 137 23t137 -23q61 -22 105 -62q44 -39 68 -92q25 -55 25 -114q0 -45 -14 -89q-14 -42 -37 -76q-24 -34 -61 -59q-36 -24 -83 -36v-70h195v-68q0 -17 -13 -30
q-12 -12 -33 -12h-253z" />
    <glyph glyph-name="partialdiff" unicode="&#x2202;" horiz-adv-x="552" 
d="M138 668q16 12 40 26q23 13 42 20q23 8 46 12q21 4 54 4q48 0 86 -19q39 -19 67 -55q29 -37 44 -87q15 -51 15 -116q0 -110 -18 -189q-19 -82 -58 -145q-38 -61 -95 -94t-133 -33q-45 0 -84 15t-67 43t-43 67q-16 42 -16 89q0 57 20 109q18 47 55 87q34 37 82 58t103 21
q50 0 84 -18t58 -49q0 4 0.5 10.5t0.5 9.5v18q0 46 -9 79q-10 36 -24 57q-13 19 -37 33q-21 11 -48 11q-21 0 -36 -4q-10 -3 -31 -12q-4 -1 -9 -3.5t-8.5 -4t-7.5 -2.5q-16 -6 -19 -6q-9 0 -14 4q-8 6 -14 16zM242 88q25 0 52 12q26 12 46 34t37 62q16 35 25 92
q-5 20 -13 37q-9 18 -22 31q-14 14 -31 21q-19 8 -44 8q-39 0 -65 -13q-28 -14 -45 -37q-20 -27 -28 -56t-8 -72q0 -57 25 -88t71 -31z" />
    <glyph glyph-name="Delta" unicode="&#x2206;" horiz-adv-x="751" 
d="M315 723h121l300 -723h-721zM194 106h364l-158 408q-5 12 -12 32q-4 12 -12 40q-5 -20 -12 -40q-8 -24 -12 -34z" />
    <glyph glyph-name="product" unicode="&#x220f;" horiz-adv-x="670" 
d="M653 723v-103h-83v-788h-128v788h-213v-788h-127v788h-84v103h635z" />
    <glyph glyph-name="summation" unicode="&#x2211;" horiz-adv-x="642" 
d="M18 723h604v-103h-412l256 -324v-36l-256 -324h412v-104h-604v44q0 6 4 18q3 10 10 18l297 367l-297 364q-7 8 -10 18q-4 12 -4 19v43z" />
    <glyph glyph-name="minus" unicode="&#x2212;" horiz-adv-x="499" 
d="M28 382h443v-92h-443v92z" />
    <glyph glyph-name="radical" unicode="&#x221a;" horiz-adv-x="634" 
d="M124 321h-61q-21 0 -33 11q-14 12 -14 38v40h176q15 0 24 -6t12 -17l51 -155q5 -14 11 -42q3 -12 7 -43q4 22 6 34q3 16 9 35l194 614q3 10 12 16q10 7 22 7h81l-275 -853h-104z" />
    <glyph glyph-name="infinity" unicode="&#x221e;" horiz-adv-x="686" 
d="M499 116q-26 0 -50 8q-19 6 -41 20q-18 11 -35 30t-29 36q-14 -20 -30 -36q-22 -22 -35 -30q-21 -13 -42 -20q-24 -8 -50 -8q-34 0 -63 13q-30 13 -52 37t-36 57q-14 34 -14 73t14 73q13 31 36 56q22 24 52 37q31 14 63 14q26 0 50 -8q21 -7 42 -20q13 -8 35 -30
q13 -13 29 -36q9 13 30 36q19 21 34 30q21 13 42 20q24 8 50 8q32 0 63 -14q32 -14 53 -37q23 -24 36 -57q13 -32 13 -72q0 -41 -13 -73q-13 -33 -36 -57q-21 -23 -53 -37q-29 -13 -63 -13zM192 216q14 0 28 6q11 5 25 17t23 25q7 10 21 32q-7 11 -21 31q-11 15 -23 26
q-14 12 -25 17q-14 6 -28 6q-16 0 -28 -4q-7 -2 -22 -15q-10 -10 -16 -25t-6 -36q0 -22 6 -37q7 -17 16 -25q13 -11 22 -14q12 -4 28 -4zM494 216q16 0 28 4q13 4 24 14q8 7 15 25q6 15 6 37q0 21 -6 36q-7 17 -16 25q-14 12 -23 15q-12 4 -28 4q-15 0 -28 -6q-9 -4 -25 -18
q-12 -10 -22 -25q-14 -20 -21 -31q14 -22 21 -32q10 -15 22 -25q14 -12 25 -17q13 -6 28 -6z" />
    <glyph glyph-name="integral" unicode="&#x222b;" horiz-adv-x="514" 
d="M239 547q10 86 56 135t125 49q11 0 39 -4q23 -5 39 -13l-6 -60q0 -1 -3 -10q-1 -4 -5 -8q-3 -3 -11 -7q-6 -3 -18 -3q-26 0 -41 -5q-17 -5 -29 -18q-9 -9 -18 -30q-7 -16 -10 -42l-64 -503q-5 -47 -24 -89q-19 -39 -43 -62q-26 -24 -60 -36t-74 -12q-10 0 -38 4
q-17 2 -38 13l6 52q2 8 3 11t7 7t12 5q5 1 20 1q28 0 48 6t33 18q12 10 20 32q7 18 10 46z" />
    <glyph glyph-name="approxequal" unicode="&#x2248;" horiz-adv-x="470" 
d="M342 448q10 0 30 4q12 2 27 8q18 9 21 11q8 6 12 11l15 -79q-19 -25 -50 -37t-63 -12q-24 0 -53 8q-5 1 -52 18q-42 15 -49 17q-22 7 -46 7q-16 0 -31 -3t-27 -9q-16 -8 -22 -12q-10 -6 -12 -10l-18 74q10 14 22 24q14 11 29 17q14 5 33 9q22 4 34 4q24 0 53 -8
q18 -5 52 -17q42 -15 49 -17q26 -8 46 -8zM342 270q10 0 30 4q12 2 27 8q18 9 21 11q8 6 12 11l15 -79q-19 -25 -50 -37q-29 -11 -63 -11q-29 0 -53 7q-5 1 -52 18q-42 15 -49 17q-26 8 -46 8q-11 0 -31 -4q-15 -3 -27 -9q-16 -8 -22 -12q-10 -6 -12 -10l-18 75q10 14 22 24
q12 9 29 16q18 7 33 10q16 3 34 3q24 0 53 -8q18 -5 52 -17q42 -15 49 -17q26 -8 46 -8z" />
    <glyph glyph-name="notequal" unicode="&#x2260;" horiz-adv-x="489" 
d="M23 470h251l55 110h89l-56 -110h104v-92h-150l-42 -84h192v-92h-238l-58 -118h-88l58 118h-117v92h163l42 84h-205v92z" />
    <glyph glyph-name="lessequal" unicode="&#x2264;" horiz-adv-x="442" 
d="M22 420l396 189v-84q0 -10 -6 -19t-22 -16l-176 -79q-15 -6 -26 -9q-2 0 -13 -3t-17 -4q8 -2 30 -8q20 -6 26 -9l176 -80q16 -7 22 -16t6 -19v-84l-396 191v50zM22 131h396v-91h-396v91z" />
    <glyph glyph-name="greaterequal" unicode="&#x2265;" horiz-adv-x="440" 
d="M420 420v-50l-396 -191v84q0 10 6 19t22 16l176 80q8 4 26 10q10 3 30 7q-5 1 -15 3.5t-15 3.5q-10 2 -26 10l-176 78q-16 7 -22 16t-6 19v84zM420 40h-396v92h396v-92z" />
    <glyph glyph-name="lozenge" unicode="&#x25ca;" horiz-adv-x="497" 
d="M15 360l191 406h86l190 -406l-190 -406h-86zM116 360l116 -250q4 -9 10 -25q2 -5 3.5 -13t2.5 -10q2 7 8 23t10 25l117 250l-117 250q-9 19 -10 25q-1 4 -4 12t-4 11q-1 -2 -3.5 -10t-3.5 -13q-3 -11 -9 -25z" />
    <glyph glyph-name="uni2669" unicode="&#x2669;" horiz-adv-x="58" 
d="M28 743h2v-911h-2v911z" />
    <glyph glyph-name="undercommaaccent" horiz-adv-x="186" 
d="M133 -36q14 0 17 -6t3 -13t-1 -11q0 -2 -1.5 -8l-2.5 -10q-1 -5 -5 -15t-5 -14q-2 -6 -19 -42q-7 -15 -17 -19q-9 -4 -26 -4h-44l26 142h75z" />
    <glyph glyph-name="grave.case" horiz-adv-x="354" 
d="M170 896q4 0 9.5 -0.5t7.5 -0.5q7 0 13 -3q8 -4 10 -6q1 -1 5.5 -4.5t6.5 -5.5l98 -102h-98q-3 0 -6.5 0.5t-5.5 0.5q-7 0 -10 1q-4 1 -8 4q-1 1 -4.5 2.5t-5.5 3.5l-149 110h137z" />
    <glyph glyph-name="dieresis.case" horiz-adv-x="416" 
d="M167 834q0 -16 -5 -26q-6 -12 -15 -21t-23 -14q-13 -5 -26 -5q-12 0 -25 5q-11 4 -21 14q-7 7 -14 21q-5 10 -5 26q0 15 5 25q8 16 14 22q9 9 21 15q10 5 25 5q16 0 26 -5q14 -7 22 -15q10 -10 16 -22q5 -10 5 -25zM383 834q0 -16 -5 -26q-7 -14 -14 -21q-9 -9 -22 -14
t-26 -5t-26 5q-11 4 -21 14q-9 9 -15 21q-5 10 -5 26q0 15 5 25q7 14 15 22q9 9 21 15q10 5 26 5t26 -5q14 -7 22 -15q6 -6 14 -22q5 -10 5 -25z" />
    <glyph glyph-name="macron.case" horiz-adv-x="337" 
d="M36 852h266v-70h-266v70z" />
    <glyph glyph-name="acute.case" horiz-adv-x="354" 
d="M321 896l-148 -108q-4 -3 -10 -7q-2 -1 -10 -4q-6 -2 -10 -2q-2 0 -5.5 -0.5t-6.5 -0.5h-97l98 102q7 7 11 10q7 5 11 6q6 3 12 3q2 0 8 0.5t10 0.5h137z" />
    <glyph glyph-name="circumflex.case" horiz-adv-x="433" 
d="M399 774h-93q-5 0 -17 2q-9 2 -15 6l-50 34q-1 0 -2 1l-2 1l-4 4l-1 -1q-1 -1 -1 -2q-1 -1 -5 -3l-51 -34q-6 -5 -14 -6q-12 -2 -16 -2h-94l121 110h123z" />
    <glyph glyph-name="caron.case" horiz-adv-x="432" 
d="M34 884h93q5 0 17 -2q8 -1 14 -6l50 -34l2 -1q1 -1 2 -1l2 -1l2 -1l2 1l2 1l2 1q1 1 2 1l50 34q6 5 14 6q12 2 17 2h93l-120 -110h-124z" />
    <glyph glyph-name="breve.case" horiz-adv-x="376" 
d="M188 763q-74 0 -115 30q-40 30 -40 91h79q0 -24 18 -36t58 -12t58 12t18 36h79q0 -29 -10 -50q-10 -22 -31 -38q-20 -15 -48 -24t-66 -9z" />
    <glyph glyph-name="dotaccent.case" horiz-adv-x="218" 
d="M184 848q0 -14 -6 -28t-16 -24q-9 -9 -25 -16q-13 -6 -29 -6q-14 0 -28 6t-24 16t-16 24t-6 28q0 16 6 29q6 14 16 24q11 11 24 17t28 6q16 0 29 -6q14 -6 25 -17q10 -10 16 -24q6 -13 6 -29z" />
    <glyph glyph-name="ring.case" horiz-adv-x="271" 
d="M32 842q0 22 8 38q9 19 22 30q13 12 33 20q17 7 39 7t40 -7q17 -7 34 -20q13 -11 23 -30q9 -18 9 -38q0 -21 -9 -39t-23 -29q-19 -16 -34 -20q-19 -6 -40 -6t-39 6q-17 6 -33 20q-13 12 -22 29q-8 16 -8 39zM90 842q0 -20 12 -32q13 -13 34 -13q19 0 32 13q12 12 12 32
t-12 32t-32 12q-22 0 -34 -12t-12 -32z" />
    <glyph glyph-name="tilde.case" horiz-adv-x="378" 
d="M248 850q13 0 21 7q9 7 9 24h67q0 -21 -7 -45q-6 -21 -18 -36q-9 -12 -30 -22q-16 -8 -40 -8q-20 0 -34 5q-22 8 -32 12q-20 8 -29 12q-11 5 -23 5q-15 0 -22 -8q-8 -10 -8 -24h-68q0 24 6 45q5 19 19 36q11 13 30 23q16 8 39 8q22 0 36 -5q22 -8 32 -12t28 -12
q11 -5 24 -5z" />
    <glyph glyph-name="hungarumlaut.case" horiz-adv-x="449" 
d="M234 888l-101 -96q-8 -8 -18 -13t-23 -5h-58l66 88q7 9 21 18q13 8 32 8h81zM416 888l-126 -96q-7 -6 -21 -13q-10 -5 -24 -5h-67l89 88q8 8 24 18q13 8 33 8h92z" />
    <glyph glyph-name="caron.salt" horiz-adv-x="181" 
d="M138 744q14 0 17 -6t3 -12q0 -3 -2 -13l-3.5 -10.5t-3.5 -11.5q-6 -15 -15 -39q-2 -4 -24 -58q-6 -15 -16 -19q-9 -4 -26 -4h-44l30 173h84z" />
    </font>
</defs>
</svg>
